Subcategories

Duke Ellington - Welcome To The Clubs: Blue Note 1956-57, Hickory House 1957, Storyville 1959 (2014) {La Maison du Duke MDD005}

Posted By: ruskaval
Duke Ellington - Welcome To The Clubs: Blue Note 1956-57, Hickory House 1957, Storyville 1959 (2014) {La Maison du Duke MDD005}

Duke Ellington - Welcome To The Clubs: Blue Note 1956-57, Hickory House 1957, Storyville 1959 (2014) {La Maison du Duke MDD 005}
EAC rip (secure mode) | FLAC (tracks)+CUE+LOG -> 243 Mb | MP3 @320 -> 153 Mb
Full Artwork @ 600 dpi (jpg) -> 23 Mb | 5% repair rar
© 1956-59, 2014 La Maison du Duke | MDD 005
Jazz / Mainstream Jazz / Big Band / Progressive Jazz

La Maison du Duke is proud to present a collection of unpublished recordings of Duke Ellington, which come from an important stock of Ellington archives (Clavié collection), acquired by the association, which only a few collectors had access to today . The CDs are reserved for members of the Maison du Duke association and are not intended to be marketed.

La Maison du Duke est fière de vous présenter une collection d’enregistrements inédits de Duke Ellington, qui roviennent d’un important stock d’archives ellingtoniennes (collection Clavié), acquis par l’association, auquel seuls quelques collectionneurs avaient accès à ce jour. Tirés en très faible quantité, les CDs sont réservés aux membres de l’association la Maison du Duke et n’ont pas vocation à être commercialisés.
Ce cinquième volume des trésors de la collection Clavié diffusé par la MDD présente des extraits de quatre prestations particulièrement réussies par le maestro et ses alumni dans l’atmosphère chaleureusement enfumée de quelques clubs américains qui, par ailleurs, ont marqué l’histoire du jazz (le Blue Note de Chicago, l’Hickory House de New York, le Storyville de Boston). Le tout enregistré entre 1956 et 1959, avec Oscar Pettiford et Max Roach dans le rôle d’invités-surprise sur trois titres…

La Maison du Duke INFO

tracklist:
DUKE ELLINGTON AND HIS ORCHESTRA
Blue Note, Chicago, August 26, 1956

1 Newport Up
2 I Got It Bad, And That Ain’t Good
3 Tulip Or Turnip
4 Mood Indigo

Blue Note, Chicago, January 1st, 1957
5 Take The “A” Train
6 Diminuendo And Crescendo In Blue
7 Jeep’s Blues
8 Just Squeeze Me
9 Mood Indigo

DUKE ELLINGTON GROUP
Hickory House, New York, April 23, 1957

10 Take The “A” Train
11 Things Ain’t What They Used To Be
12 Perdido

DUKE ELLINGTON AND HIS ORCHESTRA
Storyville, Boston, March 14, 1959

13 Take The “A” Train
14 Caravan
15 Juniflip
16 Medley: Don’t Get Around Much Anymore – Do Nothin’ Till You Hear From Me – I
Got It Bad And That Ain’t Good – Things Ain’t What They Used To Be

Exact Audio Copy V1.1 from 23. June 2015

EAC extraction logfile from 29. April 2017, 19:26

Duke Ellington / Welcome To The Clubs: Blue Note 1956-57, Hickory House 1957, Storyville 1959

Used drive : TSSTcorpCDDVDW SE-208DB Adapter: 1 ID: 2

Read mode : Secure
Utilize accurate stream : Yes
Defeat audio cache : Yes
Make use of C2 pointers : No

Read offset correction : 6
Overread into Lead-In and Lead-Out : No
Fill up missing offset samples with silence : Yes
Delete leading and trailing silent blocks : No
Null samples used in CRC calculations : Yes
Used interface : Native Win32 interface for Win NT & 2000
Gap handling : Appended to previous track

Used output format : User Defined Encoder
Selected bitrate : 1024 kBit/s
Quality : High
Add ID3 tag : No
Command line compressor : C:\Program Files (x86)\FLAC Frontend\tools\flac.exe
Additional command line options : -8 -V -T "ARTIST=%artist%" -T "TITLE=%title%" -T "ALBUM=%albumtitle%" -T "DATE=%year%" -T "TRACKNUMBER=%tracknr%" -T "TOTALTRACKS=%numtracks%" -T "GENRE=%genre%" -T "ALBUMARTIST=%albumartist%" -T "ALBUM ARTIST=%albumartist%" -T "COMMENT=EAC Secure Mode, Test & Copy, AccurateRip, FLAC -8" %source%


TOC of the extracted CD

Track | Start | Length | Start sector | End sector
––––––––––––––––––––––––––––-
1 | 0:00.00 | 5:43.41 | 0 | 25765
2 | 5:43.41 | 2:23.19 | 25766 | 36509
3 | 8:06.60 | 2:59.47 | 36510 | 49981
4 | 11:06.32 | 0:59.12 | 49982 | 54418
5 | 12:05.44 | 0:53.68 | 54419 | 58461
6 | 12:59.37 | 14:58.27 | 58462 | 125838
7 | 27:57.64 | 4:08.29 | 125839 | 144467
8 | 32:06.18 | 2:47.55 | 144468 | 157047
9 | 34:53.73 | 0:52.28 | 157048 | 160975
10 | 35:46.26 | 2:23.37 | 160976 | 171737
11 | 38:09.63 | 2:42.33 | 171738 | 183920
12 | 40:52.21 | 3:04.13 | 183921 | 197733
13 | 43:56.34 | 1:52.02 | 197734 | 206135
14 | 45:48.36 | 6:58.44 | 206136 | 237529
15 | 52:47.05 | 3:51.36 | 237530 | 254890
16 | 56:38.41 | 7:47.30 | 254891 | 289945


Track 1

Filename D:\_EAC\Duke Ellington - Welcome To The Clubs 1956-1959 (2014) [FLAC] {La Maison du Duke MDD 005}\01 - Newport Up.wav

Pre-gap length 0:00:02.00

Peak level 97.1 %
Extraction speed 3.1 X
Track quality 100.0 %
Test CRC 605698C3
Copy CRC 605698C3
Track not present in AccurateRip database
Copy OK

Track 2

Filename D:\_EAC\Duke Ellington - Welcome To The Clubs 1956-1959 (2014) [FLAC] {La Maison du Duke MDD 005}\02 - I Got It Bad And That Ain't Good.wav

Peak level 71.3 %
Extraction speed 3.0 X
Track quality 100.0 %
Test CRC 163CDAB0
Copy CRC 163CDAB0
Track not present in AccurateRip database
Copy OK

Track 3

Filename D:\_EAC\Duke Ellington - Welcome To The Clubs 1956-1959 (2014) [FLAC] {La Maison du Duke MDD 005}\03 - Tulip Or Turnip.wav

Peak level 84.2 %
Extraction speed 2.5 X
Track quality 99.9 %
Test CRC 2F4C1278
Copy CRC 2F4C1278
Track not present in AccurateRip database
Copy OK

Track 4

Filename D:\_EAC\Duke Ellington - Welcome To The Clubs 1956-1959 (2014) [FLAC] {La Maison du Duke MDD 005}\04 - Mood Indigo.wav

Peak level 81.1 %
Extraction speed 2.4 X
Track quality 100.0 %
Test CRC DD62FA33
Copy CRC DD62FA33
Track not present in AccurateRip database
Copy OK

Track 5

Filename D:\_EAC\Duke Ellington - Welcome To The Clubs 1956-1959 (2014) [FLAC] {La Maison du Duke MDD 005}\05 - Take The ''A'' Train.wav

Peak level 63.1 %
Extraction speed 2.3 X
Track quality 100.0 %
Test CRC F37ACEEF
Copy CRC F37ACEEF
Track not present in AccurateRip database
Copy OK

Track 6

Filename D:\_EAC\Duke Ellington - Welcome To The Clubs 1956-1959 (2014) [FLAC] {La Maison du Duke MDD 005}\06 - Diminuendo And Crescendo In Blue.wav

Peak level 87.7 %
Extraction speed 4.1 X
Track quality 99.9 %
Test CRC 0D2F8AC3
Copy CRC 0D2F8AC3
Track not present in AccurateRip database
Copy OK

Track 7

Filename D:\_EAC\Duke Ellington - Welcome To The Clubs 1956-1959 (2014) [FLAC] {La Maison du Duke MDD 005}\07 - Jeep's Blues.wav

Peak level 72.2 %
Extraction speed 4.3 X
Track quality 100.0 %
Test CRC 8F86F637
Copy CRC 8F86F637
Track not present in AccurateRip database
Copy OK

Track 8

Filename D:\_EAC\Duke Ellington - Welcome To The Clubs 1956-1959 (2014) [FLAC] {La Maison du Duke MDD 005}\08 - Just Squeeze Me.wav

Peak level 78.2 %
Extraction speed 4.1 X
Track quality 100.0 %
Test CRC 71EEF514
Copy CRC 71EEF514
Track not present in AccurateRip database
Copy OK

Track 9

Filename D:\_EAC\Duke Ellington - Welcome To The Clubs 1956-1959 (2014) [FLAC] {La Maison du Duke MDD 005}\09 - Mood Indigo.wav

Peak level 65.1 %
Extraction speed 2.8 X
Track quality 100.0 %
Test CRC 3C97F0E2
Copy CRC 3C97F0E2
Track not present in AccurateRip database
Copy OK

Track 10

Filename D:\_EAC\Duke Ellington - Welcome To The Clubs 1956-1959 (2014) [FLAC] {La Maison du Duke MDD 005}\10 - Take The ''A'' Train.wav

Peak level 76.4 %
Extraction speed 4.1 X
Track quality 100.0 %
Test CRC 93253943
Copy CRC 93253943
Track not present in AccurateRip database
Copy OK

Track 11

Filename D:\_EAC\Duke Ellington - Welcome To The Clubs 1956-1959 (2014) [FLAC] {La Maison du Duke MDD 005}\11 - Things Ain't What They Use To Be.wav

Peak level 87.2 %
Extraction speed 4.3 X
Track quality 100.0 %
Test CRC 394E9F51
Copy CRC 394E9F51
Track not present in AccurateRip database
Copy OK

Track 12

Filename D:\_EAC\Duke Ellington - Welcome To The Clubs 1956-1959 (2014) [FLAC] {La Maison du Duke MDD 005}\12 - Perdido.wav

Peak level 89.0 %
Extraction speed 4.5 X
Track quality 100.0 %
Test CRC 4E167853
Copy CRC 4E167853
Track not present in AccurateRip database
Copy OK

Track 13

Filename D:\_EAC\Duke Ellington - Welcome To The Clubs 1956-1959 (2014) [FLAC] {La Maison du Duke MDD 005}\13 - Take The ''A'' Train.wav

Peak level 62.3 %
Extraction speed 4.1 X
Track quality 100.0 %
Test CRC F2C552A1
Copy CRC F2C552A1
Track not present in AccurateRip database
Copy OK

Track 14

Filename D:\_EAC\Duke Ellington - Welcome To The Clubs 1956-1959 (2014) [FLAC] {La Maison du Duke MDD 005}\14 - Caravan.wav

Peak level 65.5 %
Extraction speed 5.3 X
Track quality 100.0 %
Test CRC CF9693C7
Copy CRC CF9693C7
Track not present in AccurateRip database
Copy OK

Track 15

Filename D:\_EAC\Duke Ellington - Welcome To The Clubs 1956-1959 (2014) [FLAC] {La Maison du Duke MDD 005}\15 - Juniflip.wav

Peak level 72.3 %
Extraction speed 5.1 X
Track quality 100.0 %
Test CRC 48ABB4FA
Copy CRC 48ABB4FA
Track not present in AccurateRip database
Copy OK

Track 16

Filename D:\_EAC\Duke Ellington - Welcome To The Clubs 1956-1959 (2014) [FLAC] {La Maison du Duke MDD 005}\16 - Medley.wav

Peak level 61.2 %
Extraction speed 5.6 X
Track quality 100.0 %
Test CRC 067A1747
Copy CRC 067A1747
Track not present in AccurateRip database
Copy OK


None of the tracks are present in the AccurateRip database

No errors occurred

End of status report

==== Log checksum FBD4BE705F940F4DDBEE6FE7B8E2193EA4AC53738AFE615DA17AAAF952CAE2C2 ====


Duke Ellington - Welcome To The Clubs: Blue Note 1956-57, Hickory House 1957, Storyville 1959 (2014) {La Maison du Duke MDD005}

Duke Ellington - Welcome To The Clubs: Blue Note 1956-57, Hickory House 1957, Storyville 1959 (2014) {La Maison du Duke MDD005}


see also:
Duke Ellington - The 1962 MOMA Recital - Piano Solo & Trio (2010) {La Maison du Duke MDD 001}
Duke Ellington - Stockholm, June 1963 (2012) {La Maison du Duke MDD 002}
Duke Ellington - Paris, March 1964 (2013) {La Maison du Duke MDD 003}
Duke Ellington - The Girls and Premieres 1958-1963 (2014) {La Maison du Duke MDD 004}


NEXT -> RARE STRAYHORN “Billy Strayhorn with Duke Ellington (1941-1945)” {La Maison du Duke MDD 006}


===