Subcategories

Duphly, Boismortier - van Immerseel, Boulay - Harpsichord Works (2003)

Posted By: luckburz
Duphly, Boismortier - van Immerseel, Boulay - Harpsichord Works (2003)

Jacques Duphly & Joseph Bodin de Boismortier - Harpsichord Works
Jos van Immerseel - Laurence Boulay
EAC+LOG+CUE | WV: 334 MB | Full Artwork | 5% Recovery Info
Label/Cat#: Apex # 2564 60372 2 | Country/Year: Europe 2003
Genre: Classical | Style: Baroque

MD5 [X] CUE [X] LOG [X] INFO TEXT [X] ARTWORK [X]

selfrip [] not my rip [X]

Duphly, Boismortier - van Immerseel, Boulay - Harpsichord Works (2003)


Exact Audio Copy V1.0 beta 2 from 29. April 2011

EAC extraction logfile from 24. March 2012, 13:13

Jos van Immerseel, Laurence Boulay / Duphly, Boismortier - Harpsichord Works

Used drive : HL-DT-STDVDRAM GH20NS10 Adapter: 4 ID: 0

Read mode : Secure
Utilize accurate stream : Yes
Defeat audio cache : Yes
Make use of C2 pointers : No

Read offset correction : 667
Overread into Lead-In and Lead-Out : No
Fill up missing offset samples with silence : Yes
Delete leading and trailing silent blocks : No
Null samples used in CRC calculations : Yes
Used interface : Installed external ASPI interface

Used output format : Internal WAV Routines
Sample format : 44.100 Hz; 16 Bit; Stereo


TOC of the extracted CD

Track | Start | Length | Start sector | End sector
––––––––––––––––––––––––––––-
1 | 0:00.00 | 3:54.07 | 0 | 17556
2 | 3:54.07 | 6:18.40 | 17557 | 45946
3 | 10:12.47 | 5:02.03 | 45947 | 68599
4 | 15:14.50 | 3:38.10 | 68600 | 84959
5 | 18:52.60 | 6:48.67 | 84960 | 115626
6 | 25:41.52 | 3:22.08 | 115627 | 130784
7 | 29:03.60 | 2:14.27 | 130785 | 140861
8 | 31:18.12 | 3:27.58 | 140862 | 156444
9 | 34:45.70 | 3:56.67 | 156445 | 174211
10 | 38:42.62 | 3:29.53 | 174212 | 189939
11 | 42:12.40 | 6:51.70 | 189940 | 220834
12 | 49:04.35 | 2:26.47 | 220835 | 231831
13 | 51:31.07 | 2:02.05 | 231832 | 240986
14 | 53:33.12 | 1:15.43 | 240987 | 246654
15 | 54:48.55 | 1:34.50 | 246655 | 253754
16 | 56:23.30 | 1:42.02 | 253755 | 261406


Range status and errors

Selected range

Filename Z:\NetLab\Duphly, Boismortier - Harpsichord Works (Jos van Immerseel, Laurence Boulay) (2003)\Duphly, Boismortier - Harpsichord Works.wav

Peak level 69.9 %
Extraction speed 6.5 X
Range quality 100.0 %
Test CRC A69694B3
Copy CRC A69694B3
Copy OK

No errors occurred


AccurateRip summary

Track 1 not present in database
Track 2 not present in database
Track 3 not present in database
Track 4 not present in database
Track 5 not present in database
Track 6 not present in database
Track 7 not present in database
Track 8 not present in database
Track 9 not present in database
Track 10 not present in database
Track 11 not present in database
Track 12 not present in database
Track 13 not present in database
Track 14 not present in database
Track 15 not present in database
Track 16 not present in database

None of the tracks are present in the AccurateRip database

End of status report

==== Log checksum CC4BC521D2CA85D1430CD3689F50980CDEF5E74B8E840C7A1F69D7B385657A65 ====

auCDtect: CD records authenticity detector, version 0.8.2
Copyright © 2004 Oleg Berngardt. All rights reserved.
Copyright © 2004 Alexander Djourik. All rights reserved.

Detect mode (0..40 with 0 = most accurate): 8 (default)


––––––––––––––––––––––––––––––
[Jos van Immerseel, Laurence Boulay - Duphly, Boismortier - Harpsichord Works.wav]
Detected average hi-boundary frequency: 2.060237e+004 Hz
Detected average lo-boundary frequency: 1.454629e+004 Hz
Detected average hi-cut frequency: 2.167187e+004 Hz
Detected average lo-cut frequency: 1.894812e+004 Hz
Maximum probablis boundary frequency: 2.189100e+004 Hz
Coefficient of nonlinearity of a phase: 1.118910e+000
First order smothness: 2.139089e-001
Second order smothness: 9.256595e-001
––––––––––––––––––––––––––––––
This track looks like CDDA with probability 100%.

foobar2000 1.1.14a / Dynamic Range Meter 1.1.1
log date: 2013-04-25 16:57:02

––––––––––––––––––––––––––––––––––––––––
Analyzed: Jacques Duphly / Duphly, Boismortier - Harpsichord Works (1-11)
Joseph Bodin de Boismortier / Duphly, Boismortier - Harpsichord Works (12-16)
––––––––––––––––––––––––––––––––––––––––

DR Peak RMS Duration Track
––––––––––––––––––––––––––––––––––––––––
DR13 -4.91 dB -20.00 dB 3:54 01-La De Vaucanson
DR13 -6.80 dB -21.95 dB 6:19 02-La Forqueray
DR13 -7.62 dB -24.18 dB 5:02 03-Menuet
DR12 -11.82 dB -25.96 dB 3:38 04-La De Drummond
DR13 -4.93 dB -20.55 dB 6:49 05-Chaconne
DR12 -4.37 dB -19.23 dB 3:22 06-Medee
DR11 -8.07 dB -20.91 dB 2:14 07-Rondeau
DR14 -3.10 dB -19.58 dB 3:28 08-La Victoire
DR13 -6.00 dB -20.65 dB 3:57 09-La Felix
DR12 -5.16 dB -20.46 dB 3:30 10-La De Redmond
DR12 -9.93 dB -25.02 dB 6:52 11-La Pothouin
DR12 -11.32 dB -26.41 dB 2:27 12-La Caverneuse
DR12 -7.04 dB -21.86 dB 2:02 13-La Marguillere
DR13 -8.20 dB -23.90 dB 1:16 14-La Transalpine
DR13 -11.45 dB -27.11 dB 1:35 15-La Valetudinaire
DR13 -8.37 dB -25.30 dB 1:42 16-La Decharnee
––––––––––––––––––––––––––––––––––––––––

Number of tracks: 16
Official DR value: DR12

Samplerate: 44100 Hz
Channels: 2
Bits per sample: 16
Bitrate: 805 kbps
Codec: WavPack
================================================================================



CD Info:

Jacques Duphly & Joseph Bodin de Boismortier - Harpsichord Works

Jos van Immerseel - Laurence Boulay

Label: Apex
Catalog#: 2564 60372 2
Format: CD, Album
Country: Europe
Released: 2003
Genre: Classical
Style: Baroque

Tracklist:

Jacques Duphly (1715-1789)

1. La de Vaucanson
2. La Forqueray
3. Menuet
4. La de Drummond
5. Chaconne
6. Medee
7. Rondeau
8. La Victoire
9. La Felix
10. La de Redemond
11. La Pothouin

Joseph Bodin de Boismortier (1689-1755)

12. La Caverneuse
13. La Marguillere
14. La Transalpine
15. La Valetudinaire
16. La Decharnee

Jos van Immerseel – harpsichord (1-11)
Laurence Boulay – harpsichord (12-16)

Duphly, Boismortier - van Immerseel, Boulay - Harpsichord Works (2003)


Although separated by a generation both the composers featured on this Apex release were members of the French harpsichord school known as ‘Les Clavecinistes’. Working in the seventeenth and eighteenth centuries Les Clavecinistes flourished and achieved a refinement of keyboard writing which was constantly admired and often imitated outside their home country and was influential over the era of the early pianoforte and beyond.
Duphly first began publishing his harpsichord works during the 1740s at the time when the instrument’s prominence was becoming overshadowed by the pianoforte and consequently became one of the last members of the French harpsichord school. Born in Rouen into a family with a fine music tradition Duphly held posts of organist at Evreux Cathedral, St. Eloi and Notre Dame de la Ronde in Rouen before leaving to settle in Paris in 1742 were he earned his living as a harpsichord teacher.
All Duphly’s surviving works are harpsichord compositions and not surprisingly reflect a strong influence of Jean-Philippe Rameau. His four books of harpsichord works published between 1744 to 1768 are a marvellous legacy from the composer and reflect changing developments in keyboard music in France during that time.
The harpsichordist Jos van Immerseel expertly performs the selection of eleven Duphly works and seems perfectly suited to the composer’s melodic keyboard writing which on the surface seems to be simple and clear yet contains many testing virtuoso passages. In La Pothouin van Immerseel finds the required blend of grace and agility in this rich and elegant work and in La Forqueray he confidently provides the melodic mood in a delicate and tender fashion. Van Immerseel’s instrument has a crisp tone and a fine presence without ever sounding over-bright.
Born in Thionville in 1689 the details of Joseph Bodin de Boismortier’s early life are extremely sketchy. It is known that he relocated to Paris in 1724 and in the years that followed published over one hundred works in various genres which it is said provided him with enormous wealth. Maybe owing to envy the music establishment judged him harshly and he was frequently reproached for writing too many popular and facile works for financial reasons.
Lawrence Boulay is the harpsichordist for the selection of five of the compositions that were published in 1736. As with the Duphly works all Boismortier’s pieces are given titles as was the custom of the day. Boulay is clearly a skilled performer and gives a fine account of these works making them sound uncomplicated and melodic, playing with a most subtle touch which seems highly appropriate. The soloist makes fine work of the contrasting styles of the light gavotte La Transalpine and the more serious sarabande La Valétudinaire.
The harpsichord that Boulay has chosen has a slight metallic sounding reverberation but this proves to be not too unpleasant. Furthermore there is some noise from the mechanics of the instrument which seems more noticeable than those from the harpsichord used by Jos van Immerseel.
This Apex recording reuses material previously released in 1976 from the Erato label however there is little sign of age in the interpretations. The booklet notes are typically brief yet interesting although there are no details about the performers. I do consider that in the days of 80 minute plus CDs for Apex to offer a measly 58 minutes, even at budget price is rather pushing it.
An appealing and most melodic selection of rare French harpsichord works, expertly performed with a very decent sound. Highly recommendable listening. Michael Cookson, musicweb-international

Thanks to pr3ss!

Duphly, Boismortier - van Immerseel, Boulay - Harpsichord Works (2003)


all of my uploads in my blog
________________

Download:

Music
Artwork
________________