Subcategories

Bob Dylan - The Bootleg Series, Vol. 10. Another Self Portrait (1969-1971) [2CD] (2013) {Columbia}

Posted By: ruskaval
Bob Dylan - The Bootleg Series, Vol. 10. Another Self Portrait (1969-1971) [2CD] (2013) {Columbia}

Bob Dylan - The Bootleg Series, Vol. 10. Another Self Portrait (1969-1971) [2CD] (2013) {Columbia}
EAC rip (secure mode) | FLAC (tracks)+CUE+LOG -> 684 Mb | MP3 @320 -> 270 Mb
Full Artwork @ 300 dpi (jpg) -> 19 Mb | 5% repair rar
© 2013 Columbia / Legacy / Sony Music | CKA/B - 373488
Rock / Folk Rock / Songwriter

Another Self Portrait, the tenth volume in Bob Dylan's official bootleg series, assembles a slew of unreleased tracks, un-and over-dubbed alternate takes, and demos, mostly from 1970's Self Portrait and New Morning sessions – they were recorded simultaneously and released within months of one another – and other material. Dylan restlessly dug into the fakebook of folk, blues, and country tunes that nourished him from the beginning. The few original songs are minor ones. Twenty-six of these 35 selections were recorded between March and June. Dylan is in fine voice and he tries on many: some raspy, others crystal clear, all of them bold. The interconnected nature of these albums is revealed with the opening demo for "Went to See the Gypsy" (used on NM). It's just Dylan and guitarist David Bromberg. (Another take recorded three months later features just Dylan on electric piano.)

There are two undubbed takes of "Little Sadie" at different tempos; two of "Time Passes Slowly" – the first a basic folk-rock read, the latter an aggressive one with Al Kooper's B-3 swelling to a crescendo from the jump. Dylan and Bromberg, with Kooper on piano, deliver a haunted, undubbed "Days of 49." Many of the unreleased tunes are gems. "Little Saro" – with Dylan in his cleanest Nashville Skyline croon displaying a real range – and the vocal and piano read of "Spanish Is the Loving Tongue" are deeply moving love songs. "House Carpenter" is a high lonesome blues. The skeletal "Alberta #3" puts the versions from SP to shame. Eric Anderson's "Thirsty Boots" has Bromberg's spidery guitar weaving a separate lyric through Dylan's vocal. A demo of "When I Paint My Masterpiece" from 1971, contains slightly different (better) lyrics. The stripped-down "Copper Kettle" stands out when contrasted with its released version. Dylan was impatiently experimenting with arrangements on both records, particularly the latter, and some don't work. "If Not for You" features a violin instead of George Harrison's guitar. The unreleased "Working on a Guru" is almost a throwaway, but Harrison's blues-rock guitar playing smokes. The alternate "New Morning," with a brassy, Stax-style horn arrangement, is great, but the full orchestral overdub on "Sign on a Window" – complete with harp – fails, as does the spoken word with female gospel backing chorus on "If Dogs Run Free." Arguably, of the NM material, Dylan made the right choices for the finished album, which doesn't make what's here less interesting. The remainder of these tracks includes "Minstrel Boy," an unreleased Basement Tapes number, and two tunes from the Isle of Wight with the Band, some alternates of Nashville Skyline, and others from 1971. Another Self Portrait asks many questions, but there is one that hounds because it's unanswerable, especially in regard to its namesake: why did Dylan record all this material, in this way, and then release something entirely different? It doesn't matter. For fans, this is more than a curiosity, it's an indispensable addition to the catalog.

More INFO

tracklist:
CD1

01. Went To See The Gypsy (demo)
02. In Search Of Little Sadie (without overdubs, Self Portrait)
03. Pretty Saro (unreleased, Self Portrait)
04. Alberta #3 (alternate version, Self Portrait)
05. Spanish Is The Loving Tongue (unreleased, Self Portrait)
06. Annie's Going To Sing Her Song (unreleased, Self Portrait)
07. Time Passes Slowly #1 (alternate version, New Morning)
08. Only A Hobo (unreleased, Greatest Hits II)
09. Minstrel Boy (unreleased, The Basement Tapes)
10. I Threw It All Away (alternate version, Nashville Skyline)
11. Railroad Bill (unreleased, Self Portrait)
12. Thirsty Boots (unreleased, Self Portrait)
13. This Evening So Soon (unreleased, Self Portrait)
14. These Hands (unreleased, Self Portrait)
15. Little Sadie (without overdubs, Self Portrait)
16. House Carpenter (unreleased, Self Portrait)
17. All The Tired Horses (without overdubs, Self Portrait)

CD2
01. If Not For You (alternate version, New Morning)
02. Wallflower (alternate version, 1971)
03. Wigwam (original version without overdubs, Self Portrait)
04. Days Of '49 (original version without overdubs, Self Portrait)
05. Working On A Guru (unreleased, New Morning)
06. Country Pie (alternate version, Nashville Skyline)
07. I'll Be Your Baby Tonight (Live With The Band, Isle Of Wight 1969)
08. Highway 61 Revisited (Live With The Band, Isle Of Wight 1969)
09. Copper Kettle (without overdubs, Self Portrait)
10. Bring Me A Little Water (unreleased, New Morning)
11. Sign On The Window (with orchestral overdubs, New Morning)
12. Tattle O'Day (unreleased, Self Portrait)
13. If Dogs Run Free (alternate version, New Morning)
14. New Morning (with horn section overdubs, New Morning)
15. Went To See The Gypsy (alternate version, New Morning)
16. Belle Isle (without overdubs, Self Portrait)
17. Time Passes Slowly #2 (alternate version, New Morning)
18. When I Paint My Masterpiece (demo)

Exact Audio Copy V1.0 beta 2 from 29. April 2011

EAC extraction logfile from 27. August 2013, 11:44

Bob Dylan / Another Self Portrait Disc 1

Used drive : HL-DT-STDVDRAM GH15F Adapter: 1 ID: 0

Read mode : Secure
Utilize accurate stream : Yes
Defeat audio cache : Yes
Make use of C2 pointers : No

Read offset correction : 667
Overread into Lead-In and Lead-Out : No
Fill up missing offset samples with silence : Yes
Delete leading and trailing silent blocks : No
Null samples used in CRC calculations : Yes
Used interface : Native Win32 interface for Win NT & 2000
Gap handling : Appended to previous track

Used output format : Internal WAV Routines
Sample format : 44.100 Hz; 16 Bit; Stereo


TOC of the extracted CD

Track | Start | Length | Start sector | End sector
––––––––––––––––––––––––––––-
1 | 0:00.00 | 3:00.46 | 0 | 13545
2 | 3:00.46 | 2:02.22 | 13546 | 22717
3 | 5:02.68 | 2:16.50 | 22718 | 32967
4 | 7:19.43 | 2:37.08 | 32968 | 44750
5 | 9:56.51 | 3:51.38 | 44751 | 62113
6 | 13:48.14 | 2:23.43 | 62114 | 72881
7 | 16:11.57 | 2:18.05 | 72882 | 83236
8 | 18:29.62 | 3:25.36 | 83237 | 98647
9 | 21:55.23 | 1:41.70 | 98648 | 106292
10 | 23:37.18 | 2:25.42 | 106293 | 117209
11 | 26:02.60 | 2:47.47 | 117210 | 129781
12 | 28:50.32 | 4:07.45 | 129782 | 148351
13 | 32:58.02 | 4:49.36 | 148352 | 170062
14 | 37:47.38 | 3:43.03 | 170063 | 186790
15 | 41:30.41 | 2:28.65 | 186791 | 197955
16 | 43:59.31 | 6:00.71 | 197956 | 225026
17 | 50:00.27 | 1:15.16 | 225027 | 230667


Track 1

Filename J:\FLAC\01 - Went To See The Gypsy.wav

Pre-gap length 0:00:02.00

Peak level 100.0 %
Extraction speed 3.3 X
Track quality 99.9 %
Test CRC B272ECFE
Copy CRC B272ECFE
Track not present in AccurateRip database
Copy OK

Track 2

Filename J:\FLAC\02 - Little Sadie.wav

Peak level 90.5 %
Extraction speed 4.1 X
Track quality 100.0 %
Test CRC 845AC805
Copy CRC 845AC805
Track not present in AccurateRip database
Copy OK

Track 3

Filename J:\FLAC\03 - Pretty Saro.wav

Peak level 95.6 %
Extraction speed 4.3 X
Track quality 100.0 %
Test CRC 899E680F
Copy CRC 899E680F
Track not present in AccurateRip database
Copy OK

Track 4

Filename J:\FLAC\04 - Alberta 3.wav

Peak level 95.8 %
Extraction speed 4.8 X
Track quality 100.0 %
Test CRC 918C3155
Copy CRC 918C3155
Track not present in AccurateRip database
Copy OK

Track 5

Filename J:\FLAC\05 - Spanish Is The Loving Tongue.wav

Peak level 96.1 %
Extraction speed 5.4 X
Track quality 100.0 %
Test CRC 52BFDB8A
Copy CRC 52BFDB8A
Track not present in AccurateRip database
Copy OK

Track 6

Filename J:\FLAC\06 - Annie's Going To Sing Her Song.wav

Peak level 95.7 %
Extraction speed 5.2 X
Track quality 100.0 %
Test CRC 140C9D47
Copy CRC 140C9D47
Track not present in AccurateRip database
Copy OK

Track 7

Filename J:\FLAC\07 - Time Passes Slowly 1.wav

Pre-gap length 0:00:01.05

Peak level 99.5 %
Extraction speed 5.1 X
Track quality 100.0 %
Test CRC C9673ED9
Copy CRC C9673ED9
Track not present in AccurateRip database
Copy OK

Track 8

Filename J:\FLAC\08 - Only A Hobo.wav

Peak level 96.4 %
Extraction speed 4.7 X
Track quality 99.9 %
Test CRC 1C7DA382
Copy CRC 1C7DA382
Track not present in AccurateRip database
Copy OK

Track 9

Filename J:\FLAC\09 - Minstrel Boy.wav

Peak level 99.1 %
Extraction speed 3.6 X
Track quality 99.8 %
Test CRC AF736248
Copy CRC AF736248
Track not present in AccurateRip database
Copy OK

Track 10

Filename J:\FLAC\10 - I Threw It All Away.wav

Pre-gap length 0:00:02.18

Peak level 95.8 %
Extraction speed 5.9 X
Track quality 100.0 %
Test CRC 4063C651
Copy CRC 4063C651
Track not present in AccurateRip database
Copy OK

Track 11

Filename J:\FLAC\11 - Railroad Bill.wav

Peak level 95.6 %
Extraction speed 4.7 X
Track quality 99.9 %
Test CRC 1310DE52
Copy CRC 1310DE52
Track not present in AccurateRip database
Copy OK

Track 12

Filename J:\FLAC\12 - Thirsty Boots.wav

Pre-gap length 0:00:02.51

Peak level 95.8 %
Extraction speed 6.6 X
Track quality 100.0 %
Test CRC 82BED1A7
Copy CRC 82BED1A7
Track not present in AccurateRip database
Copy OK

Track 13

Filename J:\FLAC\13 - This Evening So Soon.wav

Pre-gap length 0:00:01.21

Peak level 95.9 %
Extraction speed 6.0 X
Track quality 99.9 %
Test CRC 05E2F971
Copy CRC 05E2F971
Track not present in AccurateRip database
Copy OK

Track 14

Filename J:\FLAC\14 - These Hands.wav

Peak level 95.7 %
Extraction speed 7.0 X
Track quality 100.0 %
Test CRC F18A422A
Copy CRC F18A422A
Track not present in AccurateRip database
Copy OK

Track 15

Filename J:\FLAC\15 - In Search of Little Sadie.wav

Peak level 95.8 %
Extraction speed 6.8 X
Track quality 100.0 %
Test CRC 7D3122FA
Copy CRC 7D3122FA
Track not present in AccurateRip database
Copy OK

Track 16

Filename J:\FLAC\16 - House Carpenter.wav

Pre-gap length 0:00:02.38

Peak level 95.7 %
Extraction speed 8.0 X
Track quality 100.0 %
Test CRC B3F62527
Copy CRC B3F62527
Track not present in AccurateRip database
Copy OK

Track 17

Filename J:\FLAC\17 - All the Tired Horses.wav

Pre-gap length 0:00:01.39

Peak level 95.5 %
Extraction speed 6.0 X
Track quality 100.0 %
Test CRC 6EB18F7B
Copy CRC 6EB18F7B
Track not present in AccurateRip database
Copy OK


None of the tracks are present in the AccurateRip database

No errors occurred

End of status report

==== Log checksum 00C8B8D7566119850C4E98D7DBF34E3A7E9FADDDCAF80D21E7C58C3C283D056B ====

Exact Audio Copy V1.0 beta 2 from 29. April 2011

EAC extraction logfile from 27. August 2013, 12:08

Bob Dylan / Another Self Portrait Disc 2

Used drive : HL-DT-STDVDRAM GH15F Adapter: 1 ID: 0

Read mode : Secure
Utilize accurate stream : Yes
Defeat audio cache : Yes
Make use of C2 pointers : No

Read offset correction : 667
Overread into Lead-In and Lead-Out : No
Fill up missing offset samples with silence : Yes
Delete leading and trailing silent blocks : No
Null samples used in CRC calculations : Yes
Used interface : Native Win32 interface for Win NT & 2000
Gap handling : Appended to previous track

Used output format : Internal WAV Routines
Sample format : 44.100 Hz; 16 Bit; Stereo


TOC of the extracted CD

Track | Start | Length | Start sector | End sector
––––––––––––––––––––––––––––-
1 | 0:00.00 | 2:29.64 | 0 | 11238
2 | 2:29.64 | 2:18.56 | 11239 | 21644
3 | 4:48.45 | 3:10.43 | 21645 | 35937
4 | 7:59.13 | 5:13.67 | 35938 | 59479
5 | 13:13.05 | 3:43.45 | 59480 | 76249
6 | 16:56.50 | 1:27.02 | 76250 | 82776
7 | 18:23.52 | 3:31.42 | 82777 | 98643
8 | 21:55.19 | 3:39.17 | 98644 | 115085
9 | 25:34.36 | 3:35.45 | 115086 | 131255
10 | 29:10.06 | 4:00.32 | 131256 | 149287
11 | 33:10.38 | 3:51.49 | 149288 | 166661
12 | 37:02.12 | 3:49.01 | 166662 | 183837
13 | 40:51.13 | 4:10.62 | 183838 | 202649
14 | 45:02.00 | 4:04.37 | 202650 | 220986
15 | 49:06.37 | 3:33.43 | 220987 | 237004
16 | 52:40.05 | 2:35.64 | 237005 | 248693
17 | 55:15.69 | 3:03.33 | 248694 | 262451
18 | 58:19.27 | 3:53.16 | 262452 | 279942


Track 1

Filename J:\FLAC\01 - If Not For You.wav

Pre-gap length 0:00:02.00

Peak level 95.6 %
Extraction speed 4.1 X
Track quality 100.0 %
Test CRC 34617551
Copy CRC 34617551
Track not present in AccurateRip database
Copy OK

Track 2

Filename J:\FLAC\02 - Wallflower.wav

Peak level 95.9 %
Extraction speed 3.1 X
Track quality 99.9 %
Test CRC 682639EE
Copy CRC 682639EE
Track not present in AccurateRip database
Copy OK

Track 3

Filename J:\FLAC\03 - Wigwam.wav

Peak level 95.9 %
Extraction speed 3.7 X
Track quality 99.9 %
Test CRC B1AE992C
Copy CRC B1AE992C
Track not present in AccurateRip database
Copy OK

Track 4

Filename J:\FLAC\04 - Days of 49.wav

Peak level 95.8 %
Extraction speed 5.5 X
Track quality 100.0 %
Test CRC BCB8E532
Copy CRC BCB8E532
Track not present in AccurateRip database
Copy OK

Track 5

Filename J:\FLAC\05 - Working On A Guru.wav

Peak level 96.3 %
Extraction speed 5.6 X
Track quality 100.0 %
Test CRC 7B2E137E
Copy CRC 7B2E137E
Track not present in AccurateRip database
Copy OK

Track 6

Filename J:\FLAC\06 - Country Pie.wav

Peak level 96.0 %
Extraction speed 4.7 X
Track quality 100.0 %
Test CRC 3727A361
Copy CRC 3727A361
Track not present in AccurateRip database
Copy OK

Track 7

Filename J:\FLAC\07 - I'll Be Your Baby Tonight.wav

Peak level 96.5 %
Extraction speed 5.9 X
Track quality 100.0 %
Test CRC E694D515
Copy CRC E694D515
Track not present in AccurateRip database
Copy OK

Track 8

Filename J:\FLAC\08 - Highway 61 Revisited.wav

Peak level 95.8 %
Extraction speed 6.2 X
Track quality 100.0 %
Test CRC 7A0BEAFE
Copy CRC 7A0BEAFE
Track not present in AccurateRip database
Copy OK

Track 9

Filename J:\FLAC\09 - Copper Kettle.wav

Peak level 95.3 %
Extraction speed 6.4 X
Track quality 100.0 %
Test CRC 2EBBB028
Copy CRC 2EBBB028
Track not present in AccurateRip database
Copy OK

Track 10

Filename J:\FLAC\10 - Bring Me A Little Water.wav

Peak level 96.4 %
Extraction speed 6.7 X
Track quality 100.0 %
Test CRC 6EEC8468
Copy CRC 6EEC8468
Track not present in AccurateRip database
Copy OK

Track 11

Filename J:\FLAC\11 - Sign On The Window.wav

Pre-gap length 0:00:02.16

Peak level 96.7 %
Extraction speed 6.8 X
Track quality 100.0 %
Test CRC 100746ED
Copy CRC 100746ED
Track not present in AccurateRip database
Copy OK

Track 12

Filename J:\FLAC\12 - Tattle O'Day.wav

Peak level 95.9 %
Extraction speed 6.9 X
Track quality 100.0 %
Test CRC 4D5D348D
Copy CRC 4D5D348D
Track not present in AccurateRip database
Copy OK

Track 13

Filename J:\FLAC\13 - If Dogs Run Free.wav

Peak level 95.8 %
Extraction speed 7.2 X
Track quality 100.0 %
Test CRC B4431EA4
Copy CRC B4431EA4
Track not present in AccurateRip database
Copy OK

Track 14

Filename J:\FLAC\14 - New Morning.wav

Peak level 96.4 %
Extraction speed 7.6 X
Track quality 100.0 %
Test CRC 7986F646
Copy CRC 7986F646
Track not present in AccurateRip database
Copy OK

Track 15

Filename J:\FLAC\15 - Went To See The Gypsy.wav

Peak level 95.7 %
Extraction speed 7.6 X
Track quality 100.0 %
Test CRC DF4BF917
Copy CRC DF4BF917
Track not present in AccurateRip database
Copy OK

Track 16

Filename J:\FLAC\16 - Belle Isle.wav

Peak level 95.9 %
Extraction speed 7.4 X
Track quality 100.0 %
Test CRC 69814F79
Copy CRC 69814F79
Track not present in AccurateRip database
Copy OK

Track 17

Filename J:\FLAC\17 - Time Passes Slowly 2.wav

Peak level 96.5 %
Extraction speed 7.4 X
Track quality 100.0 %
Test CRC 886ABFE6
Copy CRC 886ABFE6
Track not present in AccurateRip database
Copy OK

Track 18

Filename J:\FLAC\18 - When I Paint My Masterpiece.wav

Pre-gap length 0:00:00.60

Peak level 95.9 %
Extraction speed 8.2 X
Track quality 100.0 %
Test CRC 145EDA7D
Copy CRC 145EDA7D
Track not present in AccurateRip database
Copy OK


None of the tracks are present in the AccurateRip database

No errors occurred

End of status report

==== Log checksum 9BC07636A61A23A09DBDEDE8197C20AF9EEFA7455A675FA1696A5A8FF5E98238 ====


Bob Dylan - The Bootleg Series, Vol. 10. Another Self Portrait (1969-1971) [2CD] (2013) {Columbia}

Bob Dylan - The Bootleg Series, Vol. 10. Another Self Portrait (1969-1971) [2CD] (2013) {Columbia}


All thanks goes to the original releaser!