Subcategories

Various Artists - Early Girls, Volumes 1-5 (5 CDs Collection) Re-upload

Posted By: Justin
Various Artists - Early Girls, Volumes 1-5 (5 CDs Collection) Re-upload

Various Artists - Early Girls, Volumes 1-5 (5 CDs Collection)
EAC-FLAC(tracks)+CUE+LOG -> 1,5 GB | Covers & Booklets | MP3 CBR 320 Kbps -> 791 MB
Pop / R&B / Rock & Roll / Oldies | 354:30 minutes | Label: Ace Records | Year: 1995/97/2000/05/08

Almost 6 hours of wonderful songs of the Girl group heaven with 140 hits from the Golden Age of American Rock & Roll. This impressive collection of recordings, laid down between the fifties and sixties, chosen by someone with excellent taste! Terrific Early Girl group compilation.

The girl group genre remains one of the most collectable in the reissue market and this compilation must rank as one of the strongest in the series and on the market as a whole since it mops up a lot of scarce lesser hits as well as some better known ones.


–––––––––––––––––––––––––––––––––––––––-


Various Artists - Early Girls, Volumes 1-5 (5 CDs Collection) Re-upload

Various Artists - Early Girls, Volume 1 (1995)
EAC-FLAC(tracks)+CUE+LOG -> 283 MB | Covers & Booklets | MP3 CBR 320 Kbps -> 157 MB
Pop / Rock & Roll / Oldies | 61:43 minutes | Label: Ace Records | Catalogue # CDCHD 608

Leave it to one of England's premier re-issue labels to put together a compilation that rivals Rhino's excellent "The Girl Groups" series. While a few of these songs fall outside the strict definition of girl groups (1961-1965), this is a super collection and at 28 tracks you won't find a more generous single disc compilation.

There are a few late Fifties hits: 13-year-old Dodie Stevens' "Pink Shoe Laces," Gale Storm's "Dark Moon," and the Aquatones' "You." The rest are early-Sixties classics and also-rans.

You get the Exciters' version of "Do-Wah-Diddy" (later a No. 1 for Manfred Mann), Betty Everett's "You're No Good" (which Linda Ronstadt took to No. 1 in 1975) and the Cookies' lead singer Earl-Jean's minor hit "I'm Into Something Good" (which would become Herman's Hermits' first U.S. hit).

There are seven songs that overlap with the Rhino series, but that's a minor complaint. Where Rhino gave you the Angels' oft-anthologized "My Boyfriend's Back," here you get their earlier 1961 hit "'Til." While the Rhino series included three Shirelles' songs, it did not include their classic "Dedicated to the One I Love" found here.

This Ace release also includes several artists not on the Rhino series: "The Name Game" by Shirley Ellis, "I Wish I were a Princess" by Little Peggy March, "I've Told Every Little Star" by Linda Scott, and Rosie & The Originals' "Angel Baby."

Don't think of this as a competing series with Rhino, but a companion series. And just like Rhino, you get crisp, clean sound and extensive liner notes on each of the songs and the artists. HIGHLY RECOMMENDED

customer's review from amazon.com

Tracklist:

01. The Exciters - Do-Wah Diddy
02. Betty Everett - You're No Good
03. Shirley Ellis - The Name Game
04. The Cookies - Chains
05. Carole King - It Might As Well Rain Until September
06. Earl-Jean - I'm Into Something Good
07. Skeeter Davis - I Can't Stay Mad At You
08. Little Peggy March - I Wish I Were A Princess
09. Linda Scott - I've Told Every Little Star
10. Janie Grant - Triangle
11. Toni Fisher - West Of The Wall
12. Dodie Stevens - Pink Shoe Laces
13. The Sensations - Music, Music, Music
14. The Hearts - Dear Abby
15. Reparata & The Delrons - Whenever A Teenager Cries
16. The Murmaids - Popsicles & Icicles
17. Robin Ward - Wonderful Summer
18. The Paris Sisters - I Love How You Love Me
19. Bonnie Guitar - Dark Moon
20. The Aquatones - You
21. The Angels - 'Til
22. Kathy Young - The Great Pretender
23. Rosie & The Originals - Angel Baby
24. The Teen Queens - Eddie My Love
25. The Chantels - He's Gone
26. The Shirelles - Dedicated To The One I Love
27. The Blossoms - Son-In-Law
28. The Essex - Easier Said Than Done

Compiled by John Broven, Trevior Churchill & Peter Gibbon.

Exact Audio Copy V0.99 prebeta 4 from 23. January 2008

EAC extraction logfile from 4. August 2009, 10:24

Various / Early Girls, Vol. 1

Used drive : TSSTcorpDVD+-RW TS-H653F Adapter: 4 ID: 1

Read mode : Secure
Utilize accurate stream : Yes
Defeat audio cache : Yes
Make use of C2 pointers : No

Read offset correction : 6
Overread into Lead-In and Lead-Out : No
Fill up missing offset samples with silence : Yes
Delete leading and trailing silent blocks : No
Null samples used in CRC calculations : No
Used interface : Installed external ASPI interface
Gap handling : Appended to previous track

Used output format : User Defined Encoder
Selected bitrate : 768 kBit/s
Quality : High
Add ID3 tag : No
Command line compressor : C:\Program Files\Exact Audio Copy\FLAC\FLAC.EXE
Additional command line options : -8 -V -T "ARTIST=%a" -T "TITLE=%t" -T "ALBUM=%g" -T "DATE=%y" -T "TRACKNUMBER=%n" -T "GENRE=%m" -T "COMMENT=%e" %s -o %d


TOC of the extracted CD

Track | Start | Length | Start sector | End sector
––––––––––––––––––––––––––––-
1 | 0:00.00 | 2:26.00 | 0 | 10949
2 | 2:26.00 | 2:20.00 | 10950 | 21449
3 | 4:46.00 | 3:01.50 | 21450 | 35074
4 | 7:47.50 | 2:31.50 | 35075 | 46449
5 | 10:19.25 | 2:27.50 | 46450 | 57524
6 | 12:47.00 | 2:52.00 | 57525 | 70424
7 | 15:39.00 | 2:09.00 | 70425 | 80099
8 | 17:48.00 | 2:12.65 | 80100 | 90064
9 | 20:00.65 | 2:17.42 | 90065 | 100381
10 | 22:18.32 | 2:28.43 | 100382 | 111524
11 | 24:47.00 | 2:36.17 | 111525 | 123241
12 | 27:23.17 | 2:28.00 | 123242 | 134341
13 | 29:51.17 | 3:17.00 | 134342 | 149116
14 | 33:08.17 | 3:00.00 | 149117 | 162616
15 | 36:08.17 | 2:50.63 | 162617 | 175429
16 | 38:59.05 | 2:36.12 | 175430 | 187141
17 | 41:35.17 | 2:30.05 | 187142 | 198396
18 | 44:05.22 | 2:05.70 | 198397 | 207841
19 | 46:11.17 | 2:46.00 | 207842 | 220291
20 | 48:57.17 | 2:03.00 | 220292 | 229516
21 | 51:00.17 | 2:32.30 | 229517 | 240946
22 | 53:32.47 | 3:13.15 | 240947 | 255436
23 | 56:45.62 | 2:51.55 | 255437 | 268316
24 | 59:37.42 | 3:17.00 | 268317 | 283091
25 | 62:54.42 | 2:31.25 | 283092 | 294441
26 | 65:25.67 | 2:03.25 | 294442 | 303691
27 | 67:29.17 | 2:06.00 | 303692 | 313141
28 | 69:35.17 | 2:07.30 | 313142 | 322696


Track 1

Filename D:\Temp\(01) Do-Wah Diddy - The Exciters - Early Girls, Vol. 1.wav

Pre-gap length 0:00:02.00

Peak level 61.3 %
Track quality 100.0 %
Copy CRC 17ECF349
Cannot be verified as accurate (confidence 1) [D58DCA96], AccurateRip returned [DB52AD46]
Copy OK

Track 2

Filename D:\Temp\(02) You're No Good - Betty Everett - Early Girls, Vol. 1.wav

Pre-gap length 0:00:00.02

Peak level 99.7 %
Track quality 100.0 %
Copy CRC 5A3ABE1B
Cannot be verified as accurate (confidence 1) [ED4AE7F6], AccurateRip returned [E9294BED]
Copy OK

Track 3

Filename D:\Temp\(03) The Name Game - Shirley Ellis - Early Girls, Vol. 1.wav

Pre-gap length 0:00:00.01

Peak level 85.4 %
Track quality 99.9 %
Copy CRC E90E09B7
Cannot be verified as accurate (confidence 1) [A6B61527], AccurateRip returned [E816DF1E]
Copy OK

Track 4

Filename D:\Temp\(04) Chains - The Cookies - Early Girls, Vol. 1.wav

Pre-gap length 0:00:01.27

Peak level 72.6 %
Track quality 100.0 %
Copy CRC 8AB1870E
Cannot be verified as accurate (confidence 1) [82BF03AE], AccurateRip returned [E6F3E1F3]
Copy OK

Track 5

Filename D:\Temp\(05) It Might As Well Rain Until September - Carole King - Early Girls, Vol. 1.wav

Pre-gap length 0:00:01.50

Peak level 81.7 %
Track quality 100.0 %
Copy CRC EB5E50C2
Cannot be verified as accurate (confidence 1) [46A276F0], AccurateRip returned [4080EE25]
Copy OK

Track 6

Filename D:\Temp\(06) I'm Into Something Good - Earl-Jean - Early Girls, Vol. 1.wav

Pre-gap length 0:00:04.25

Peak level 80.0 %
Track quality 99.9 %
Copy CRC 66F53CC2
Cannot be verified as accurate (confidence 1) [A33DC242], AccurateRip returned [0583A4DE]
Copy OK

Track 7

Filename D:\Temp\(07) I Can't Stay Mad At You - Skeeter Davis - Early Girls, Vol. 1.wav

Pre-gap length 0:00:00.50

Peak level 76.1 %
Track quality 100.0 %
Copy CRC F10DFD8C
Cannot be verified as accurate (confidence 1) [04161F68], AccurateRip returned [0D7FFDA5]
Copy OK

Track 8

Filename D:\Temp\(08) I Wish I Were A Princess - Little Peggy March - Early Girls, Vol. 1.wav

Pre-gap length 0:00:01.68

Peak level 84.4 %
Track quality 100.0 %
Copy CRC F9050EA4
Cannot be verified as accurate (confidence 1) [FE065C92], AccurateRip returned [89B3B1EC]
Copy OK

Track 9

Filename D:\Temp\(09) I've Told Every Little Star - Linda Scott - Early Girls, Vol. 1.wav

Pre-gap length 0:00:00.02

Peak level 99.8 %
Track quality 100.0 %
Copy CRC B1199BD0
Cannot be verified as accurate (confidence 1) [CD0FA46D], AccurateRip returned [178D5815]
Copy OK

Track 10

Filename D:\Temp\(10) Triangle - Janie Grant - Early Girls, Vol. 1.wav

Pre-gap length 0:00:00.02

Peak level 59.4 %
Track quality 100.0 %
Copy CRC F0328713
Cannot be verified as accurate (confidence 1) [848B6514], AccurateRip returned [CF1922A8]
Copy OK

Track 11

Filename D:\Temp\(11) West Of The Wall - Toni Fisher - Early Girls, Vol. 1.wav

Pre-gap length 0:00:01.70

Peak level 73.9 %
Track quality 100.0 %
Copy CRC B74F572A
Cannot be verified as accurate (confidence 1) [6060B916], AccurateRip returned [7A7B3BC9]
Copy OK

Track 12

Filename D:\Temp\(12) Pink Shoe Laces - Dodie Stevens - Early Girls, Vol. 1.wav

Pre-gap length 0:00:03.69

Peak level 84.2 %
Track quality 100.0 %
Copy CRC F04741F8
Cannot be verified as accurate (confidence 1) [BBAD34AD], AccurateRip returned [8D4D4CC7]
Copy OK

Track 13

Filename D:\Temp\(13) Music, Music, Music - The Sensations - Early Girls, Vol. 1.wav

Pre-gap length 0:00:04.19

Peak level 70.6 %
Track quality 100.0 %
Copy CRC 4C21DA01
Cannot be verified as accurate (confidence 1) [1636A568], AccurateRip returned [25DE343B]
Copy OK

Track 14

Filename D:\Temp\(14) Dear Abby - The Hearts - Early Girls, Vol. 1.wav

Pre-gap length 0:00:01.73

Peak level 82.9 %
Track quality 99.9 %
Copy CRC CB184B87
Cannot be verified as accurate (confidence 1) [8E2B95E2], AccurateRip returned [4B0C0E53]
Copy OK

Track 15

Filename D:\Temp\(15) Whenever A Teenager Cries - Reparata & The Delrons - Early Girls, Vol. 1.wav

Pre-gap length 0:00:04.02

Peak level 85.8 %
Track quality 100.0 %
Copy CRC 1BC2548C
Cannot be verified as accurate (confidence 1) [FEA7542F], AccurateRip returned [ADC7EC21]
Copy OK

Track 16

Filename D:\Temp\(16) Popsicles & Icicles - The Murmaids - Early Girls, Vol. 1.wav

Pre-gap length 0:00:04.27

Peak level 76.2 %
Track quality 100.0 %
Copy CRC E7E213A2
Cannot be verified as accurate (confidence 1) [80EF1EBC], AccurateRip returned [7D2C02E6]
Copy OK

Track 17

Filename D:\Temp\(17) Wonderful Summer - Robin Ward - Early Girls, Vol. 1.wav

Pre-gap length 0:00:04.66

Peak level 89.9 %
Track quality 99.9 %
Copy CRC 9F018B16
Cannot be verified as accurate (confidence 1) [05C60815], AccurateRip returned [F77A578F]
Copy OK

Track 18

Filename D:\Temp\(18) I Love How You Love Me - The Paris Sisters - Early Girls, Vol. 1.wav

Pre-gap length 0:00:04.23

Peak level 65.8 %
Track quality 100.0 %
Copy CRC 82C39613
Cannot be verified as accurate (confidence 1) [24706F0A], AccurateRip returned [32FDE299]
Copy OK

Track 19

Filename D:\Temp\(19) Dark Moon - Bonnie Guitar - Early Girls, Vol. 1.wav

Pre-gap length 0:00:02.27

Peak level 60.7 %
Track quality 100.0 %
Copy CRC 16CB1EFC
Cannot be verified as accurate (confidence 1) [E04579C1], AccurateRip returned [DBA752D2]
Copy OK

Track 20

Filename D:\Temp\(20) You - The Aquatones - Early Girls, Vol. 1.wav

Pre-gap length 0:00:05.00

Peak level 79.7 %
Track quality 100.0 %
Copy CRC 80D08C7A
Cannot be verified as accurate (confidence 1) [8973F260], AccurateRip returned [EA579B8C]
Copy OK

Track 21

Filename D:\Temp\(21) 'Til - The Angels - Early Girls, Vol. 1.wav

Pre-gap length 0:00:05.40

Peak level 74.3 %
Track quality 99.9 %
Copy CRC 30AE9F03
Cannot be verified as accurate (confidence 1) [DA33FBA2], AccurateRip returned [7DED8618]
Copy OK

Track 22

Filename D:\Temp\(22) The Great Pretender - Kathy Young - Early Girls, Vol. 1.wav

Pre-gap length 0:00:04.27

Peak level 83.2 %
Track quality 100.0 %
Copy CRC D7793F9D
Cannot be verified as accurate (confidence 1) [8E0EA110], AccurateRip returned [E97B7EC2]
Copy OK

Track 23

Filename D:\Temp\(23) Angel Baby - Rosie & The Originals - Early Girls, Vol. 1.wav

Pre-gap length 0:00:04.27

Peak level 85.7 %
Track quality 100.0 %
Copy CRC 04EB9013
Cannot be verified as accurate (confidence 1) [549104B8], AccurateRip returned [84FDFF3F]
Copy OK

Track 24

Filename D:\Temp\(24) Eddie My Love - The Teen Queens - Early Girls, Vol. 1.wav

Pre-gap length 0:00:04.64

Peak level 97.4 %
Track quality 100.0 %
Copy CRC C5979FD6
Cannot be verified as accurate (confidence 1) [806B87B6], AccurateRip returned [125B98A6]
Copy OK

Track 25

Filename D:\Temp\(25) He's Gone - The Chantels - Early Girls, Vol. 1.wav

Pre-gap length 0:00:05.52

Peak level 99.8 %
Track quality 100.0 %
Copy CRC 99003B99
Cannot be verified as accurate (confidence 1) [97AB0417], AccurateRip returned [99DC3462]
Copy OK

Track 26

Filename D:\Temp\(26) Dedicated To The One I Love - The Shirelles - Early Girls, Vol. 1.wav

Pre-gap length 0:00:04.66

Peak level 100.0 %
Track quality 100.0 %
Copy CRC 28D37F0D
Cannot be verified as accurate (confidence 1) [95284CC8], AccurateRip returned [05F485AC]
Copy OK

Track 27

Filename D:\Temp\(27) Son-In-Law - The Blossoms - Early Girls, Vol. 1.wav

Pre-gap length 0:00:02.38

Peak level 73.9 %
Track quality 100.0 %
Copy CRC 3B020B1B
Cannot be verified as accurate (confidence 1) [158F97B8], AccurateRip returned [7A6AD1FC]
Copy OK

Track 28

Filename D:\Temp\(28) Easier Said Than Done - The Essex - Early Girls, Vol. 1.wav

Pre-gap length 0:00:02.16

Peak level 99.8 %
Track quality 100.0 %
Copy CRC D442E753
Cannot be verified as accurate (confidence 1) [03737EC8], AccurateRip returned [7391A625]
Copy OK


No tracks could be verified as accurate
You may have a different pressing from the one(s) in the database

No errors occurred

End of status report


AUDIOCHECKER v2.0 beta (build 457) - by Dester - opdester@freemail.hu
~~~~~~~~~~~~~~~~~~~~~~~~~~~~~~~~~~
-=== DO NOT EDIT THIS FILE! ===-

Path: …\Early Girls Vol 1

001 -=- (01) Do-Wah Diddy - The Exciters - Early Girls, Vol. 1.flac -=- CDDA (100%)
002 -=- (02) You're No Good - Betty Everett - Early Girls, Vol. 1.flac -=- CDDA (100%)
003 -=- (03) The Name Game - Shirley Ellis - Early Girls, Vol. 1.flac -=- CDDA (100%)
004 -=- (04) Chains - The Cookies - Early Girls, Vol. 1.flac -=- CDDA (100%)
005 -=- (05) It Might As Well Rain Until September - Carole King - Early Girls, Vol. 1.flac -=- CDDA (100%)
006 -=- (06) I'm Into Something Good - Earl-Jean - Early Girls, Vol. 1.flac -=- CDDA (100%)
007 -=- (07) I Can't Stay Mad At You - Skeeter Davis - Early Girls, Vol. 1.flac -=- CDDA (100%)
008 -=- (08) I Wish I Were A Princess - Little Peggy March - Early Girls, Vol. 1.flac -=- CDDA (100%)
009 -=- (09) I've Told Every Little Star - Linda Scott - Early Girls, Vol. 1.flac -=- CDDA (100%)
010 -=- (10) Triangle - Janie Grant - Early Girls, Vol. 1.flac -=- CDDA (100%)
011 -=- (11) West Of The Wall - Toni Fisher - Early Girls, Vol. 1.flac -=- CDDA (100%)
012 -=- (12) Pink Shoe Laces - Dodie Stevens - Early Girls, Vol. 1.flac -=- CDDA (99%)
013 -=- (13) Music, Music, Music - The Sensations - Early Girls, Vol. 1.flac -=- CDDA (100%)
014 -=- (14) Dear Abby - The Hearts - Early Girls, Vol. 1.flac -=- CDDA (99%)
015 -=- (15) Whenever A Teenager Cries - Reparata & The Delrons - Early Girls, Vol. 1.flac -=- CDDA (100%)
016 -=- (16) Popsicles & Icicles - The Murmaids - Early Girls, Vol. 1.flac -=- CDDA (100%)
017 -=- (17) Wonderful Summer - Robin Ward - Early Girls, Vol. 1.flac -=- CDDA (100%)
018 -=- (18) I Love How You Love Me - The Paris Sisters - Early Girls, Vol. 1.flac -=- CDDA (99%)
019 -=- (19) Dark Moon - Bonnie Guitar - Early Girls, Vol. 1.flac -=- CDDA (99%)
020 -=- (20) You - The Aquatones - Early Girls, Vol. 1.flac -=- CDDA (100%)
021 -=- (21) 'Til - The Angels - Early Girls, Vol. 1.flac -=- CDDA (100%)
022 -=- (22) The Great Pretender - Kathy Young - Early Girls, Vol. 1.flac -=- CDDA (100%)
023 -=- (23) Angel Baby - Rosie & The Originals - Early Girls, Vol. 1.flac -=- CDDA (100%)
024 -=- (24) Eddie My Love - The Teen Queens - Early Girls, Vol. 1.flac -=- CDDA (100%)
025 -=- (25) He's Gone - The Chantels - Early Girls, Vol. 1.flac -=- CDDA (100%)
026 -=- (26) Dedicated To The One I Love - The Shirelles - Early Girls, Vol. 1.flac -=- CDDA (100%)
027 -=- (27) Son-In-Law - The Blossoms - Early Girls, Vol. 1.flac -=- CDDA (100%)
028 -=- (28) Easier Said Than Done - The Essex - Early Girls, Vol. 1.flac -=- CDDA (100%)

Summary 99,86% CDDA

237715604



–––––––––––––––––––––––––––––––––––––––-


Various Artists - Early Girls, Volumes 1-5 (5 CDs Collection) Re-upload

Various Artists - Early Girls, Volume 2 (1997)
EAC-FLAC(tracks)+CUE+LOG -> 313 MB | Covers & Booklets | MP3 CBR 320 Kbps -> 155 MB
Pop / Rock & Roll / Oldies | 69:00 minutes | Label: Ace Records | Catalogue # CDCHD 657

Early Girls Volume 2 continues this CD series with some mighty fine hits by some of the best female singers of the 1950s and 1960s. These songbirds could take anything and make it shine brighter than silver and gold; that's why CDs like this still sell! The quality of the sound is excellent and I really like that artwork, too.

Barbie Gaye starts the CD track list off with her big hit entitled "My Boy Lollipop." "My Boy Lollipop" is quite catchy and Barbie sings this with all her might–she really belts it out! Barbie's voice is as clear as a bell and the music fits perfectly with her singing. The Exciters do a wonderful job on "Tell Him;" "Tell Him" really sparkles and The Exciters do this with their incredible sense of timing; "Tell Him" is a masterpiece–and it's also rather catchy, too. "Our Day Will Come" by Ruby & The Romantics is clearly another winner; Ruby & The Romantics do this one up right! They sing, harmonize and sway gently to make this tune really fine. The percussion enhances the music, too.

Listen for Little Leslie Gore to do her outstanding hit, "You Don't Own Me." "You Don't Own Me" still gets airplay on the "oldies" radio station in my area; Leslie sings this faultlessly and that's terrific. Leslie's voice remains distinctive; she has incredible talent and "You Don't Own Me" showcases her talent. Marcie Blane does "Bobby's Girl" with a lot of feeling that really enhances this tune; she sings this very well; Marcie remains a great chanteuse to this day! The McGuire Sisters also do their usual top notch job on "Sugartime;" and those male singers in the background balance out the number very nicely.

"Tonight You Belong To Me" by Patience and Prudence was always one of my very favorite songs from this era and genre of music; Patience and Prudence harmonize to perfection and although their career was short they gave us so much to enjoy. In addition, what can I say about Peggy Lee's incredible hit "Fever?" "Fever" was one of Peggy's signature songs and just one listen proves she owned this song–what a performance! The percussion makes "Fever" even better. There's also the great Dinah Washington doing "September In The Rain;" Dinah was a giant amongst giants and I treasure her CDs in my collection.

Damita Jo's "I'll Save The Last Dance For You" is very strong; and "I Just Don't Understand" gets the royal treatment from Ann-Margret and The Jordanaires. Great! Babs Tino sings "Forgive Me (For Giving You Such A Bad Time)" with lots of positive energy; and there's another gem in "Duchess Of Earl" as The Pearlettes do a female version of "Duke Of Earl" by Gene Chandler. Gladys Knight & The Pips perform "Letter Full Of Tears" without letting go of a superfluous note; and the CD ends very nicely with Timi Yuro doing "What's A Matter Baby (Is It Hurting You)." Wow, Timi sure does this brilliantly. This will leave you wanting more!

Early Girls Volume 2 offers us great, great music by some of the very best songbirds and girl groups of the 1950s and early 1960s; and that's very valuable for fans of this genre of music. I highly recommend this album.

customer's review from amazon.com

Tracklist:

01. Barbie Gaye - My Boy Lollipop
02. The Exciters - Tell Him
03. Ruby & The Romantics - Our Day Will Come
04. The Secrets - Boy Next Door
05. The Pips - Everybeat Of My Heart
06. Lesley Gore - You Don't Own Me
07. Terry & The Tunisians - The Street
08. Marcie Blane - Bobby's Girl
09. The McGuire Sisters - Sugartime
10. The Bonnie Sisters - Cry Baby
11. Patience & Prudence - Tonight You Belong To Me
12. The Raindrops - Kind Of Boy You Can't Forget
13. Peggy Lee - Fever
14. Dinah Washington - September In The Rain
15. Damita Jo - I'll Save The Last Dance For You
16. April Stevens - Teach Me Tiger
17. Ann-Margret - I Just Don't Understand
18. The Shirelles - I Met Him On A Sunday (Ronde Ronde)
19. Rosie & The Originals - Lonely Blue Nights
20. Babs Tino - Forgive Me (For Giving You Such A Bad Time)
21. Kathy Young & The Innocents - A Thousands Stars
22. The Sensations - Let Me In
23. The Chantels - Well, I Told You
24. The Hearts - Lonely Nights
25. The Pearlettes - Duchess Of Earl
26. The Blossoms - Move On
27. Gladys Knight & The Pips - Letter Full Of Tears
28. Timi Yuro - What's A Matter Baby (Is It Hurting You)

Compiled by John Broven, Trevior Churchill & Rob Finnis.

Exact Audio Copy V0.99 prebeta 4 from 23. January 2008

EAC extraction logfile from 4. August 2009, 19:35

Various Artists / Early Girls Volume 2

Used drive : TSSTcorpDVD+-RW TS-H653F Adapter: 4 ID: 1

Read mode : Secure
Utilize accurate stream : Yes
Defeat audio cache : Yes
Make use of C2 pointers : No

Read offset correction : 6
Overread into Lead-In and Lead-Out : No
Fill up missing offset samples with silence : Yes
Delete leading and trailing silent blocks : No
Null samples used in CRC calculations : No
Used interface : Installed external ASPI interface
Gap handling : Appended to previous track

Used output format : User Defined Encoder
Selected bitrate : 768 kBit/s
Quality : High
Add ID3 tag : No
Command line compressor : C:\Program Files\Exact Audio Copy\FLAC\FLAC.EXE
Additional command line options : -8 -V -T "ARTIST=%a" -T "TITLE=%t" -T "ALBUM=%g" -T "DATE=%y" -T "TRACKNUMBER=%n" -T "GENRE=%m" -T "COMMENT=%e" %s -o %d


TOC of the extracted CD

Track | Start | Length | Start sector | End sector
––––––––––––––––––––––––––––-
1 | 0:00.00 | 2:10.61 | 0 | 9810
2 | 2:10.61 | 2:33.10 | 9811 | 21295
3 | 4:43.71 | 2:33.55 | 21296 | 32825
4 | 7:17.51 | 2:01.23 | 32826 | 41923
5 | 9:18.74 | 2:03.62 | 41924 | 51210
6 | 11:22.61 | 2:32.67 | 51211 | 62677
7 | 13:55.53 | 2:02.29 | 62678 | 71856
8 | 15:58.07 | 2:27.19 | 71857 | 82900
9 | 18:25.26 | 2:35.01 | 82901 | 94526
10 | 21:00.27 | 2:26.30 | 94527 | 105506
11 | 23:26.57 | 1:55.54 | 105507 | 114185
12 | 25:22.36 | 2:09.72 | 114186 | 123932
13 | 27:32.33 | 3:24.20 | 123933 | 139252
14 | 30:56.53 | 2:09.50 | 139253 | 148977
15 | 33:06.28 | 2:17.63 | 148978 | 159315
16 | 35:24.16 | 2:25.25 | 159316 | 170215
17 | 37:49.41 | 2:40.35 | 170216 | 182250
18 | 40:30.01 | 2:17.32 | 182251 | 192557
19 | 42:47.33 | 2:32.09 | 192558 | 203966
20 | 45:19.42 | 2:09.42 | 203967 | 213683
21 | 47:29.09 | 3:14.51 | 213684 | 228284
22 | 50:43.60 | 3:05.45 | 228285 | 242204
23 | 53:49.30 | 2:28.47 | 242205 | 253351
24 | 56:18.02 | 2:43.36 | 253352 | 265612
25 | 59:01.38 | 2:19.14 | 265613 | 276051
26 | 61:20.52 | 2:03.65 | 276052 | 285341
27 | 63:24.42 | 2:51.18 | 285342 | 298184
28 | 66:15.60 | 2:44.25 | 298185 | 310509


Track 1

Filename D:\Temp\(01) My Boy Lollipop - Barbie Gaye - Early Girls Volume 2.wav

Pre-gap length 0:00:02.00

Peak level 99.3 %
Track quality 99.9 %
Copy CRC 806955E4
Accurately ripped (confidence 1) [D8022D5A]
Copy OK

Track 2

Filename D:\Temp\(02) Tell Him - The Exciters - Early Girls Volume 2.wav

Pre-gap length 0:00:01.56

Peak level 97.6 %
Track quality 100.0 %
Copy CRC 0149AFD5
Accurately ripped (confidence 1) [DB08DD7B]
Copy OK

Track 3

Filename D:\Temp\(03) Our Day Will Come - Ruby & The Romantics - Early Girls Volume 2.wav

Pre-gap length 0:00:01.74

Peak level 93.2 %
Track quality 99.9 %
Copy CRC 36F19DC5
Accurately ripped (confidence 1) [38609F6C]
Copy OK

Track 4

Filename D:\Temp\(04) Boy Next Door - The Secrets - Early Girls Volume 2.wav

Pre-gap length 0:00:02.64

Peak level 84.0 %
Track quality 100.0 %
Copy CRC 59A5F004
Accurately ripped (confidence 1) [F9AD221B]
Copy OK

Track 5

Filename D:\Temp\(05) Everybeat Of My Heart - The Pips - Early Girls Volume 2.wav

Pre-gap length 0:00:02.68

Peak level 78.4 %
Track quality 100.0 %
Copy CRC B73DE241
Accurately ripped (confidence 1) [483B5B2D]
Copy OK

Track 6

Filename D:\Temp\(06) You Don't Own Me - Lesley Gore - Early Girls Volume 2.wav

Pre-gap length 0:00:02.39

Peak level 94.6 %
Track quality 100.0 %
Copy CRC 6D387F17
Accurately ripped (confidence 1) [5FC647E7]
Copy OK

Track 7

Filename D:\Temp\(07) The Street - Terry & The Tunisians - Early Girls Volume 2.wav

Pre-gap length 0:00:02.52

Peak level 80.1 %
Track quality 100.0 %
Copy CRC 030B1394
Accurately ripped (confidence 1) [7F292B06]
Copy OK

Track 8

Filename D:\Temp\(08) Bobby's Girl - Marcie Blane - Early Girls Volume 2.wav

Pre-gap length 0:00:02.60

Peak level 76.3 %
Track quality 100.0 %
Copy CRC CE36C5B7
Accurately ripped (confidence 1) [261FE846]
Copy OK

Track 9

Filename D:\Temp\(09) Sugartime - The McGuire Sisters - Early Girls Volume 2.wav

Pre-gap length 0:00:02.66

Peak level 99.9 %
Track quality 100.0 %
Copy CRC A47A384D
Accurately ripped (confidence 1) [BFB2AE59]
Copy OK

Track 10

Filename D:\Temp\(10) Cry Baby - The Bonnie Sisters - Early Girls Volume 2.wav

Pre-gap length 0:00:03.09

Peak level 90.0 %
Track quality 100.0 %
Copy CRC 7DA65757
Accurately ripped (confidence 1) [8774E99B]
Copy OK

Track 11

Filename D:\Temp\(11) Tonight You Belong To Me - Patience & Prudence - Early Girls Volume 2.wav

Pre-gap length 0:00:03.39

Peak level 99.8 %
Track quality 100.0 %
Copy CRC 70C0BB66
Accurately ripped (confidence 1) [D01CA2E7]
Copy OK

Track 12

Filename D:\Temp\(12) Kind Of Boy You Can't Forget - The Raindrops - Early Girls Volume 2.wav

Pre-gap length 0:00:03.21

Peak level 81.8 %
Track quality 100.0 %
Copy CRC 60AF4D3D
Accurately ripped (confidence 1) [E8BC9CA0]
Copy OK

Track 13

Filename D:\Temp\(13) Fever - Peggy Lee - Early Girls Volume 2.wav

Pre-gap length 0:00:03.38

Peak level 98.4 %
Track quality 100.0 %
Copy CRC 135CA0A4
Accurately ripped (confidence 1) [0C104C90]
Copy OK

Track 14

Filename D:\Temp\(14) September In The Rain - Dinah Washington - Early Girls Volume 2.wav

Pre-gap length 0:00:04.05

Peak level 63.0 %
Track quality 100.0 %
Copy CRC F3506C7E
Accurately ripped (confidence 1) [7AE192CF]
Copy OK

Track 15

Filename D:\Temp\(15) I'll Save The Last Dance For You - Damita Jo - Early Girls Volume 2.wav

Pre-gap length 0:00:03.28

Peak level 79.6 %
Track quality 100.0 %
Copy CRC 5E421E51
Accurately ripped (confidence 1) [B532B9D8]
Copy OK

Track 16

Filename D:\Temp\(16) Teach Me Tiger - April Stevens - Early Girls Volume 2.wav

Pre-gap length 0:00:03.01

Peak level 73.2 %
Track quality 100.0 %
Copy CRC B5B307F6
Accurately ripped (confidence 1) [EF477961]
Copy OK

Track 17

Filename D:\Temp\(17) I Just Don't Understand - Ann-Margret - Early Girls Volume 2.wav

Pre-gap length 0:00:02.63

Peak level 61.7 %
Track quality 100.0 %
Copy CRC 53119A8D
Accurately ripped (confidence 1) [B7C936F2]
Copy OK

Track 18

Filename D:\Temp\(18) I Met Him On A Sunday (Ronde Ronde) - The Shirelles - Early Girls Volume 2.wav

Pre-gap length 0:00:03.35

Peak level 79.8 %
Track quality 100.0 %
Copy CRC E6C1CA78
Accurately ripped (confidence 1) [EC02FF5D]
Copy OK

Track 19

Filename D:\Temp\(19) Lonely Blue Nights - Rosie & The Originals - Early Girls Volume 2.wav

Pre-gap length 0:00:03.21

Peak level 87.2 %
Track quality 100.0 %
Copy CRC F92C14E5
Accurately ripped (confidence 1) [F6ED90F0]
Copy OK

Track 20

Filename D:\Temp\(20) Forgive Me (For Giving You Such A Bad Time) - Babs Tino - Early Girls Volume 2.wav

Pre-gap length 0:00:03.14

Peak level 85.6 %
Track quality 100.0 %
Copy CRC D8F699DF
Accurately ripped (confidence 1) [6331F1BE]
Copy OK

Track 21

Filename D:\Temp\(21) A Thousands Stars - Kathy Young & The Innocents - Early Girls Volume 2.wav

Pre-gap length 0:00:02.68

Peak level 80.8 %
Track quality 100.0 %
Copy CRC 33AA8E9E
Accurately ripped (confidence 1) [4E2EC7AF]
Copy OK

Track 22

Filename D:\Temp\(22) Let Me In - The Sensations - Early Girls Volume 2.wav

Pre-gap length 0:00:03.09

Peak level 88.8 %
Track quality 99.9 %
Copy CRC B2FC83E1
Accurately ripped (confidence 1) [B42DFC8E]
Copy OK

Track 23

Filename D:\Temp\(23) Well, I Told You - The Chantels - Early Girls Volume 2.wav

Pre-gap length 0:00:02.61

Peak level 99.8 %
Track quality 100.0 %
Copy CRC 293E67FA
Accurately ripped (confidence 1) [8D9B463E]
Copy OK

Track 24

Filename D:\Temp\(24) Lonely Nights - The Hearts - Early Girls Volume 2.wav

Pre-gap length 0:00:03.10

Peak level 81.6 %
Track quality 100.0 %
Copy CRC 5AD58DEA
Accurately ripped (confidence 1) [CF3F6D80]
Copy OK

Track 25

Filename D:\Temp\(25) Duchess Of Earl - The Pearlettes - Early Girls Volume 2.wav

Pre-gap length 0:00:03.25

Peak level 98.6 %
Track quality 100.0 %
Copy CRC AC3D3825
Accurately ripped (confidence 1) [6039BDA1]
Copy OK

Track 26

Filename D:\Temp\(26) Move On - The Blossoms - Early Girls Volume 2.wav

Pre-gap length 0:00:03.11

Peak level 99.8 %
Track quality 99.9 %
Copy CRC 27FF8DEF
Accurately ripped (confidence 1) [1AADB63C]
Copy OK

Track 27

Filename D:\Temp\(27) Letter Full Of Tears - Gladys Knight & The Pips - Early Girls Volume 2.wav

Pre-gap length 0:00:03.22

Peak level 99.8 %
Track quality 100.0 %
Copy CRC 53A41C1E
Accurately ripped (confidence 1) [EE4C8B74]
Copy OK

Track 28

Filename D:\Temp\(28) What's A Matter Baby (Is It Hurting You) - Timi Yuro - Early Girls Volume 2.wav

Pre-gap length 0:00:03.10

Peak level 95.4 %
Track quality 100.0 %
Copy CRC 7980C68C
Accurately ripped (confidence 1) [65BB9327]
Copy OK


All tracks accurately ripped

No errors occurred

End of status report


AUDIOCHECKER v2.0 beta (build 457) - by Dester - opdester@freemail.hu
~~~~~~~~~~~~~~~~~~~~~~~~~~~~~~~~~~
-=== DO NOT EDIT THIS FILE! ===-

Path: …\Early Girls Vol 2

001 -=- (01) My Boy Lollipop - Barbie Gaye - Early Girls Volume 2.flac -=- CDDA (100%)
002 -=- (02) Tell Him - The Exciters - Early Girls Volume 2.flac -=- CDDA (76%)
003 -=- (03) Our Day Will Come - Ruby & The Romantics - Early Girls Volume 2.flac -=- CDDA (100%)
004 -=- (04) Boy Next Door - The Secrets - Early Girls Volume 2.flac -=- CDDA (99%)
005 -=- (05) Everybeat Of My Heart - The Pips - Early Girls Volume 2.flac -=- CDDA (100%)
006 -=- (06) You Don't Own Me - Lesley Gore - Early Girls Volume 2.flac -=- CDDA (100%)
007 -=- (07) The Street - Terry & The Tunisians - Early Girls Volume 2.flac -=- CDDA (100%)
008 -=- (08) Bobby's Girl - Marcie Blane - Early Girls Volume 2.flac -=- CDDA (100%)
009 -=- (09) Sugartime - The McGuire Sisters - Early Girls Volume 2.flac -=- CDDA (100%)
010 -=- (10) Cry Baby - The Bonnie Sisters - Early Girls Volume 2.flac -=- CDDA (100%)
011 -=- (11) Tonight You Belong To Me - Patience & Prudence - Early Girls Volume 2.flac -=- CDDA (100%)
012 -=- (12) Kind Of Boy You Can't Forget - The Raindrops - Early Girls Volume 2.flac -=- CDDA (100%)
013 -=- (13) Fever - Peggy Lee - Early Girls Volume 2.flac -=- CDDA (100%)
014 -=- (14) September In The Rain - Dinah Washington - Early Girls Volume 2.flac -=- CDDA (100%)
015 -=- (15) I'll Save The Last Dance For You - Damita Jo - Early Girls Volume 2.flac -=- CDDA (100%)
016 -=- (16) Teach Me Tiger - April Stevens - Early Girls Volume 2.flac -=- CDDA (100%)
017 -=- (17) I Just Don't Understand - Ann-Margret - Early Girls Volume 2.flac -=- CDDA (100%)
018 -=- (18) I Met Him On A Sunday (Ronde Ronde) - The Shirelles - Early Girls Volume 2.flac -=- CDDA (100%)
019 -=- (19) Lonely Blue Nights - Rosie & The Originals - Early Girls Volume 2.flac -=- CDDA (99%)
020 -=- (20) Forgive Me (For Giving You Such A Bad Time) - Babs Tino - Early Girls Volume 2.flac -=- CDDA (100%)
021 -=- (21) A Thousands Stars - Kathy Young & The Innocents - Early Girls Volume 2.flac -=- CDDA (100%)
022 -=- (22) Let Me In - The Sensations - Early Girls Volume 2.flac -=- CDDA (99%)
023 -=- (23) Well, I Told You - The Chantels - Early Girls Volume 2.flac -=- CDDA (100%)
024 -=- (24) Lonely Nights - The Hearts - Early Girls Volume 2.flac -=- CDDA (100%)
025 -=- (25) Duchess Of Earl - The Pearlettes - Early Girls Volume 2.flac -=- CDDA (100%)
026 -=- (26) Move On - The Blossoms - Early Girls Volume 2.flac -=- CDDA (94%)
027 -=- (27) Letter Full Of Tears - Gladys Knight & The Pips - Early Girls Volume 2.flac -=- CDDA (100%)
028 -=- (28) What's A Matter Baby (Is It Hurting You) - Timi Yuro - Early Girls Volume 2.flac -=- CDDA (100%)

Summary 98,82% CDDA

264603172



–––––––––––––––––––––––––––––––––––––––-


Various Artists - Early Girls, Volumes 1-5 (5 CDs Collection) Re-upload

Various Artists - Early Girls, Volume 3 (2000)
EAC-FLAC(tracks)+CUE+LOG -> 324 MB | Covers & Booklets | MP3 CBR 320 Kbps -> 155 MB
Pop / Rock & Roll / Oldies | 69:57 minutes | Label: Ace Records | Catalogue # CDCHD 775

This third release in their Early Girls series continues the mix of relatively easy-to-find selections and a few that will immediately grab the attention of collectors everywhere, especially those who concentrate on the Girl Group Sound.

It starts right off with one that became the only hit for an L.A.-based trio that included Nannette Jackson, Gloria Goodson, and Carolyn Willis, who also sang with Bobb B. Soxx & The Blue Jeans and The Honey Cone. Written for them by David Gates of Bread, My One And Only Jimmy Boy peaked at # 49 Billboard Pop Hot 100 in December 1963/January 1964 on the Colpix label, becoming just one of many otherwise nice tunes shoved aside by the onslaught of the British Invasion.

Three more One-Hit Wonders you don't see in many releases are Alice Faye Henderson, Ginny Arnell, and The Percells. Alice, while working as a maid, was discovered by the next-door neighbour, Stephen Schlaks, who also happened to own Bardell Records. In the summer of 1963 she cut He's Mine (I Love Him, I Love Him, I Love Him) under the billing Alice Wonder Land and saw it reach # 62 Hot 100 that September. Arnell, from New Haven, had her only hit, Dumb Head, top out at # 50 Hot 100 in December 1963 on one of the major labels, MGM, while The Percells (lead Gail Jones, Joan Paulin, Jean Marie Johnson and Betty Lloyd) from Long Island, N.Y., had What Are Boys Made Of? make it to # 53 Hot 100 in April/May 1963 on ABC-Paramount.

The real find, however, is I Want You To Be My Baby, a # 18 Pop Top 100 in September 1955 for Lillian Briggs (orchestra backing by O.B. Masingill), a vocalist/trombone player discovered by the legendary Alan Freed while she played with Joy Cayler's All-Girl Orchestra in New York. Released on Columbia's Epic subsidiary, that was her only hit as well. The Pixies Three, on the other hand, had four hits to their credit, with the best for this Hanover, Pennsylvania trio was their first, Birthday Party, which reached the Hot 100 Top 40 at exactly # 40 in late summer 1963 on Mercury. Group members were lead Midge Bollinger (replaved by Bonnie Long in 1964), Kaye McColl, and Debbie Swisher, who would take over from Peggy Santiglia as lead of The Angels in 1967/68.

The Starlets from Chicago (lead Dynetta Boone - also known as Liz Walker - Maxine Edwards, Mickey McKinney, Jane Hall, Bernice Williams and Jeanette Miles) is another group generally associated with One-Hit Wonders, with Better Tell Him No hitting # 24 R&B and # 38 Hot 100 in May 1961 for the PAM label. However, while still under contract to PAM, they also recorded I Sold My Heart To The Junkman for Newtown Records and they, in order to avoid a lawsuit, released it as by one of their own groups, The Blue-Belles, led by Patti LaBelle. In May 1962 it peaked at # 13 R&B/# 15 Hot 100.

Debbie Dovale was, however, a member of that ignominious group with her only hit, Hey Lover, reaching # 81 in November 1963 on Roulette. One selection here, What Kind Of Girl (Do You Think I Am?) by Gigi (Griffin, nee Marian Jackson) and the Charmaines was never a hit. In fact, this Cincinnati trio never had a Pop Hot 100. But, like The Blossoms (see Volume 1 in this series), they did memorable background work with major stars like Gary U.S. Bonds, James Brown, Lonnie Mack, Bobby Freeman, Little Willie John, and Country artists Conway Twitty and Hawkshaw Hawkins.

Topping it all off are 22 pages of liner notes written in 2000 by Mick Patrick, complete with vintage poster/record reproductions and numerous photographs, including Lillian Briggs, Patti Page, Jodie Sands, Della Reese, Etta Jones, Shelby Flint, The Starlets, Timi Yuro, The Charmaines (rare), Shelley Fabares, Joanie Summers, Little Peggy March, The Percells, Diane Ray, The Pixies Three, Ginny Arnell, The Girlfriends and Bernadette Carroll. A discography of the contents appears on the reverse.

If I have one complaint about Ace, it's that they have too MANY great series on the market. My pocketbook is limited, but slowly and surely I am gathering in every volume. Head and shoulders above the competition in every respect.

customer's review from amazon.com

Tracklist:

01. Girlfriends - My One And Only Jimmy Boy
02. Little Peggy March - I Will Follow Him
03. Alice Wonder Land - He's Mine
04. Shelly Fabares - Johnny Angel
05. Ginny Arnell - Dumb Head
06. Cathy Jean And Roommates - Please Love Me Forever
07. Etta James - At Last
08. Percells - What Are Boys Made Of
09. Della Reese - Don't You Know
10. Lillian Briggs - I Want You To Be My Baby
11. Jodie Sands - With All My Heart
12. Margie Rayburn - I'm Available
13. Patti Page - Old Cape Cod
14. Shelby Flint - Angel On My Shoulder
15. Timi Yuro - Hurt
16. Joanie Sommers - Johnny Get Angry
17. Diane Ray - Please Don't Talk To The Lifeguard
18. The Pixies Three - Birthday Party
19. Carla Thomas - Gee Whiz (Look At His Eyes)
20. Faye Adams - Shake A Hand
21. Etta Jones - Don't Go To Strangers
22. Bernadette Carroll - Party Girl
23. The Starlets - Better Tell Him No
24. The Charmaines - What Kind Of Girl (Do You Think I Am )
25. Esther Phillips - Release Me
26. Debbie Dovale - Hey Lover
27. The Chantels - Look In My Eyes
28. Suzie Clark - Ain't Gonna Kiss Ya

Compiled by John Broven, Trevior Churchill & Rob Finnis.

Exact Audio Copy V0.99 prebeta 4 from 23. January 2008

EAC extraction logfile from 5. August 2009, 19:30

Various / Early Girls, Vol. 3

Used drive : TSSTcorpDVD+-RW TS-H653F Adapter: 4 ID: 1

Read mode : Secure
Utilize accurate stream : Yes
Defeat audio cache : Yes
Make use of C2 pointers : No

Read offset correction : 6
Overread into Lead-In and Lead-Out : No
Fill up missing offset samples with silence : Yes
Delete leading and trailing silent blocks : No
Null samples used in CRC calculations : No
Used interface : Installed external ASPI interface
Gap handling : Appended to previous track

Used output format : User Defined Encoder
Selected bitrate : 768 kBit/s
Quality : High
Add ID3 tag : No
Command line compressor : C:\Program Files\Exact Audio Copy\FLAC\FLAC.EXE
Additional command line options : -8 -V -T "ARTIST=%a" -T "TITLE=%t" -T "ALBUM=%g" -T "DATE=%y" -T "TRACKNUMBER=%n" -T "GENRE=%m" -T "COMMENT=%e" %s -o %d


TOC of the extracted CD

Track | Start | Length | Start sector | End sector
––––––––––––––––––––––––––––-
1 | 0:00.00 | 2:17.05 | 0 | 10279
2 | 2:17.05 | 2:34.07 | 10280 | 21836
3 | 4:51.12 | 1:58.50 | 21837 | 30736
4 | 6:49.62 | 2:21.38 | 30737 | 41349
5 | 9:11.25 | 2:16.57 | 41350 | 51606
6 | 11:28.07 | 2:54.68 | 51607 | 64724
7 | 14:23.00 | 3:00.60 | 64725 | 78284
8 | 17:23.60 | 2:19.00 | 78285 | 88709
9 | 19:42.60 | 2:34.17 | 88710 | 100276
10 | 22:17.02 | 2:31.63 | 100277 | 111664
11 | 24:48.65 | 2:44.10 | 111665 | 123974
12 | 27:33.00 | 1:53.12 | 123975 | 132461
13 | 29:26.12 | 2:36.50 | 132462 | 144211
14 | 32:02.62 | 2:18.03 | 144212 | 154564
15 | 34:20.65 | 2:28.27 | 154565 | 165691
16 | 36:49.17 | 2:33.70 | 165692 | 177236
17 | 39:23.12 | 1:45.63 | 177237 | 185174
18 | 41:09.00 | 2:07.72 | 185175 | 194771
19 | 43:16.72 | 2:21.23 | 194772 | 205369
20 | 45:38.20 | 2:53.62 | 205370 | 218406
21 | 48:32.07 | 3:53.10 | 218407 | 235891
22 | 52:25.17 | 2:17.05 | 235892 | 246171
23 | 54:42.22 | 2:32.18 | 246172 | 257589
24 | 57:14.40 | 2:27.22 | 257590 | 268636
25 | 59:41.62 | 3:18.48 | 268637 | 283534
26 | 63:00.35 | 2:09.57 | 283535 | 293266
27 | 65:10.17 | 2:18.28 | 293267 | 303644
28 | 67:28.45 | 2:28.65 | 303645 | 314809


Track 1

Filename D:\Temp\(01) My One And Only Jimmy Boy - Girlfriends - Early Girls, Vol. 3.wav

Pre-gap length 0:00:02.00

Peak level 99.8 %
Track quality 100.0 %
Copy CRC ADADC2A8
Cannot be verified as accurate (confidence 2) [A3AA83C1], AccurateRip returned [367D1F33]
Copy OK

Track 2

Filename D:\Temp\(02) I Will Follow Him - Little Peggy March - Early Girls, Vol. 3.wav

Pre-gap length 0:00:01.58

Peak level 97.6 %
Track quality 100.0 %
Copy CRC 0D174684
Cannot be verified as accurate (confidence 2) [F052A6CE], AccurateRip returned [F90B7FCE]
Copy OK

Track 3

Filename D:\Temp\(03) He's Mine - Alice Wonder Land - Early Girls, Vol. 3.wav

Pre-gap length 0:00:00.52

Peak level 99.7 %
Track quality 100.0 %
Copy CRC F91E16D2
Cannot be verified as accurate (confidence 2) [9A1A26FE], AccurateRip returned [1CE191DB]
Copy OK

Track 4

Filename D:\Temp\(04) Johnny Angel - Shelly Fabares - Early Girls, Vol. 3.wav

Pre-gap length 0:00:01.03

Peak level 99.3 %
Track quality 100.0 %
Copy CRC D120B2B9
Cannot be verified as accurate (confidence 2) [20DA6AE8], AccurateRip returned [7D7AF3D3]
Copy OK

Track 5

Filename D:\Temp\(05) Dumb Head - Ginny Arnell - Early Girls, Vol. 3.wav

Pre-gap length 0:00:01.47

Peak level 98.7 %
Track quality 100.0 %
Copy CRC 75C24FFD
Cannot be verified as accurate (confidence 2) [7B68F557], AccurateRip returned [E04CFF01]
Copy OK

Track 6

Filename D:\Temp\(06) Please Love Me Forever - Cathy Jean And Roommates - Early Girls, Vol. 3.wav

Pre-gap length 0:00:01.12

Peak level 99.0 %
Track quality 100.0 %
Copy CRC 2C7F9A7F
Cannot be verified as accurate (confidence 2) [91C47FA8], AccurateRip returned [7A3DACCF]
Copy OK

Track 7

Filename D:\Temp\(07) At Last - Etta James - Early Girls, Vol. 3.wav

Pre-gap length 0:00:01.30

Peak level 98.9 %
Track quality 100.0 %
Copy CRC 6E35D62D
Cannot be verified as accurate (confidence 2) [63C3ADA7], AccurateRip returned [50D6EF5A]
Copy OK

Track 8

Filename D:\Temp\(08) What Are Boys Made Of - Percells - Early Girls, Vol. 3.wav

Pre-gap length 0:00:02.47

Peak level 97.0 %
Track quality 100.0 %
Copy CRC E08F395E
Cannot be verified as accurate (confidence 2) [C03DE771], AccurateRip returned [3ADD0A6A]
Copy OK

Track 9

Filename D:\Temp\(09) Don't You Know - Della Reese - Early Girls, Vol. 3.wav

Pre-gap length 0:00:01.00

Peak level 88.8 %
Track quality 100.0 %
Copy CRC 0128E57C
Cannot be verified as accurate (confidence 2) [F572DE4A], AccurateRip returned [554C5E78]
Copy OK

Track 10

Filename D:\Temp\(10) I Want You To Be My Baby - Lillian Briggs - Early Girls, Vol. 3.wav

Pre-gap length 0:00:02.02

Peak level 99.6 %
Track quality 100.0 %
Copy CRC 767C7BE9
Cannot be verified as accurate (confidence 2) [138245BA], AccurateRip returned [A5DFC2FE]
Copy OK

Track 11

Filename D:\Temp\(11) With All My Heart - Jodie Sands - Early Girls, Vol. 3.wav

Pre-gap length 0:00:02.35

Peak level 92.6 %
Track quality 100.0 %
Copy CRC 9922BD4B
Cannot be verified as accurate (confidence 2) [B2C1EE09], AccurateRip returned [6E696882]
Copy OK

Track 12

Filename D:\Temp\(12) I'm Available - Margie Rayburn - Early Girls, Vol. 3.wav

Pre-gap length 0:00:01.68

Peak level 99.7 %
Track quality 100.0 %
Copy CRC A814AF10
Cannot be verified as accurate (confidence 2) [F3EE5D47], AccurateRip returned [67896318]
Copy OK

Track 13

Filename D:\Temp\(13) Old Cape Cod - Patti Page - Early Girls, Vol. 3.wav

Pre-gap length 0:00:02.20

Peak level 95.8 %
Track quality 100.0 %
Copy CRC 28848389
Cannot be verified as accurate (confidence 2) [07376454], AccurateRip returned [ED282D8B]
Copy OK

Track 14

Filename D:\Temp\(14) Angel On My Shoulder - Shelby Flint - Early Girls, Vol. 3.wav

Pre-gap length 0:00:01.68

Peak level 89.0 %
Track quality 100.0 %
Copy CRC 0C42DC97
Cannot be verified as accurate (confidence 2) [041BC656], AccurateRip returned [784BDBBD]
Copy OK

Track 15

Filename D:\Temp\(15) Hurt - Timi Yuro - Early Girls, Vol. 3.wav

Pre-gap length 0:00:02.00

Peak level 99.2 %
Track quality 100.0 %
Copy CRC 4FDCA993
Cannot be verified as accurate (confidence 2) [13574B58], AccurateRip returned [918A1BF0]
Copy OK

Track 16

Filename D:\Temp\(16) Johnny Get Angry - Joanie Sommers - Early Girls, Vol. 3.wav

Pre-gap length 0:00:01.65

Peak level 98.6 %
Track quality 100.0 %
Copy CRC 914BD064
Cannot be verified as accurate (confidence 2) [09D80877], AccurateRip returned [D8A1E307]
Copy OK

Track 17

Filename D:\Temp\(17) Please Don't Talk To The Lifeguard - Diane Ray - Early Girls, Vol. 3.wav

Pre-gap length 0:00:01.50

Peak level 96.5 %
Track quality 100.0 %
Copy CRC 76036962
Cannot be verified as accurate (confidence 2) [DB53D916], AccurateRip returned [5752CAEB]
Copy OK

Track 18

Filename D:\Temp\(18) Birthday Party - The Pixies Three - Early Girls, Vol. 3.wav

Pre-gap length 0:00:01.63

Peak level 91.0 %
Track quality 100.0 %
Copy CRC 318473A3
Cannot be verified as accurate (confidence 2) [60427EF2], AccurateRip returned [522D9707]
Copy OK

Track 19

Filename D:\Temp\(19) Gee Whiz (Look At His Eyes) - Carla Thomas - Early Girls, Vol. 3.wav

Pre-gap length 0:00:02.12

Peak level 93.7 %
Track quality 100.0 %
Copy CRC 598BBA51
Cannot be verified as accurate (confidence 2) [1216E27F], AccurateRip returned [239ED7A8]
Copy OK

Track 20

Filename D:\Temp\(20) Shake A Hand - Faye Adams - Early Girls, Vol. 3.wav

Pre-gap length 0:00:01.65

Peak level 87.5 %
Track quality 100.0 %
Copy CRC 7A60217B
Cannot be verified as accurate (confidence 2) [A77B031B], AccurateRip returned [E3BE5C5F]
Copy OK

Track 21

Filename D:\Temp\(21) Don't Go To Strangers - Etta Jones - Early Girls, Vol. 3.wav

Pre-gap length 0:00:02.42

Peak level 99.7 %
Track quality 100.0 %
Copy CRC 9590E3B4
Cannot be verified as accurate (confidence 2) [EBA66421], AccurateRip returned [703A8637]
Copy OK

Track 22

Filename D:\Temp\(22) Party Girl - Bernadette Carroll - Early Girls, Vol. 3.wav

Pre-gap length 0:00:02.69

Peak level 99.7 %
Track quality 100.0 %
Copy CRC 6BB17348
Cannot be verified as accurate (confidence 2) [2B076E5E], AccurateRip returned [740BB7FC]
Copy OK

Track 23

Filename D:\Temp\(23) Better Tell Him No - The Starlets - Early Girls, Vol. 3.wav

Pre-gap length 0:00:01.60

Peak level 98.6 %
Track quality 100.0 %
Copy CRC 666F5A5D
Cannot be verified as accurate (confidence 2) [424A028C], AccurateRip returned [244CCD00]
Copy OK

Track 24

Filename D:\Temp\(24) What Kind Of Girl (Do You Think I Am ) - The Charmaines - Early Girls, Vol. 3.wav

Pre-gap length 0:00:01.23

Peak level 98.3 %
Track quality 100.0 %
Copy CRC BA78BA9B
Cannot be verified as accurate (confidence 2) [5CFF3381], AccurateRip returned [DD4E40AA]
Copy OK

Track 25

Filename D:\Temp\(25) Release Me - Esther Phillips - Early Girls, Vol. 3.wav

Pre-gap length 0:00:01.52

Peak level 94.5 %
Track quality 100.0 %
Copy CRC A26AE2F7
Cannot be verified as accurate (confidence 2) [1BF34462], AccurateRip returned [C0E813FB]
Copy OK

Track 26

Filename D:\Temp\(26) Hey Lover - Debbie Dovale - Early Girls, Vol. 3.wav

Pre-gap length 0:00:01.70

Peak level 94.8 %
Track quality 100.0 %
Copy CRC 5128C337
Cannot be verified as accurate (confidence 2) [10B473C8], AccurateRip returned [A97FDB50]
Copy OK

Track 27

Filename D:\Temp\(27) Look In My Eyes - The Chantels - Early Girls, Vol. 3.wav

Pre-gap length 0:00:01.69

Peak level 93.8 %
Track quality 100.0 %
Copy CRC 54FC28FB
Cannot be verified as accurate (confidence 2) [10F7084F], AccurateRip returned [9C121A5E]
Copy OK

Track 28

Filename D:\Temp\(28) Ain't Gonna Kiss Ya - Suzie Clark - Early Girls, Vol. 3.wav

Pre-gap length 0:00:01.73

Peak level 90.8 %
Track quality 100.0 %
Copy CRC CEC5D26B
Cannot be verified as accurate (confidence 2) [9E9428B2], AccurateRip returned [92C92DB9]
Copy OK


No tracks could be verified as accurate
You may have a different pressing from the one(s) in the database

No errors occurred

End of status report


AUDIOCHECKER v2.0 beta (build 457) - by Dester - opdester@freemail.hu
~~~~~~~~~~~~~~~~~~~~~~~~~~~~~~~~~~
-=== DO NOT EDIT THIS FILE! ===-

Path: …\Early Girls Vol 3

001 -=- (01) My One And Only Jimmy Boy - Girlfriends - Early Girls, Vol. 3.flac -=- CDDA (100%)
002 -=- (02) I Will Follow Him - Little Peggy March - Early Girls, Vol. 3.flac -=- CDDA (99%)
003 -=- (03) He's Mine - Alice Wonder Land - Early Girls, Vol. 3.flac -=- CDDA (100%)
004 -=- (04) Johnny Angel - Shelly Fabares - Early Girls, Vol. 3.flac -=- CDDA (100%)
005 -=- (05) Dumb Head - Ginny Arnell - Early Girls, Vol. 3.flac -=- CDDA (100%)
006 -=- (06) Please Love Me Forever - Cathy Jean And Roommates - Early Girls, Vol. 3.flac -=- CDDA (100%)
007 -=- (07) At Last - Etta James - Early Girls, Vol. 3.flac -=- CDDA (100%)
008 -=- (08) What Are Boys Made Of - Percells - Early Girls, Vol. 3.flac -=- CDDA (100%)
009 -=- (09) Don't You Know - Della Reese - Early Girls, Vol. 3.flac -=- CDDA (100%)
010 -=- (10) I Want You To Be My Baby - Lillian Briggs - Early Girls, Vol. 3.flac -=- CDDA (100%)
011 -=- (11) With All My Heart - Jodie Sands - Early Girls, Vol. 3.flac -=- CDDA (100%)
012 -=- (12) I'm Available - Margie Rayburn - Early Girls, Vol. 3.flac -=- CDDA (100%)
013 -=- (13) Old Cape Cod - Patti Page - Early Girls, Vol. 3.flac -=- CDDA (100%)
014 -=- (14) Angel On My Shoulder - Shelby Flint - Early Girls, Vol. 3.flac -=- CDDA (85%)
015 -=- (15) Hurt - Timi Yuro - Early Girls, Vol. 3.flac -=- CDDA (100%)
016 -=- (16) Johnny Get Angry - Joanie Sommers - Early Girls, Vol. 3.flac -=- CDDA (100%)
017 -=- (17) Please Don't Talk To The Lifeguard - Diane Ray - Early Girls, Vol. 3.flac -=- CDDA (100%)
018 -=- (18) Birthday Party - The Pixies Three - Early Girls, Vol. 3.flac -=- CDDA (100%)
019 -=- (19) Gee Whiz (Look At His Eyes) - Carla Thomas - Early Girls, Vol. 3.flac -=- CDDA (100%)
020 -=- (20) Shake A Hand - Faye Adams - Early Girls, Vol. 3.flac -=- CDDA (100%)
021 -=- (21) Don't Go To Strangers - Etta Jones - Early Girls, Vol. 3.flac -=- CDDA (100%)
022 -=- (22) Party Girl - Bernadette Carroll - Early Girls, Vol. 3.flac -=- CDDA (100%)
023 -=- (23) Better Tell Him No - The Starlets - Early Girls, Vol. 3.flac -=- CDDA (43%)
024 -=- (24) What Kind Of Girl (Do You Think I Am ) - The Charmaines - Early Girls, Vol. 3.flac -=- CDDA (100%)
025 -=- (25) Release Me - Esther Phillips - Early Girls, Vol. 3.flac -=- CDDA (100%)
026 -=- (26) Hey Lover - Debbie Dovale - Early Girls, Vol. 3.flac -=- CDDA (100%)
027 -=- (27) Look In My Eyes - The Chantels - Early Girls, Vol. 3.flac -=- CDDA (100%)
028 -=- (28) Ain't Gonna Kiss Ya - Suzie Clark - Early Girls, Vol. 3.flac -=- CDDA (100%)

Summary 97,39% CDDA

17806244



–––––––––––––––––––––––––––––––––––––––-


Various Artists - Early Girls, Volumes 1-5 (5 CDs Collection) Re-upload

Various Artists - Early Girls, Volume 4 (2005)
EAC-FLAC(tracks)+CUE+LOG -> 306 MB | Covers & Booklets | MP3 CBR 320 Kbps -> 164 MB
Pop / Rock & Roll / Oldies | 63:25 minutes | Label: Ace Records | Catalogue # CDCHD 1045

Here, in the fourth installment of their highly regarded "Early Girls" series of rock's golden-age girl and girl-group compilations, Ace extends their reach beyond the mostly teenager-oriented recordings of previous volumes. Sharing the digital domain with to-be-expected artists such as Brenda Lee, the Cookies and Tracey Dey are stalwarts of the more adult-oriented performers of the day as represented by Doris Day, Rosemary Clooney and Nancy Wilson. While one may argue they are misplaced in this compilation series, Ace is reminding us that, as their tunes were strong contenders within the top-100 of the period and they would not be going away quietly as many of their male counterparts did, they were indeed part and parcel of the female presence in the early days of rock and roll.

So, here in this eclectic gathering we are presented "Secret Love" from Doris Day, "This Ole House" by Rosemary Clooney and Nancy Wilson's "How Glad I Am". But the focus here is still on the teenage market and the performers that aimed directly at that upcoming wave in the music world. A few of the quickly recognized big hits are here, represented by Annette's "Tall Paul", Sue Thompson's "Sad Movies" and the Cookies' "Don't Say Nothin' Bad About My Baby". Refreshingly, represented are a few artists that had monster hits, though the tunes selected here include some lesser-known one such as the Essex' "A Walkin' Miracle" follow-up to "Easier Said Than Done" and Little Eva's "Keep Your Hands off My Baby" riding the tailwind of her massive hit "Locomotion". What really piques the interest here however, is Ace's exceptional track record of bringing to the digital domain tracks that have seldom, if ever, seen the light of digital day. And there are many - "Oh Why" from the Teddy Bears of "To Know Him Is to Love Him" fame, Annie Laurie's "It Hurts to Be in Love", Marcy Joe with "Ronnie", "To a Soldier Boy" from the Tassels and the Toy Dolls' "Little Tin Soldier" to name a few.

With a very generous 28 tracks all told, all in top-notch sound including eight tracks in true stereo (1-3,7,8,17,19 and 22) and a phenomenally comprehensive 24-page liner notes booklet, Ace has again hit an out-of-the-park home run with this, their latest girl-group compilation. No hesitation whatsoever here in adding this to the collector's must-have list.

customer's review from amazon.com

Tracklist:

01. Brenda Lee - Dum Dum
02. Nancy Wilson - (You Don't Know) How Glad I Am
03. LaVern Baker - I Cried A Tear
04. Annette With The Afterbeats - Tall Paul
05. The McGuire Sisters - Sincerely
06. Doris Day - Secret Love
07. Sue Thompson - Sad Movies (Make Me Cry)
08. The Teddy Bears - Oh Why
09. Debbie Reynolds - Tammy
10. Georgia Gibbs - Tweedle Dee
11. Annie Laurie - It Hurts To Be In Love
12. Theola Kilgore - The Love Of My Man
13. The Cookies - Don't Say Nothin' Bad (About My Baby)
14. Priscilla Wright With Don Wright & The Septette - The Man In The Raincoat
15. Betty Johnson - Little White Lies
16. Bonnie Lou - Daddy-O
17. The Essex Featuring Anita Humes - A Walkin' Miracle
18. Jamie Horton - My Little Marine
19. Jeanne Black - He'll Have To Stay
20. Marcy Joe - Ronnie
21. Patience & Prudence - Gonna Get Along Without Ya Now
22. Anita Bryant - Paper Roses
23. The Tassels - To A Soldier Boy
24. Tracey Dey - Teenage Cleopatra
25. The Toy Dolls - Little Tin Soldier
26. Rosemary Clooney - This Ole House
27. Little Eva - Keep Your Hands Off My Baby
28. Mary Ann Fisher - I Can't Take It

Compiled by John Broven, Trevior Churchill & Rob Finnis.

Exact Audio Copy V0.99 prebeta 4 from 23. January 2008

EAC extraction logfile from 10. August 2009, 17:13

Various / Early Girls, Vol. 4

Used drive : TSSTcorpDVD+-RW TS-H653F Adapter: 4 ID: 1

Read mode : Secure
Utilize accurate stream : Yes
Defeat audio cache : Yes
Make use of C2 pointers : No

Read offset correction : 6
Overread into Lead-In and Lead-Out : No
Fill up missing offset samples with silence : Yes
Delete leading and trailing silent blocks : No
Null samples used in CRC calculations : No
Used interface : Installed external ASPI interface
Gap handling : Appended to previous track

Used output format : User Defined Encoder
Selected bitrate : 768 kBit/s
Quality : High
Add ID3 tag : No
Command line compressor : C:\Program Files\Exact Audio Copy\FLAC\FLAC.EXE
Additional command line options : -8 -V -T "ARTIST=%a" -T "TITLE=%t" -T "ALBUM=%g" -T "DATE=%y" -T "TRACKNUMBER=%n" -T "GENRE=%m" -T "COMMENT=%e" %s -o %d


TOC of the extracted CD

Track | Start | Length | Start sector | End sector
––––––––––––––––––––––––––––-
1 | 0:00.00 | 2:24.69 | 0 | 10868
2 | 2:24.69 | 2:36.57 | 10869 | 22625
3 | 5:01.51 | 2:38.10 | 22626 | 34485
4 | 7:39.61 | 1:36.26 | 34486 | 41711
5 | 9:16.12 | 3:00.54 | 41712 | 55265
6 | 12:16.66 | 3:39.53 | 55266 | 71743
7 | 15:56.44 | 3:19.15 | 71744 | 86683
8 | 19:15.59 | 2:32.74 | 86684 | 98157
9 | 21:48.58 | 3:09.67 | 98158 | 112399
10 | 24:58.50 | 2:34.00 | 112400 | 123949
11 | 27:32.50 | 2:46.37 | 123950 | 136436
12 | 30:19.12 | 3:17.62 | 136437 | 151273
13 | 33:36.74 | 2:44.50 | 151274 | 163623
14 | 36:21.49 | 2:51.46 | 163624 | 176494
15 | 39:13.20 | 2:22.06 | 176495 | 187150
16 | 41:35.26 | 2:04.40 | 187151 | 196490
17 | 43:39.66 | 2:20.63 | 196491 | 207053
18 | 46:00.54 | 2:34.42 | 207054 | 218645
19 | 48:35.21 | 2:45.28 | 218646 | 231048
20 | 51:20.49 | 2:35.08 | 231049 | 242681
21 | 53:55.57 | 1:56.38 | 242682 | 251419
22 | 55:52.20 | 2:56.36 | 251420 | 264655
23 | 58:48.56 | 2:32.31 | 264656 | 276086
24 | 61:21.12 | 2:44.59 | 276087 | 288445
25 | 64:05.71 | 2:14.01 | 288446 | 298496
26 | 66:19.72 | 2:25.07 | 298497 | 309378
27 | 68:45.04 | 2:32.11 | 309379 | 320789
28 | 71:17.15 | 2:07.67 | 320790 | 330381


Track 1

Filename D:\Temp\(01) Dum Dum - Brenda Lee - Early Girls, Vol. 4.wav

Pre-gap length 0:00:02.00

Peak level 100.0 %
Track quality 100.0 %
Copy CRC 98BB19D4
Accurately ripped (confidence 1) [107A9043]
Copy OK

Track 2

Filename D:\Temp\(02) (You Don't Know) How Glad I Am - Nancy Wilson - Early Girls, Vol. 4.wav

Pre-gap length 0:00:02.14

Peak level 100.0 %
Track quality 100.0 %
Copy CRC B8A7A7C7
Accurately ripped (confidence 1) [2B6292B1]
Copy OK

Track 3

Filename D:\Temp\(03) I Cried A Tear - LaVern Baker - Early Girls, Vol. 4.wav

Pre-gap length 0:00:00.70

Peak level 100.0 %
Track quality 100.0 %
Copy CRC DC23F334
Accurately ripped (confidence 1) [2294C5D8]
Copy OK

Track 4

Filename D:\Temp\(04) Tall Paul - Annette With The Afterbeats - Early Girls, Vol. 4.wav

Pre-gap length 0:00:03.49

Peak level 80.8 %
Track quality 100.0 %
Copy CRC FA864DA5
Accurately ripped (confidence 1) [507412CE]
Copy OK

Track 5

Filename D:\Temp\(05) Sincerely - The McGuire Sisters - Early Girls, Vol. 4.wav

Pre-gap length 0:00:02.41

Peak level 100.0 %
Track quality 100.0 %
Copy CRC D1D78AB8
Accurately ripped (confidence 1) [D3EE5788]
Copy OK

Track 6

Filename D:\Temp\(06) Secret Love - Doris Day - Early Girls, Vol. 4.wav

Pre-gap length 0:00:04.17

Peak level 92.1 %
Track quality 100.0 %
Copy CRC 35C48D4F
Accurately ripped (confidence 1) [A4BC22FA]
Copy OK

Track 7

Filename D:\Temp\(07) Sad Movies (Make Me Cry) - Sue Thompson - Early Girls, Vol. 4.wav

Pre-gap length 0:00:04.09

Peak level 84.3 %
Track quality 100.0 %
Copy CRC 1A32CBB1
Accurately ripped (confidence 1) [094735E4]
Copy OK

Track 8

Filename D:\Temp\(08) Oh Why - The Teddy Bears - Early Girls, Vol. 4.wav

Pre-gap length 0:00:03.56

Peak level 100.0 %
Track quality 100.0 %
Copy CRC C58EADBD
Accurately ripped (confidence 1) [7B6A9FEE]
Copy OK

Track 9

Filename D:\Temp\(09) Tammy - Debbie Reynolds - Early Girls, Vol. 4.wav

Pre-gap length 0:00:03.40

Peak level 98.6 %
Track quality 100.0 %
Copy CRC A3B2A1B5
Accurately ripped (confidence 1) [786CB3E0]
Copy OK

Track 10

Filename D:\Temp\(10) Tweedle Dee - Georgia Gibbs - Early Girls, Vol. 4.wav

Pre-gap length 0:00:05.34

Peak level 99.8 %
Track quality 100.0 %
Copy CRC 469B71E0
Accurately ripped (confidence 1) [9C92411B]
Copy OK

Track 11

Filename D:\Temp\(11) It Hurts To Be In Love - Annie Laurie - Early Girls, Vol. 4.wav

Pre-gap length 0:00:03.19

Peak level 100.0 %
Track quality 100.0 %
Copy CRC 301B2662
Accurately ripped (confidence 1) [B6743592]
Copy OK

Track 12

Filename D:\Temp\(12) The Love Of My Man - Theola Kilgore - Early Girls, Vol. 4.wav

Pre-gap length 0:00:04.51

Peak level 100.0 %
Track quality 100.0 %
Copy CRC 0E3ADD96
Accurately ripped (confidence 1) [0E76FEAB]
Copy OK

Track 13

Filename D:\Temp\(13) Don't Say Nothin' Bad (About My Baby) - The Cookies - Early Girls, Vol. 4.wav

Pre-gap length 0:00:01.34

Peak level 94.3 %
Track quality 100.0 %
Copy CRC F5E98559
Accurately ripped (confidence 1) [7FBD70AC]
Copy OK

Track 14

Filename D:\Temp\(14) The Man In The Raincoat - Priscilla Wright With Don Wright & The Septette - Early Girls, Vol. 4.wav

Pre-gap length 0:00:01.33

Peak level 100.0 %
Track quality 100.0 %
Copy CRC 44BDF49E
Accurately ripped (confidence 1) [156852E1]
Copy OK

Track 15

Filename D:\Temp\(15) Little White Lies - Betty Johnson - Early Girls, Vol. 4.wav

Pre-gap length 0:00:02.41

Peak level 98.6 %
Track quality 100.0 %
Copy CRC B151FB01
Accurately ripped (confidence 1) [E85E358B]
Copy OK

Track 16

Filename D:\Temp\(16) Daddy-O - Bonnie Lou - Early Girls, Vol. 4.wav

Pre-gap length 0:00:04.16

Peak level 100.0 %
Track quality 99.9 %
Copy CRC A735E3DE
Accurately ripped (confidence 1) [A10DCE00]
Copy OK

Track 17

Filename D:\Temp\(17) A Walkin' Miracle - The Essex Featuring Anita Humes - Early Girls, Vol. 4.wav

Pre-gap length 0:00:00.21

Peak level 100.0 %
Track quality 100.0 %
Copy CRC 669209F0
Accurately ripped (confidence 1) [E5821EB7]
Copy OK

Track 18

Filename D:\Temp\(18) My Little Marine - Jamie Horton - Early Girls, Vol. 4.wav

Pre-gap length 0:00:02.08

Peak level 100.0 %
Track quality 100.0 %
Copy CRC 8892632A
Accurately ripped (confidence 1) [0B69E7C3]
Copy OK

Track 19

Filename D:\Temp\(19) He'll Have To Stay - Jeanne Black - Early Girls, Vol. 4.wav

Pre-gap length 0:00:01.65

Peak level 100.0 %
Track quality 99.9 %
Copy CRC FBE3B5C3
Accurately ripped (confidence 1) [F39E1F5F]
Copy OK

Track 20

Filename D:\Temp\(20) Ronnie - Marcy Joe - Early Girls, Vol. 4.wav

Pre-gap length 0:00:03.73

Peak level 100.0 %
Track quality 100.0 %
Copy CRC 9ECF2A30
Accurately ripped (confidence 1) [EBBF4AA3]
Copy OK

Track 21

Filename D:\Temp\(21) Gonna Get Along Without Ya Now - Patience & Prudence - Early Girls, Vol. 4.wav

Pre-gap length 0:00:00.18

Peak level 100.0 %
Track quality 100.0 %
Copy CRC D855E943
Accurately ripped (confidence 1) [A3E39BA7]
Copy OK

Track 22

Filename D:\Temp\(22) Paper Roses - Anita Bryant - Early Girls, Vol. 4.wav

Pre-gap length 0:00:02.01

Peak level 100.0 %
Track quality 100.0 %
Copy CRC A8FB6BD7
Accurately ripped (confidence 1) [71D3FA60]
Copy OK

Track 23

Filename D:\Temp\(23) To A Soldier Boy - The Tassels - Early Girls, Vol. 4.wav

Pre-gap length 0:00:05.42

Peak level 100.0 %
Track quality 99.9 %
Copy CRC 385CCE81
Accurately ripped (confidence 1) [13480D0E]
Copy OK

Track 24

Filename D:\Temp\(24) Teenage Cleopatra - Tracey Dey - Early Girls, Vol. 4.wav

Pre-gap length 0:00:04.06

Peak level 100.0 %
Track quality 100.0 %
Copy CRC 8091CD6E
Accurately ripped (confidence 1) [6CD4DE34]
Copy OK

Track 25

Filename D:\Temp\(25) Little Tin Soldier - The Toy Dolls - Early Girls, Vol. 4.wav

Pre-gap length 0:00:01.47

Peak level 100.0 %
Track quality 100.0 %
Copy CRC CF52FCBD
Accurately ripped (confidence 1) [EF28EFC3]
Copy OK

Track 26

Filename D:\Temp\(26) This Ole House - Rosemary Clooney - Early Girls, Vol. 4.wav

Pre-gap length 0:00:02.05

Peak level 100.0 %
Track quality 99.9 %
Copy CRC 6CC6AB7D
Accurately ripped (confidence 1) [57903997]
Copy OK

Track 27

Filename D:\Temp\(27) Keep Your Hands Off My Baby - Little Eva - Early Girls, Vol. 4.wav

Pre-gap length 0:00:03.62

Peak level 100.0 %
Track quality 100.0 %
Copy CRC 644525B3
Accurately ripped (confidence 1) [1CB77E31]
Copy OK

Track 28

Filename D:\Temp\(28) I Can't Take It - Mary Ann Fisher - Early Girls, Vol. 4.wav

Pre-gap length 0:00:01.43

Peak level 93.6 %
Track quality 100.0 %
Copy CRC 9BD4116A
Accurately ripped (confidence 1) [E48802B4]
Copy OK


All tracks accurately ripped

No errors occurred

End of status report


AUDIOCHECKER v2.0 beta (build 457) - by Dester - opdester@freemail.hu
~~~~~~~~~~~~~~~~~~~~~~~~~~~~~~~~~~
-=== DO NOT EDIT THIS FILE! ===-

Path: …\Early Girls Vol 4

01 -=- (01) Dum Dum - Brenda Lee - Early Girls, Vol. 4.flac -=- CDDA (100%)
02 -=- (02) (You Don't Know) How Glad I Am - Nancy Wilson - Early Girls, Vol. 4.flac -=- CDDA (100%)
03 -=- (03) I Cried A Tear - LaVern Baker - Early Girls, Vol. 4.flac -=- CDDA (87%)
04 -=- (04) Tall Paul - Annette With The Afterbeats - Early Girls, Vol. 4.flac -=- CDDA (99%)
05 -=- (05) Sincerely - The McGuire Sisters - Early Girls, Vol. 4.flac -=- CDDA (100%)
06 -=- (06) Secret Love - Doris Day - Early Girls, Vol. 4.flac -=- CDDA (43%)
07 -=- (07) Sad Movies (Make Me Cry) - Sue Thompson - Early Girls, Vol. 4.flac -=- CDDA (100%)
08 -=- (08) Oh Why - The Teddy Bears - Early Girls, Vol. 4.flac -=- CDDA (100%)
09 -=- (09) Tammy - Debbie Reynolds - Early Girls, Vol. 4.flac -=- CDDA (100%)
10 -=- (10) Tweedle Dee - Georgia Gibbs - Early Girls, Vol. 4.flac -=- CDDA (100%)
11 -=- (11) It Hurts To Be In Love - Annie Laurie - Early Girls, Vol. 4.flac -=- CDDA (100%)
12 -=- (12) The Love Of My Man - Theola Kilgore - Early Girls, Vol. 4.flac -=- CDDA (100%)
13 -=- (13) Don't Say Nothin' Bad (About My Baby) - The Cookies - Early Girls, Vol. 4.flac -=- CDDA (100%)
14 -=- (14) The Man In The Raincoat - Priscilla Wright With Don Wright & The Septette - Early Girls, Vol. 4.flac -=- CDDA (100%)
15 -=- (15) Little White Lies - Betty Johnson - Early Girls, Vol. 4.flac -=- CDDA (100%)
16 -=- (16) Daddy-O - Bonnie Lou - Early Girls, Vol. 4.flac -=- CDDA (100%)
17 -=- (17) A Walkin' Miracle - The Essex Featuring Anita Humes - Early Girls, Vol. 4.flac -=- CDDA (100%)
18 -=- (18) My Little Marine - Jamie Horton - Early Girls, Vol. 4.flac -=- CDDA (100%)
19 -=- (19) He'll Have To Stay - Jeanne Black - Early Girls, Vol. 4.flac -=- CDDA (92%)
20 -=- (20) Ronnie - Marcy Joe - Early Girls, Vol. 4.flac -=- CDDA (100%)
21 -=- (21) Gonna Get Along Without Ya Now - Patience & Prudence - Early Girls, Vol. 4.flac -=- CDDA (100%)
22 -=- (22) Paper Roses - Anita Bryant - Early Girls, Vol. 4.flac -=- CDDA (100%)
23 -=- (23) To A Soldier Boy - The Tassels - Early Girls, Vol. 4.flac -=- CDDA (100%)
24 -=- (24) Teenage Cleopatra - Tracey Dey - Early Girls, Vol. 4.flac -=- CDDA (100%)
25 -=- (25) Little Tin Soldier - The Toy Dolls - Early Girls, Vol. 4.flac -=- CDDA (100%)
26 -=- (26) This Ole House - Rosemary Clooney - Early Girls, Vol. 4.flac -=- CDDA (100%)
27 -=- (27) Keep Your Hands Off My Baby - Little Eva - Early Girls, Vol. 4.flac -=- CDDA (100%)
28 -=- (28) I Can't Take It - Mary Ann Fisher - Early Girls, Vol. 4.flac -=- CDDA (100%)

Summary 97,18% CDDA

249453732



–––––––––––––––––––––––––––––––––––––––-


Various Artists - Early Girls, Volumes 1-5 (5 CDs Collection) Re-upload

Various Artists - Early Girls, Volume 5 (2008)
EAC-FLAC(tracks)+CUE+LOG -> 458 MB | Covers & Booklets | MP3 CBR 320 Kbps -> 160 MB
Pop / Rock & Roll / Oldies | 70:25 minutes | Label: Ace Records | Catalogue # CDCHD 1181

Another fine collection from the fanatics at Ace Records. An eclectic mix of known artists with low charted hits and some, at least to me, completely unknown ones. That said, everything on this CD is interesting. The usual great sound quality and the usual fantastic insert booklet. As with all Ace products and the Early Girls series, highly recommended.

customer's review from amazon.com

Tracklist:

01. Andrea Carroll - It Hurts To Be Sixteen
02. Cinderellas - Baby Baby (I Still Love You)
03. Patti Duke - Don't Just Stand There
04. Royalettes - Blue Summer
05. Rag Dolls - Dusty
06. Anita & Th' So-And-So's - Joey Baby
07. Sheppard Sisters - Don't Mention My Name
08. Bermudas - Donnie
09. Doris Troy - Just One Look
10. Sarah Vaughan - Broken Hearted Melody
11. Elektras - All I Want To Do Is Run
12. Patty Lace & The Petticoats - Sneaky Sue
13. Gloria Dennis - Richie
14. Cathy Carroll - Poor Little Puppet
15. Janie Black - Lonely Sixteen
16. Carol Shaw - Jimmy Boy
17. Paris Sisters - Be My Boy
18. Jo Ann Campbell - A Kookie Little Paradise
19. Four Coquettes - Sparkle And Shine
20. Sue Thompson - Paper Tiger
21. Chantels - Eternally
22. Diane Renay - Navy Blue
23. Victorians - What Makes Little Girls Cry
24. Starlets - P.S. I Love You
25. Wendy Hill - Without Your Love
26. Maureen Gray - Dancin' The Strand
27. Chiffons - Tonight's The Night
28. Tina Robin - Play It Again

Compiled by John Broven, Trevior Churchill & Peter Gibbon.

Exact Audio Copy V0.99 prebeta 4 from 23. January 2008

EAC extraction logfile from 11. August 2009, 19:45

Various Artists / Early Girls, Vol. 5

Used drive : TSSTcorpDVD+-RW TS-H653F Adapter: 4 ID: 1

Read mode : Secure
Utilize accurate stream : Yes
Defeat audio cache : Yes
Make use of C2 pointers : No

Read offset correction : 6
Overread into Lead-In and Lead-Out : No
Fill up missing offset samples with silence : Yes
Delete leading and trailing silent blocks : No
Null samples used in CRC calculations : No
Used interface : Installed external ASPI interface
Gap handling : Appended to previous track

Used output format : User Defined Encoder
Selected bitrate : 768 kBit/s
Quality : High
Add ID3 tag : No
Command line compressor : C:\Program Files\Exact Audio Copy\FLAC\FLAC.EXE
Additional command line options : -8 -V -T "ARTIST=%a" -T "TITLE=%t" -T "ALBUM=%g" -T "DATE=%y" -T "TRACKNUMBER=%n" -T "GENRE=%m" -T "COMMENT=%e" %s -o %d


TOC of the extracted CD

Track | Start | Length | Start sector | End sector
––––––––––––––––––––––––––––-
1 | 0:00.00 | 2:06.30 | 0 | 9479
2 | 2:06.30 | 2:37.09 | 9480 | 21263
3 | 4:43.39 | 2:37.41 | 21264 | 33079
4 | 7:21.05 | 3:00.05 | 33080 | 46584
5 | 10:21.10 | 2:49.27 | 46585 | 59286
6 | 13:10.37 | 2:30.46 | 59287 | 70582
7 | 15:41.08 | 2:47.46 | 70583 | 83153
8 | 18:28.54 | 2:13.48 | 83154 | 93176
9 | 20:42.27 | 2:30.56 | 93177 | 104482
10 | 23:13.08 | 2:24.54 | 104483 | 115336
11 | 25:37.62 | 2:42.49 | 115337 | 127535
12 | 28:20.36 | 2:41.68 | 127536 | 139678
13 | 31:02.29 | 2:39.29 | 139679 | 151632
14 | 33:41.58 | 2:30.48 | 151633 | 162930
15 | 36:12.31 | 2:27.16 | 162931 | 173971
16 | 38:39.47 | 2:19.04 | 173972 | 184400
17 | 40:58.51 | 1:55.67 | 184401 | 193092
18 | 42:54.43 | 2:26.05 | 193093 | 204047
19 | 45:20.48 | 1:52.68 | 204048 | 212515
20 | 47:13.41 | 2:27.09 | 212516 | 223549
21 | 49:40.50 | 2:49.21 | 223550 | 236245
22 | 52:29.71 | 2:30.23 | 236246 | 247518
23 | 55:00.19 | 2:44.10 | 247519 | 259828
24 | 57:44.29 | 2:42.06 | 259829 | 271984
25 | 60:26.35 | 2:30.63 | 271985 | 283297
26 | 62:57.23 | 3:03.03 | 283298 | 297025
27 | 66:00.26 | 1:47.54 | 297026 | 305104
28 | 67:48.05 | 2:36.46 | 305105 | 316850


Track 1

Filename D:\Temp\(01) It Hurts To Be Sixteen - Andrea Carroll - Early Girls, Vol. 5.wav

Pre-gap length 0:00:02.00

Peak level 86.9 %
Track quality 100.0 %
Copy CRC 15F46849
Accurately ripped (confidence 1) [C5C26E09]
Copy OK

Track 2

Filename D:\Temp\(02) Baby Baby (I Still Love You) - Cinderellas - Early Girls, Vol. 5.wav

Pre-gap length 0:00:01.36

Peak level 96.2 %
Track quality 100.0 %
Copy CRC 729CF3FA
Track not present in AccurateRip database
Copy OK

Track 3

Filename D:\Temp\(03) Don't Just Stand There - Patti Duke - Early Girls, Vol. 5.wav

Pre-gap length 0:00:01.58

Peak level 96.2 %
Track quality 100.0 %
Copy CRC 03B8665D
Track not present in AccurateRip database
Copy OK

Track 4

Filename D:\Temp\(04) Blue Summer - Royalettes - Early Girls, Vol. 5.wav

Pre-gap length 0:00:01.55

Peak level 98.5 %
Track quality 100.0 %
Copy CRC 8E24738B
Accurately ripped (confidence 1) [B5F25A74]
Copy OK

Track 5

Filename D:\Temp\(05) Dusty - Rag Dolls - Early Girls, Vol. 5.wav

Pre-gap length 0:00:01.56

Peak level 93.6 %
Track quality 99.9 %
Copy CRC 4FF911FA
Accurately ripped (confidence 1) [413DA50D]
Copy OK

Track 6

Filename D:\Temp\(06) Joey Baby - Anita & Th' So-And-So's - Early Girls, Vol. 5.wav

Pre-gap length 0:00:01.73

Peak level 87.9 %
Track quality 100.0 %
Copy CRC BB861735
Accurately ripped (confidence 1) [69B2A9F4]
Copy OK

Track 7

Filename D:\Temp\(07) Don't Mention My Name - Sheppard Sisters - Early Girls, Vol. 5.wav

Pre-gap length 0:00:02.50

Peak level 91.8 %
Track quality 100.0 %
Copy CRC 4249D3FB
Track not present in AccurateRip database
Copy OK

Track 8

Filename D:\Temp\(08) Donnie - Bermudas - Early Girls, Vol. 5.wav

Pre-gap length 0:00:01.68

Peak level 94.4 %
Track quality 100.0 %
Copy CRC 3D83DECF
Accurately ripped (confidence 1) [7B1106EA]
Copy OK

Track 9

Filename D:\Temp\(09) Just One Look - Doris Troy - Early Girls, Vol. 5.wav

Pre-gap length 0:00:02.15

Peak level 92.8 %
Track quality 99.9 %
Copy CRC CEB7EBAF
Accurately ripped (confidence 1) [91F61775]
Copy OK

Track 10

Filename D:\Temp\(10) Broken Hearted Melody - Sarah Vaughan - Early Girls, Vol. 5.wav

Pre-gap length 0:00:02.02

Peak level 95.9 %
Track quality 100.0 %
Copy CRC E450BCF5
Track not present in AccurateRip database
Copy OK

Track 11

Filename D:\Temp\(11) All I Want To Do Is Run - Elektras - Early Girls, Vol. 5.wav

Pre-gap length 0:00:02.04

Peak level 95.9 %
Track quality 100.0 %
Copy CRC 3C09D5E3
Track not present in AccurateRip database
Copy OK

Track 12

Filename D:\Temp\(12) Sneaky Sue - Patty Lace & The Petticoats - Early Girls, Vol. 5.wav

Pre-gap length 0:00:01.68

Peak level 96.1 %
Track quality 100.0 %
Copy CRC FA2FF0FA
Accurately ripped (confidence 1) [DC337545]
Copy OK

Track 13

Filename D:\Temp\(13) Richie - Gloria Dennis - Early Girls, Vol. 5.wav

Pre-gap length 0:00:02.38

Peak level 87.7 %
Track quality 99.9 %
Copy CRC 5466C485
Track not present in AccurateRip database
Copy OK

Track 14

Filename D:\Temp\(14) Poor Little Puppet - Cathy Carroll - Early Girls, Vol. 5.wav

Pre-gap length 0:00:02.39

Peak level 95.1 %
Track quality 100.0 %
Copy CRC AAB739B4
Track not present in AccurateRip database
Copy OK

Track 15

Filename D:\Temp\(15) Lonely Sixteen - Janie Black - Early Girls, Vol. 5.wav

Pre-gap length 0:00:02.41

Peak level 96.6 %
Track quality 100.0 %
Copy CRC 253F7798
Accurately ripped (confidence 1) [4AA55496]
Copy OK

Track 16

Filename D:\Temp\(16) Jimmy Boy - Carol Shaw - Early Girls, Vol. 5.wav

Pre-gap length 0:00:04.73

Peak level 91.2 %
Track quality 100.0 %
Copy CRC A4ADB452
Track not present in AccurateRip database
Copy OK

Track 17

Filename D:\Temp\(17) Be My Boy - Paris Sisters - Early Girls, Vol. 5.wav

Pre-gap length 0:00:01.62

Peak level 96.1 %
Track quality 99.9 %
Copy CRC D9A7648D
Track not present in AccurateRip database
Copy OK

Track 18

Filename D:\Temp\(18) A Kookie Little Paradise - Jo Ann Campbell - Early Girls, Vol. 5.wav

Pre-gap length 0:00:01.58

Peak level 92.9 %
Track quality 100.0 %
Copy CRC 86524050
Accurately ripped (confidence 1) [118D8BC2]
Copy OK

Track 19

Filename D:\Temp\(19) Sparkle And Shine - Four Coquettes - Early Girls, Vol. 5.wav

Pre-gap length 0:00:02.34

Peak level 93.0 %
Track quality 99.9 %
Copy CRC C94588B7
Accurately ripped (confidence 1) [2DA1A585]
Copy OK

Track 20

Filename D:\Temp\(20) Paper Tiger - Sue Thompson - Early Girls, Vol. 5.wav

Pre-gap length 0:00:02.14

Peak level 90.8 %
Track quality 100.0 %
Copy CRC 7A7E9A5A
Track not present in AccurateRip database
Copy OK

Track 21

Filename D:\Temp\(21) Eternally - Chantels - Early Girls, Vol. 5.wav

Pre-gap length 0:00:01.68

Peak level 96.1 %
Track quality 100.0 %
Copy CRC F9683C52
Accurately ripped (confidence 1) [5B16D38D]
Copy OK

Track 22

Filename D:\Temp\(22) Navy Blue - Diane Renay - Early Girls, Vol. 5.wav

Pre-gap length 0:00:02.02

Peak level 96.1 %
Track quality 100.0 %
Copy CRC C04409FA
Track not present in AccurateRip database
Copy OK

Track 23

Filename D:\Temp\(23) What Makes Little Girls Cry - Victorians - Early Girls, Vol. 5.wav

Pre-gap length 0:00:01.69

Peak level 96.6 %
Track quality 100.0 %
Copy CRC B9FA814D
Track not present in AccurateRip database
Copy OK

Track 24

Filename D:\Temp\(24) P.S. I Love You - Starlets - Early Girls, Vol. 5.wav

Pre-gap length 0:00:02.30

Peak level 96.6 %
Track quality 100.0 %
Copy CRC 5ACB3AD8
Accurately ripped (confidence 1) [FD8B1621]
Copy OK

Track 25

Filename D:\Temp\(25) Without Your Love - Wendy Hill - Early Girls, Vol. 5.wav

Pre-gap length 0:00:02.28

Peak level 96.4 %
Track quality 100.0 %
Copy CRC 7C0379EB
Accurately ripped (confidence 1) [D3842434]
Copy OK

Track 26

Filename D:\Temp\(26) Dancin' The Strand - Maureen Gray - Early Girls, Vol. 5.wav

Pre-gap length 0:00:08.03

Peak level 89.3 %
Track quality 100.0 %
Copy CRC B50B35D8
Accurately ripped (confidence 1) [2654B360]
Copy OK

Track 27

Filename D:\Temp\(27) Tonight's The Night - Chiffons - Early Girls, Vol. 5.wav

Pre-gap length 0:00:02.04

Peak level 92.7 %
Track quality 100.0 %
Copy CRC 30F04F91
Accurately ripped (confidence 1) [3CC7B5A7]
Copy OK

Track 28

Filename D:\Temp\(28) Play It Again - Tina Robin - Early Girls, Vol. 5.wav

Pre-gap length 0:00:02.19

Peak level 90.8 %
Track quality 100.0 %
Copy CRC 1578349E
Accurately ripped (confidence 1) [E60684FE]
Copy OK


16 track(s) accurately ripped
12 track(s) not present in the AccurateRip database

Some tracks could not be verified as accurate

No errors occurred

End of status report


AUDIOCHECKER v2.0 beta (build 457) - by Dester - opdester@freemail.hu
~~~~~~~~~~~~~~~~~~~~~~~~~~~~~~~~~~
-=== DO NOT EDIT THIS FILE! ===-

Path: …\Early Girls Vol 5

01 -=- (01) It Hurts To Be Sixteen - Andrea Carroll - Early Girls, Vol. 5.flac -=- CDDA (100%)
02 -=- (02) Baby Baby (I Still Love You) - Cinderellas - Early Girls, Vol. 5.flac -=- CDDA (100%)
03 -=- (03) Don't Just Stand There - Patti Duke - Early Girls, Vol. 5.flac -=- CDDA (100%)
04 -=- (04) Blue Summer - Royalettes - Early Girls, Vol. 5.flac -=- CDDA (100%)
05 -=- (05) Dusty - Rag Dolls - Early Girls, Vol. 5.flac -=- CDDA (100%)
06 -=- (06) Joey Baby - Anita & Th' So-And-So's - Early Girls, Vol. 5.flac -=- CDDA (100%)
07 -=- (07) Don't Mention My Name - Sheppard Sisters - Early Girls, Vol. 5.flac -=- CDDA (100%)
08 -=- (08) Donnie - Bermudas - Early Girls, Vol. 5.flac -=- CDDA (100%)
09 -=- (09) Just One Look - Doris Troy - Early Girls, Vol. 5.flac -=- CDDA (99%)
10 -=- (10) Broken Hearted Melody - Sarah Vaughan - Early Girls, Vol. 5.flac -=- CDDA (100%)
11 -=- (11) All I Want To Do Is Run - Elektras - Early Girls, Vol. 5.flac -=- CDDA (99%)
12 -=- (12) Sneaky Sue - Patty Lace & The Petticoats - Early Girls, Vol. 5.flac -=- CDDA (99%)
13 -=- (13) Richie - Gloria Dennis - Early Girls, Vol. 5.flac -=- CDDA (100%)
14 -=- (14) Poor Little Puppet - Cathy Carroll - Early Girls, Vol. 5.flac -=- CDDA (100%)
15 -=- (15) Lonely Sixteen - Janie Black - Early Girls, Vol. 5.flac -=- CDDA (100%)
16 -=- (16) Jimmy Boy - Carol Shaw - Early Girls, Vol. 5.flac -=- CDDA (100%)
17 -=- (17) Be My Boy - Paris Sisters - Early Girls, Vol. 5.flac -=- CDDA (99%)
18 -=- (18) A Kookie Little Paradise - Jo Ann Campbell - Early Girls, Vol. 5.flac -=- CDDA (99%)
19 -=- (19) Sparkle And Shine - Four Coquettes - Early Girls, Vol. 5.flac -=- CDDA (100%)
20 -=- (20) Paper Tiger - Sue Thompson - Early Girls, Vol. 5.flac -=- CDDA (100%)
21 -=- (21) Eternally - Chantels - Early Girls, Vol. 5.flac -=- CDDA (100%)
22 -=- (22) Navy Blue - Diane Renay - Early Girls, Vol. 5.flac -=- CDDA (100%)
23 -=- (23) What Makes Little Girls Cry - Victorians - Early Girls, Vol. 5.flac -=- CDDA (100%)
24 -=- (24) P.S. I Love You - Starlets - Early Girls, Vol. 5.flac -=- CDDA (100%)
25 -=- (25) Without Your Love - Wendy Hill - Early Girls, Vol. 5.flac -=- CDDA (100%)
26 -=- (26) Dancin' The Strand - Maureen Gray - Early Girls, Vol. 5.flac -=- CDDA (99%)
27 -=- (27) Tonight's The Night - Chiffons - Early Girls, Vol. 5.flac -=- CDDA (100%)
28 -=- (28) Play It Again - Tina Robin - Early Girls, Vol. 5.flac -=- CDDA (100%)

Summary 99,79% CDDA

32507268



Thanks to the original rippers!