Subcategories
Tags
Language
Tags

Echo & the Bunnymen - The John Peel Sessions 1979-1983 (2019)

Posted By: delpotro
Echo & the Bunnymen - The John Peel Sessions 1979-1983 (2019)

Echo & the Bunnymen - The John Peel Sessions 1979-1983 (2019)
EAC Rip | FLAC (tracks+log+.cue) - 499 Mb | MP3 CBR 320 kbps - 187 Mb | 01:18:30
New Wave, Post-Punk | Label: Rhino Entertainment

Echo & The Bunnymen have announced the release of The John Peel Sessions 1979-1983 via Rhino on September 6. The double album features 21 tracks recorded for John Peel’s Radio 1 show during the early years of the band’s existence.

Says The Bunnymen’s Will Sergeant: “Without John Peel sessions, Echo And The Bunnymen in my opinion, would not exist! It’s that simple. The band got so much support from him and John Walters (Peel’s producer). Recording a Peel session was essential to the development of our songwriting skills while at the same time giving us amazing exposure and self-belief.”
Tracklist:
1. Read It In Books (John Peel Session) (02:29)
2. Stars Are Stars (John Peel Session) (03:06)
3. I Bagsy Yours (John Peel Session) (02:53)
4. Villiers Terrace (John Peel Session) (04:14)
5. The Pictures On My Wall (John Peel Session) (03:06)
6. All That Jazz (John Peel Session) (02:54)
7. Over the Wall (John Peel Session) (04:49)
8. All My Colours (John Peel Session) (04:27)
9. That Golden Smile (John Peel Session) (04:26)
10. Heaven Up Here (John Peel Session) (04:45)
11. Turquoise Days (John Peel Session) (03:57)
12. Taking Advantage (John Peel Session) (04:16)
13. An Equation (John Peel Session) (03:49)
14. No Hands (John Peel Session) (03:11)
15. Silver (John Peel Session) (03:49)
16. Seven Seas (John Peel Session) (03:59)
17. The Killing Moon (John Peel Session) (03:37)
18. Nocturnal Me (John Peel Session) (04:14)
19. Watch Out Below (John Peel Session) (02:48)
20. Ocean Rain (John Peel Session) (03:49)
21. My Kingdom (John Peel Session) (03:59)

Exact Audio Copy V1.3 from 2. September 2016

EAC extraction logfile from 8. November 2020, 9:01

Echo & The Bunnymen / The John Peel Sessions 1979-1983

Used drive : PLEXTOR PX-891SAF Adapter: 1 ID: 0

Read mode : Secure
Utilize accurate stream : Yes
Defeat audio cache : Yes
Make use of C2 pointers : No

Read offset correction : 6
Overread into Lead-In and Lead-Out : No
Fill up missing offset samples with silence : Yes
Delete leading and trailing silent blocks : No
Null samples used in CRC calculations : Yes
Used interface : Native Win32 interface for Win NT & 2000
Gap handling : Appended to previous track

Used output format : User Defined Encoder
Selected bitrate : 1024 kBit/s
Quality : High
Add ID3 tag : No
Command line compressor : C:\Program Files (x86)\Exact Audio Copy\Flac\flac.exe
Additional command line options : -8 -V -T "ARTIST=%artist%" -T "TITLE=%title%" -T "ALBUM=%albumtitle%" -T "DATE=%year%" -T "TRACKNUMBER=%tracknr%" -T "GENRE=%genre%" -T "PERFORMER=%albuminterpret%" -T "COMPOSER=%composer%" %haslyrics%–tag-from-file=LYRICS="%lyricsfile%"%haslyrics% -T "ALBUMARTIST=%albumartist%" -T "DISCNUMBER=%cdnumber%" -T "TOTALDISCS=%totalcds%" -T "TOTALTRACKS=%numtracks%" -T "COMMENT=%comment%" %source% -o %dest%


TOC of the extracted CD

Track | Start | Length | Start sector | End sector
––––––––––––––––––––––––––––-
1 | 0:00.00 | 2:29.20 | 0 | 11194
2 | 2:29.20 | 3:04.60 | 11195 | 25054
3 | 5:34.05 | 2:52.12 | 25055 | 37966
4 | 8:26.17 | 4:13.03 | 37967 | 56944
5 | 12:39.20 | 3:05.71 | 56945 | 70890
6 | 15:45.16 | 2:54.34 | 70891 | 83974
7 | 18:39.50 | 4:49.17 | 83975 | 105666
8 | 23:28.67 | 4:26.64 | 105667 | 125680
9 | 27:55.56 | 4:25.36 | 125681 | 145591
10 | 32:21.17 | 4:45.05 | 145592 | 166971
11 | 37:06.22 | 3:56.51 | 166972 | 184722
12 | 41:02.73 | 4:15.29 | 184723 | 203876
13 | 45:18.27 | 3:48.70 | 203877 | 221046
14 | 49:07.22 | 3:10.00 | 221047 | 235296
15 | 52:17.22 | 3:47.72 | 235297 | 252393
16 | 56:05.19 | 3:59.42 | 252394 | 270360
17 | 60:04.61 | 3:36.26 | 270361 | 286586
18 | 63:41.12 | 4:14.27 | 286587 | 305663
19 | 67:55.39 | 2:46.52 | 305664 | 318165
20 | 70:42.16 | 3:48.66 | 318166 | 335331
21 | 74:31.07 | 3:59.21 | 335332 | 353277


Track 1

Filename D:\#EAC new\#wav+flac\#Add\Echo & The Bunnymen - The John Peel Sessions 1979-1983\01. Echo & the Bunnymen - Read It In Books.wav

Pre-gap length 0:00:02.00

Peak level 91.7 %
Extraction speed 5.2 X
Track quality 100.0 %
Test CRC D6D409D9
Copy CRC D6D409D9
Accurately ripped (confidence 7) [396988CD] (AR v2)
Copy OK

Track 2

Filename D:\#EAC new\#wav+flac\#Add\Echo & The Bunnymen - The John Peel Sessions 1979-1983\02. Echo & the Bunnymen - Stars Are Stars.wav

Peak level 91.6 %
Extraction speed 5.8 X
Track quality 100.0 %
Test CRC D5ECCC43
Copy CRC D5ECCC43
Accurately ripped (confidence 7) [469A0D5A] (AR v2)
Copy OK

Track 3

Filename D:\#EAC new\#wav+flac\#Add\Echo & The Bunnymen - The John Peel Sessions 1979-1983\03. Echo & the Bunnymen - I Bagsy Yours.wav

Peak level 91.3 %
Extraction speed 6.0 X
Track quality 100.0 %
Test CRC 3BB0116A
Copy CRC 3BB0116A
Accurately ripped (confidence 7) [9722205B] (AR v2)
Copy OK

Track 4

Filename D:\#EAC new\#wav+flac\#Add\Echo & The Bunnymen - The John Peel Sessions 1979-1983\04. Echo & the Bunnymen - Villiers Terrace.wav

Peak level 91.7 %
Extraction speed 6.8 X
Track quality 100.0 %
Test CRC C2FA5207
Copy CRC C2FA5207
Accurately ripped (confidence 7) [24BDF55D] (AR v2)
Copy OK

Track 5

Filename D:\#EAC new\#wav+flac\#Add\Echo & The Bunnymen - The John Peel Sessions 1979-1983\05. Echo & the Bunnymen - The Pictures On My Wall.wav

Peak level 91.6 %
Extraction speed 6.8 X
Track quality 100.0 %
Test CRC 5337497D
Copy CRC 5337497D
Accurately ripped (confidence 7) [BF1065FC] (AR v2)
Copy OK

Track 6

Filename D:\#EAC new\#wav+flac\#Add\Echo & The Bunnymen - The John Peel Sessions 1979-1983\06. Echo & the Bunnymen - All That Jazz.wav

Peak level 91.3 %
Extraction speed 7.0 X
Track quality 100.0 %
Test CRC 14526A5C
Copy CRC 14526A5C
Accurately ripped (confidence 7) [1E3A7E3D] (AR v2)
Copy OK

Track 7

Filename D:\#EAC new\#wav+flac\#Add\Echo & The Bunnymen - The John Peel Sessions 1979-1983\07. Echo & the Bunnymen - Over The Wall.wav

Peak level 91.4 %
Extraction speed 7.9 X
Track quality 100.0 %
Test CRC 2A516D08
Copy CRC 2A516D08
Accurately ripped (confidence 7) [FE92D928] (AR v2)
Copy OK

Track 8

Filename D:\#EAC new\#wav+flac\#Add\Echo & The Bunnymen - The John Peel Sessions 1979-1983\08. Echo & the Bunnymen - All My Colours.wav

Peak level 91.8 %
Extraction speed 8.2 X
Track quality 100.0 %
Test CRC 9CB99EE6
Copy CRC 9CB99EE6
Accurately ripped (confidence 7) [57883FD0] (AR v2)
Copy OK

Track 9

Filename D:\#EAC new\#wav+flac\#Add\Echo & The Bunnymen - The John Peel Sessions 1979-1983\09. Echo & the Bunnymen - That Golden Smile.wav

Peak level 91.3 %
Extraction speed 8.6 X
Track quality 100.0 %
Test CRC 2EF95538
Copy CRC 2EF95538
Accurately ripped (confidence 7) [B41F40A4] (AR v2)
Copy OK

Track 10

Filename D:\#EAC new\#wav+flac\#Add\Echo & The Bunnymen - The John Peel Sessions 1979-1983\10. Echo & the Bunnymen - Heaven Up Here.wav

Peak level 91.8 %
Extraction speed 9.0 X
Track quality 100.0 %
Test CRC C1B976ED
Copy CRC C1B976ED
Accurately ripped (confidence 7) [9642759C] (AR v2)
Copy OK

Track 11

Filename D:\#EAC new\#wav+flac\#Add\Echo & The Bunnymen - The John Peel Sessions 1979-1983\11. Echo & the Bunnymen - Turquoise Days.wav

Peak level 91.5 %
Extraction speed 7.6 X
Track quality 99.9 %
Test CRC E4BC9817
Copy CRC E4BC9817
Accurately ripped (confidence 7) [57A6346B] (AR v2)
Copy OK

Track 12

Filename D:\#EAC new\#wav+flac\#Add\Echo & The Bunnymen - The John Peel Sessions 1979-1983\12. Echo & the Bunnymen - Taking Advantage.wav

Peak level 91.0 %
Extraction speed 9.5 X
Track quality 100.0 %
Test CRC C966F868
Copy CRC C966F868
Accurately ripped (confidence 7) [82864212] (AR v2)
Copy OK

Track 13

Filename D:\#EAC new\#wav+flac\#Add\Echo & The Bunnymen - The John Peel Sessions 1979-1983\13. Echo & the Bunnymen - An Equation.wav

Peak level 91.3 %
Extraction speed 9.6 X
Track quality 100.0 %
Test CRC EC4DF1D8
Copy CRC EC4DF1D8
Accurately ripped (confidence 7) [83BBD93D] (AR v2)
Copy OK

Track 14

Filename D:\#EAC new\#wav+flac\#Add\Echo & The Bunnymen - The John Peel Sessions 1979-1983\14. Echo & the Bunnymen - No Hands.wav

Peak level 91.2 %
Extraction speed 9.7 X
Track quality 100.0 %
Test CRC E952DAB9
Copy CRC E952DAB9
Accurately ripped (confidence 7) [F8F531EA] (AR v2)
Copy OK

Track 15

Filename D:\#EAC new\#wav+flac\#Add\Echo & The Bunnymen - The John Peel Sessions 1979-1983\15. Echo & the Bunnymen - Silver.wav

Peak level 78.9 %
Extraction speed 10.1 X
Track quality 100.0 %
Test CRC 25DA6FC1
Copy CRC 25DA6FC1
Accurately ripped (confidence 7) [F480C144] (AR v2)
Copy OK

Track 16

Filename D:\#EAC new\#wav+flac\#Add\Echo & The Bunnymen - The John Peel Sessions 1979-1983\16. Echo & the Bunnymen - Seven Seas.wav

Peak level 90.3 %
Extraction speed 10.3 X
Track quality 100.0 %
Test CRC 6B92D01D
Copy CRC 6B92D01D
Accurately ripped (confidence 7) [76360264] (AR v2)
Copy OK

Track 17

Filename D:\#EAC new\#wav+flac\#Add\Echo & The Bunnymen - The John Peel Sessions 1979-1983\17. Echo & the Bunnymen - The Killing Moon.wav

Peak level 91.2 %
Extraction speed 10.4 X
Track quality 100.0 %
Test CRC E987A4E1
Copy CRC E987A4E1
Accurately ripped (confidence 7) [26FDD712] (AR v2)
Copy OK

Track 18

Filename D:\#EAC new\#wav+flac\#Add\Echo & The Bunnymen - The John Peel Sessions 1979-1983\18. Echo & the Bunnymen - Nocturnal Me.wav

Peak level 91.7 %
Extraction speed 10.9 X
Track quality 100.0 %
Test CRC DCDE3EEE
Copy CRC DCDE3EEE
Accurately ripped (confidence 7) [674BC0D7] (AR v2)
Copy OK

Track 19

Filename D:\#EAC new\#wav+flac\#Add\Echo & The Bunnymen - The John Peel Sessions 1979-1983\19. Echo & the Bunnymen - Watch Out Below.wav

Peak level 91.6 %
Extraction speed 10.3 X
Track quality 100.0 %
Test CRC D83510EC
Copy CRC D83510EC
Accurately ripped (confidence 7) [A2BF0F3F] (AR v2)
Copy OK

Track 20

Filename D:\#EAC new\#wav+flac\#Add\Echo & The Bunnymen - The John Peel Sessions 1979-1983\20. Echo & the Bunnymen - Ocean Rain.wav

Peak level 91.5 %
Extraction speed 11.1 X
Track quality 100.0 %
Test CRC BA3D08EE
Copy CRC BA3D08EE
Accurately ripped (confidence 7) [04AF7A61] (AR v2)
Copy OK

Track 21

Filename D:\#EAC new\#wav+flac\#Add\Echo & The Bunnymen - The John Peel Sessions 1979-1983\21. Echo & the Bunnymen - My Kingdom.wav

Peak level 91.9 %
Extraction speed 11.2 X
Track quality 100.0 %
Test CRC 41CE9FB3
Copy CRC 41CE9FB3
Accurately ripped (confidence 7) [451C89B6] (AR v2)
Copy OK


All tracks accurately ripped

No errors occurred

End of status report

–– CUETools DB Plugin V2.1.6

[CTDB TOCID: jKVj0Qy5_6yXt9E3628eDhcJNfw-] found
Submit result: jKVj0Qy5_6yXt9E3628eDhcJNfw- has been confirmed
Track | CTDB Status
1 | (38/38) Accurately ripped
2 | (38/38) Accurately ripped
3 | (38/38) Accurately ripped
4 | (38/38) Accurately ripped
5 | (38/38) Accurately ripped
6 | (38/38) Accurately ripped
7 | (38/38) Accurately ripped
8 | (38/38) Accurately ripped
9 | (38/38) Accurately ripped
10 | (38/38) Accurately ripped
11 | (38/38) Accurately ripped
12 | (38/38) Accurately ripped
13 | (38/38) Accurately ripped
14 | (38/38) Accurately ripped
15 | (38/38) Accurately ripped
16 | (38/38) Accurately ripped
17 | (38/38) Accurately ripped
18 | (38/38) Accurately ripped
19 | (38/38) Accurately ripped
20 | (38/38) Accurately ripped
21 | (38/38) Accurately ripped


==== Log checksum E74370809891FD931256A4DE5D3E17A165FF7625BDC15DBA949808E86CD76CB4 ====

––––––––––––––––––––––––––––––

Exact Audio Copy V1.3 from 2. September 2016

EAC extraction logfile from 8. November 2020, 9:01

Echo & The Bunnymen / The John Peel Sessions 1979-1983

Used drive : PLEXTOR PX-891SAF Adapter: 1 ID: 0

Read mode : Secure
Utilize accurate stream : Yes
Defeat audio cache : Yes
Make use of C2 pointers : No

Read offset correction : 6
Overread into Lead-In and Lead-Out : No
Fill up missing offset samples with silence : Yes
Delete leading and trailing silent blocks : No
Null samples used in CRC calculations : Yes
Used interface : Native Win32 interface for Win NT & 2000
Gap handling : Appended to previous track

Used output format : User Defined Encoder
Selected bitrate : 1024 kBit/s
Quality : High
Add ID3 tag : No
Command line compressor : C:\Program Files (x86)\Exact Audio Copy\Flac\flac.exe
Additional command line options : -8 -V -T "ARTIST=%artist%" -T "TITLE=%title%" -T "ALBUM=%albumtitle%" -T "DATE=%year%" -T "TRACKNUMBER=%tracknr%" -T "GENRE=%genre%" -T "PERFORMER=%albuminterpret%" -T "COMPOSER=%composer%" %haslyrics%–tag-from-file=LYRICS="%lyricsfile%"%haslyrics% -T "ALBUMARTIST=%albumartist%" -T "DISCNUMBER=%cdnumber%" -T "TOTALDISCS=%totalcds%" -T "TOTALTRACKS=%numtracks%" -T "COMMENT=%comment%" %source% -o %dest%


TOC of the extracted CD

Track | Start | Length | Start sector | End sector
––––––––––––––––––––––––––––-
1 | 0:00.00 | 2:29.20 | 0 | 11194
2 | 2:29.20 | 3:04.60 | 11195 | 25054
3 | 5:34.05 | 2:52.12 | 25055 | 37966
4 | 8:26.17 | 4:13.03 | 37967 | 56944
5 | 12:39.20 | 3:05.71 | 56945 | 70890
6 | 15:45.16 | 2:54.34 | 70891 | 83974
7 | 18:39.50 | 4:49.17 | 83975 | 105666
8 | 23:28.67 | 4:26.64 | 105667 | 125680
9 | 27:55.56 | 4:25.36 | 125681 | 145591
10 | 32:21.17 | 4:45.05 | 145592 | 166971
11 | 37:06.22 | 3:56.51 | 166972 | 184722
12 | 41:02.73 | 4:15.29 | 184723 | 203876
13 | 45:18.27 | 3:48.70 | 203877 | 221046
14 | 49:07.22 | 3:10.00 | 221047 | 235296
15 | 52:17.22 | 3:47.72 | 235297 | 252393
16 | 56:05.19 | 3:59.42 | 252394 | 270360
17 | 60:04.61 | 3:36.26 | 270361 | 286586
18 | 63:41.12 | 4:14.27 | 286587 | 305663
19 | 67:55.39 | 2:46.52 | 305664 | 318165
20 | 70:42.16 | 3:48.66 | 318166 | 335331
21 | 74:31.07 | 3:59.21 | 335332 | 353277


Track 1

Filename D:\#EAC new\#wav+flac\#Add\Echo & The Bunnymen - The John Peel Sessions 1979-1983\01. Echo & the Bunnymen - Read It In Books.wav

Pre-gap length 0:00:02.00

Peak level 91.7 %
Extraction speed 5.2 X
Track quality 100.0 %
Test CRC D6D409D9
Copy CRC D6D409D9
Accurately ripped (confidence 7) [396988CD] (AR v2)
Copy OK

Track 2

Filename D:\#EAC new\#wav+flac\#Add\Echo & The Bunnymen - The John Peel Sessions 1979-1983\02. Echo & the Bunnymen - Stars Are Stars.wav

Peak level 91.6 %
Extraction speed 5.8 X
Track quality 100.0 %
Test CRC D5ECCC43
Copy CRC D5ECCC43
Accurately ripped (confidence 7) [469A0D5A] (AR v2)
Copy OK

Track 3

Filename D:\#EAC new\#wav+flac\#Add\Echo & The Bunnymen - The John Peel Sessions 1979-1983\03. Echo & the Bunnymen - I Bagsy Yours.wav

Peak level 91.3 %
Extraction speed 6.0 X
Track quality 100.0 %
Test CRC 3BB0116A
Copy CRC 3BB0116A
Accurately ripped (confidence 7) [9722205B] (AR v2)
Copy OK

Track 4

Filename D:\#EAC new\#wav+flac\#Add\Echo & The Bunnymen - The John Peel Sessions 1979-1983\04. Echo & the Bunnymen - Villiers Terrace.wav

Peak level 91.7 %
Extraction speed 6.8 X
Track quality 100.0 %
Test CRC C2FA5207
Copy CRC C2FA5207
Accurately ripped (confidence 7) [24BDF55D] (AR v2)
Copy OK

Track 5

Filename D:\#EAC new\#wav+flac\#Add\Echo & The Bunnymen - The John Peel Sessions 1979-1983\05. Echo & the Bunnymen - The Pictures On My Wall.wav

Peak level 91.6 %
Extraction speed 6.8 X
Track quality 100.0 %
Test CRC 5337497D
Copy CRC 5337497D
Accurately ripped (confidence 7) [BF1065FC] (AR v2)
Copy OK

Track 6

Filename D:\#EAC new\#wav+flac\#Add\Echo & The Bunnymen - The John Peel Sessions 1979-1983\06. Echo & the Bunnymen - All That Jazz.wav

Peak level 91.3 %
Extraction speed 7.0 X
Track quality 100.0 %
Test CRC 14526A5C
Copy CRC 14526A5C
Accurately ripped (confidence 7) [1E3A7E3D] (AR v2)
Copy OK

Track 7

Filename D:\#EAC new\#wav+flac\#Add\Echo & The Bunnymen - The John Peel Sessions 1979-1983\07. Echo & the Bunnymen - Over The Wall.wav

Peak level 91.4 %
Extraction speed 7.9 X
Track quality 100.0 %
Test CRC 2A516D08
Copy CRC 2A516D08
Accurately ripped (confidence 7) [FE92D928] (AR v2)
Copy OK

Track 8

Filename D:\#EAC new\#wav+flac\#Add\Echo & The Bunnymen - The John Peel Sessions 1979-1983\08. Echo & the Bunnymen - All My Colours.wav

Peak level 91.8 %
Extraction speed 8.2 X
Track quality 100.0 %
Test CRC 9CB99EE6
Copy CRC 9CB99EE6
Accurately ripped (confidence 7) [57883FD0] (AR v2)
Copy OK

Track 9

Filename D:\#EAC new\#wav+flac\#Add\Echo & The Bunnymen - The John Peel Sessions 1979-1983\09. Echo & the Bunnymen - That Golden Smile.wav

Peak level 91.3 %
Extraction speed 8.6 X
Track quality 100.0 %
Test CRC 2EF95538
Copy CRC 2EF95538
Accurately ripped (confidence 7) [B41F40A4] (AR v2)
Copy OK

Track 10

Filename D:\#EAC new\#wav+flac\#Add\Echo & The Bunnymen - The John Peel Sessions 1979-1983\10. Echo & the Bunnymen - Heaven Up Here.wav

Peak level 91.8 %
Extraction speed 9.0 X
Track quality 100.0 %
Test CRC C1B976ED
Copy CRC C1B976ED
Accurately ripped (confidence 7) [9642759C] (AR v2)
Copy OK

Track 11

Filename D:\#EAC new\#wav+flac\#Add\Echo & The Bunnymen - The John Peel Sessions 1979-1983\11. Echo & the Bunnymen - Turquoise Days.wav

Peak level 91.5 %
Extraction speed 7.6 X
Track quality 99.9 %
Test CRC E4BC9817
Copy CRC E4BC9817
Accurately ripped (confidence 7) [57A6346B] (AR v2)
Copy OK

Track 12

Filename D:\#EAC new\#wav+flac\#Add\Echo & The Bunnymen - The John Peel Sessions 1979-1983\12. Echo & the Bunnymen - Taking Advantage.wav

Peak level 91.0 %
Extraction speed 9.5 X
Track quality 100.0 %
Test CRC C966F868
Copy CRC C966F868
Accurately ripped (confidence 7) [82864212] (AR v2)
Copy OK

Track 13

Filename D:\#EAC new\#wav+flac\#Add\Echo & The Bunnymen - The John Peel Sessions 1979-1983\13. Echo & the Bunnymen - An Equation.wav

Peak level 91.3 %
Extraction speed 9.6 X
Track quality 100.0 %
Test CRC EC4DF1D8
Copy CRC EC4DF1D8
Accurately ripped (confidence 7) [83BBD93D] (AR v2)
Copy OK

Track 14

Filename D:\#EAC new\#wav+flac\#Add\Echo & The Bunnymen - The John Peel Sessions 1979-1983\14. Echo & the Bunnymen - No Hands.wav

Peak level 91.2 %
Extraction speed 9.7 X
Track quality 100.0 %
Test CRC E952DAB9
Copy CRC E952DAB9
Accurately ripped (confidence 7) [F8F531EA] (AR v2)
Copy OK

Track 15

Filename D:\#EAC new\#wav+flac\#Add\Echo & The Bunnymen - The John Peel Sessions 1979-1983\15. Echo & the Bunnymen - Silver.wav

Peak level 78.9 %
Extraction speed 10.1 X
Track quality 100.0 %
Test CRC 25DA6FC1
Copy CRC 25DA6FC1
Accurately ripped (confidence 7) [F480C144] (AR v2)
Copy OK

Track 16

Filename D:\#EAC new\#wav+flac\#Add\Echo & The Bunnymen - The John Peel Sessions 1979-1983\16. Echo & the Bunnymen - Seven Seas.wav

Peak level 90.3 %
Extraction speed 10.3 X
Track quality 100.0 %
Test CRC 6B92D01D
Copy CRC 6B92D01D
Accurately ripped (confidence 7) [76360264] (AR v2)
Copy OK

Track 17

Filename D:\#EAC new\#wav+flac\#Add\Echo & The Bunnymen - The John Peel Sessions 1979-1983\17. Echo & the Bunnymen - The Killing Moon.wav

Peak level 91.2 %
Extraction speed 10.4 X
Track quality 100.0 %
Test CRC E987A4E1
Copy CRC E987A4E1
Accurately ripped (confidence 7) [26FDD712] (AR v2)
Copy OK

Track 18

Filename D:\#EAC new\#wav+flac\#Add\Echo & The Bunnymen - The John Peel Sessions 1979-1983\18. Echo & the Bunnymen - Nocturnal Me.wav

Peak level 91.7 %
Extraction speed 10.9 X
Track quality 100.0 %
Test CRC DCDE3EEE
Copy CRC DCDE3EEE
Accurately ripped (confidence 7) [674BC0D7] (AR v2)
Copy OK

Track 19

Filename D:\#EAC new\#wav+flac\#Add\Echo & The Bunnymen - The John Peel Sessions 1979-1983\19. Echo & the Bunnymen - Watch Out Below.wav

Peak level 91.6 %
Extraction speed 10.3 X
Track quality 100.0 %
Test CRC D83510EC
Copy CRC D83510EC
Accurately ripped (confidence 7) [A2BF0F3F] (AR v2)
Copy OK

Track 20

Filename D:\#EAC new\#wav+flac\#Add\Echo & The Bunnymen - The John Peel Sessions 1979-1983\20. Echo & the Bunnymen - Ocean Rain.wav

Peak level 91.5 %
Extraction speed 11.1 X
Track quality 100.0 %
Test CRC BA3D08EE
Copy CRC BA3D08EE
Accurately ripped (confidence 7) [04AF7A61] (AR v2)
Copy OK

Track 21

Filename D:\#EAC new\#wav+flac\#Add\Echo & The Bunnymen - The John Peel Sessions 1979-1983\21. Echo & the Bunnymen - My Kingdom.wav

Peak level 91.9 %
Extraction speed 11.2 X
Track quality 100.0 %
Test CRC 41CE9FB3
Copy CRC 41CE9FB3
Accurately ripped (confidence 7) [451C89B6] (AR v2)
Copy OK


All tracks accurately ripped

No errors occurred

End of status report

–– CUETools DB Plugin V2.1.6

[CTDB TOCID: jKVj0Qy5_6yXt9E3628eDhcJNfw-] found
Submit result: jKVj0Qy5_6yXt9E3628eDhcJNfw- has been confirmed
Track | CTDB Status
1 | (38/38) Accurately ripped
2 | (38/38) Accurately ripped
3 | (38/38) Accurately ripped
4 | (38/38) Accurately ripped
5 | (38/38) Accurately ripped
6 | (38/38) Accurately ripped
7 | (38/38) Accurately ripped
8 | (38/38) Accurately ripped
9 | (38/38) Accurately ripped
10 | (38/38) Accurately ripped
11 | (38/38) Accurately ripped
12 | (38/38) Accurately ripped
13 | (38/38) Accurately ripped
14 | (38/38) Accurately ripped
15 | (38/38) Accurately ripped
16 | (38/38) Accurately ripped
17 | (38/38) Accurately ripped
18 | (38/38) Accurately ripped
19 | (38/38) Accurately ripped
20 | (38/38) Accurately ripped
21 | (38/38) Accurately ripped


==== Log checksum E74370809891FD931256A4DE5D3E17A165FF7625BDC15DBA949808E86CD76CB4 ====

Thanks to the Original ripper !