Subcategories

Eddie Duran - Jazz Guitarist: Modern Music From San Francisco (2017) {Fresh Sound FSR-CD 924 rec 1955-1957}

Posted By: ruskaval
Eddie Duran - Jazz Guitarist: Modern Music From San Francisco (2017) {Fresh Sound FSR-CD 924 rec 1955-1957}

Eddie Duran - Jazz Guitarist: Modern Music From San Francisco (2017) {Fresh Sound FSR-CD 924 rec 1955-1957}
EAC rip (secure mode) | FLAC (tracks)+CUE+LOG -> 281 Mb | MP3 @320 -> 151 Mb
Full Artwork @ 600 dpi (jpg) -> 143 Mb | 5% repair rar
© 1955-57, 2017 Fantasy / Jazz Records / Fresh Sound Records | FSR-CD 924
Jazz / Cool / Bebop / Guitar

Born in San Francisco in 1925, Eddie Duran is an unfairly neglected jazz guitarist and a soloist full of imagination and heart who was already playing professionally at 15. To this day he considers himself an “ear player,” despite having played and recorded with Vince Guaraldi, Red Norvo, Cal Tjader, Charlie Parker, Stan Getz, George Shearing, Earl “Fatha” Hines and Benny Goodman, in the heyday of the San Francisco bebop scene.

Duran was 32 when he recorded Jazz Guitarist, his first album as a leader in 1957. His sound and approach were deeply rooted in the bebop tradition, with echoes of Tal Farlow. With Duran on this debut was Howard Dudune—a cleantoned young clarinetist and Getz-derived tenor saxophonist—with support from bassist Dean Reilly and drummer John Markham.

Completing this salute to a fine guitarist is a 1956 date where he and Reilly backed singer Ree Brunell on a relaxed stroll through four well-chosen standards, along with a 1955 trio session with Ron Crotty and Vince Guaraldi. Crotty was a part of Dave Brubeck’s early groups, while Guaraldi was one of the brightest young pianists of the local scene, and the trio produced some relaxed and swinging jazz.

San Francisco emerged in early 50s as one of the most important centres of jazz activity in the US and the musicians playing in these three sessions are a fine example of what the city had to offer.

Personnel on "Jazz Guitarist":
Eddie Duran Quartet
Howard Dudune, clarinet & tenor sax; Eddie Duran, guitar; Dean Reilly, bass; John Markham, drums.
Recorded in San Francisco, 1955

Personnel on "Intro to Jazz":
Ree Brunell Trio
Ree Brunell, vocals; Eddie Duran, guitar; Dean Reilly, bass.
Recorded in San Francisco, 1956

Personnel on "Modern Music from San Francisco":
Ron Crotty Trio
Vince Guaraldi, piano & celeste; Eddie Duran, guitar; Ron Crotty, bass.
Recorded in San Francisco, 1957

Liner notes: Ralph J. Gleason & Jordi Pujol
Original recordings produced by Max Weiss (#1-10) and Pat Henry (#11-14)
Compiled for CD release by Jordi Pujol

Hi Fi / Mono · 24-Bit Digitally Remastered


Tracklisting:
01. My Inspiration (Haggart-Lamare) 3:27
02. Soon (G. & I. Gershwin) 4:10
03. Rise ‘n Shine (Youmans-DeSylva) 3:39
04. My Shining Hour (Arlen-Mercer) 2:53
05. Taking Life Easy (Eddie Duran) 4:36
06. Why Not? (Neal Hefti) 3:33
07. A Room with a View (Noel Coward) 5:00
08. Skyliner (Charlie Barnet) 3:48
09. It Could Happen to You (Van Heusen-Burke) 2:52
10. Sugar (Pinkard-Mitchell-Alexander) 3:54
11. I’m Glad There Is You (Dorsey-Madeira) 2:50
12. You Turned the Tables On Me (Alter-Mitchell) 2:10
13. When I Fall in Love (Young-Heyman) 3:03
14. Falling in Love with Love (Rodgers-Hart) 2:00
15. Ginza (Vince Guaraldi) 4:07
16. The Night We Called It a Day (Dennis-Adair) 3:48
17. The Masquerade Is Over (Magidson-Wrubel) 6:32

Sources:
Tracks #1-10, from the Eddie Duran LP “Jazz Guitarist” (Fantasy LP 3247)
Tracks # 11-14, from the LP “Intro to Jazz” (San Francisco Jazz Records JR-1)
Tracks #15-17, from the LP “Modern Music from San Francisco” (Fantasy LP 3213)


Exact Audio Copy V1.1 from 23. June 2015

EAC extraction logfile from 1. April 2017, 16:58

Eddie Duran / Jazz Guitarist: Modern Music From San Francisco

Used drive : TSSTcorpCDDVDW SE-208DB Adapter: 1 ID: 2

Read mode : Secure
Utilize accurate stream : Yes
Defeat audio cache : Yes
Make use of C2 pointers : No

Read offset correction : 6
Overread into Lead-In and Lead-Out : No
Fill up missing offset samples with silence : Yes
Delete leading and trailing silent blocks : No
Null samples used in CRC calculations : Yes
Used interface : Native Win32 interface for Win NT & 2000
Gap handling : Appended to previous track

Used output format : User Defined Encoder
Selected bitrate : 1024 kBit/s
Quality : High
Add ID3 tag : No
Command line compressor : C:\Program Files (x86)\FLAC Frontend\tools\flac.exe
Additional command line options : -8 -V -T "ARTIST=%artist%" -T "TITLE=%title%" -T "ALBUM=%albumtitle%" -T "DATE=%year%" -T "TRACKNUMBER=%tracknr%" -T "TOTALTRACKS=%numtracks%" -T "GENRE=%genre%" -T "ALBUMARTIST=%albumartist%" -T "ALBUM ARTIST=%albumartist%" -T "COMMENT=EAC Secure Mode, Test & Copy, AccurateRip, FLAC -8" %source%


TOC of the extracted CD

Track | Start | Length | Start sector | End sector
––––––––––––––––––––––––––––-
1 | 0:00.00 | 3:29.21 | 0 | 15695
2 | 3:29.21 | 4:13.20 | 15696 | 34690
3 | 7:42.41 | 3:40.57 | 34691 | 51247
4 | 11:23.23 | 2:57.72 | 51248 | 64594
5 | 14:21.20 | 4:40.06 | 64595 | 85600
6 | 19:01.26 | 3:36.70 | 85601 | 101870
7 | 22:38.21 | 5:03.40 | 101871 | 124635
8 | 27:41.61 | 3:52.02 | 124636 | 142037
9 | 31:33.63 | 2:55.09 | 142038 | 155171
10 | 34:28.72 | 3:56.68 | 155172 | 172939
11 | 38:25.65 | 2:53.19 | 172940 | 185933
12 | 41:19.09 | 2:13.03 | 185934 | 195911
13 | 43:32.12 | 3:04.29 | 195912 | 209740
14 | 46:36.41 | 2:02.56 | 209741 | 218946
15 | 48:39.22 | 4:11.41 | 218947 | 237812
16 | 52:50.63 | 3:51.53 | 237813 | 255190
17 | 56:42.41 | 6:33.29 | 255191 | 284694


Track 1

Filename D:\_EAC\Eddie Duran - Jazz Guitarist (2017) [FLAC] {Fresh Sound FSR-CD 924 rec 1955-1957}\01 - My Inspiration.wav

Pre-gap length 0:00:02.00

Peak level 98.7 %
Extraction speed 2.7 X
Track quality 100.0 %
Test CRC AE5A39AA
Copy CRC AE5A39AA
Track not present in AccurateRip database
Copy OK

Track 2

Filename D:\_EAC\Eddie Duran - Jazz Guitarist (2017) [FLAC] {Fresh Sound FSR-CD 924 rec 1955-1957}\02 - Soon.wav

Peak level 88.1 %
Extraction speed 2.6 X
Track quality 99.9 %
Test CRC F9CD033D
Copy CRC F9CD033D
Track not present in AccurateRip database
Copy OK

Track 3

Filename D:\_EAC\Eddie Duran - Jazz Guitarist (2017) [FLAC] {Fresh Sound FSR-CD 924 rec 1955-1957}\03 - Rise 'n Shine.wav

Peak level 97.7 %
Extraction speed 2.7 X
Track quality 99.9 %
Test CRC 2ED7BE3F
Copy CRC 2ED7BE3F
Track not present in AccurateRip database
Copy OK

Track 4

Filename D:\_EAC\Eddie Duran - Jazz Guitarist (2017) [FLAC] {Fresh Sound FSR-CD 924 rec 1955-1957}\04 - My Shining Hour.wav

Peak level 97.6 %
Extraction speed 2.7 X
Track quality 99.9 %
Test CRC 8EAAF203
Copy CRC 8EAAF203
Track not present in AccurateRip database
Copy OK

Track 5

Filename D:\_EAC\Eddie Duran - Jazz Guitarist (2017) [FLAC] {Fresh Sound FSR-CD 924 rec 1955-1957}\05 - Taking Life Easy.wav

Peak level 76.9 %
Extraction speed 3.9 X
Track quality 100.0 %
Test CRC 28B3F076
Copy CRC 28B3F076
Track not present in AccurateRip database
Copy OK

Track 6

Filename D:\_EAC\Eddie Duran - Jazz Guitarist (2017) [FLAC] {Fresh Sound FSR-CD 924 rec 1955-1957}\06 - Why Not_.wav

Peak level 98.8 %
Extraction speed 4.0 X
Track quality 100.0 %
Test CRC 45D6EBC5
Copy CRC 45D6EBC5
Track not present in AccurateRip database
Copy OK

Track 7

Filename D:\_EAC\Eddie Duran - Jazz Guitarist (2017) [FLAC] {Fresh Sound FSR-CD 924 rec 1955-1957}\07 - A Room With A View.wav

Peak level 93.3 %
Extraction speed 4.4 X
Track quality 100.0 %
Test CRC 7F218B13
Copy CRC 7F218B13
Track not present in AccurateRip database
Copy OK

Track 8

Filename D:\_EAC\Eddie Duran - Jazz Guitarist (2017) [FLAC] {Fresh Sound FSR-CD 924 rec 1955-1957}\08 - Skyliner.wav

Peak level 98.3 %
Extraction speed 4.4 X
Track quality 100.0 %
Test CRC DD7349B5
Copy CRC DD7349B5
Track not present in AccurateRip database
Copy OK

Track 9

Filename D:\_EAC\Eddie Duran - Jazz Guitarist (2017) [FLAC] {Fresh Sound FSR-CD 924 rec 1955-1957}\09 - It Could Happen To You.wav

Peak level 86.7 %
Extraction speed 4.3 X
Track quality 100.0 %
Test CRC 4F8C541C
Copy CRC 4F8C541C
Track not present in AccurateRip database
Copy OK

Track 10

Filename D:\_EAC\Eddie Duran - Jazz Guitarist (2017) [FLAC] {Fresh Sound FSR-CD 924 rec 1955-1957}\10 - Sugar.wav

Peak level 98.8 %
Extraction speed 4.7 X
Track quality 100.0 %
Test CRC 81F21F55
Copy CRC 81F21F55
Track not present in AccurateRip database
Copy OK

Track 11

Filename D:\_EAC\Eddie Duran - Jazz Guitarist (2017) [FLAC] {Fresh Sound FSR-CD 924 rec 1955-1957}\11 - I'm Glad There Is You.wav

Peak level 90.3 %
Extraction speed 3.4 X
Track quality 99.9 %
Test CRC 7EFC4E91
Copy CRC 7EFC4E91
Track not present in AccurateRip database
Copy OK

Track 12

Filename D:\_EAC\Eddie Duran - Jazz Guitarist (2017) [FLAC] {Fresh Sound FSR-CD 924 rec 1955-1957}\12 - You Turned The Tables On Me.wav

Peak level 92.7 %
Extraction speed 4.4 X
Track quality 100.0 %
Test CRC D9433790
Copy CRC D9433790
Track not present in AccurateRip database
Copy OK

Track 13

Filename D:\_EAC\Eddie Duran - Jazz Guitarist (2017) [FLAC] {Fresh Sound FSR-CD 924 rec 1955-1957}\13 - When I Fall In Love.wav

Peak level 81.3 %
Extraction speed 4.8 X
Track quality 100.0 %
Test CRC E4A9F999
Copy CRC E4A9F999
Track not present in AccurateRip database
Copy OK

Track 14

Filename D:\_EAC\Eddie Duran - Jazz Guitarist (2017) [FLAC] {Fresh Sound FSR-CD 924 rec 1955-1957}\14 - Falling In Love With Love.wav

Peak level 74.4 %
Extraction speed 4.5 X
Track quality 100.0 %
Test CRC D2582728
Copy CRC D2582728
Track not present in AccurateRip database
Copy OK

Track 15

Filename D:\_EAC\Eddie Duran - Jazz Guitarist (2017) [FLAC] {Fresh Sound FSR-CD 924 rec 1955-1957}\15 - Ginza.wav

Peak level 84.1 %
Extraction speed 5.3 X
Track quality 100.0 %
Test CRC 3DC35416
Copy CRC 3DC35416
Track not present in AccurateRip database
Copy OK

Track 16

Filename D:\_EAC\Eddie Duran - Jazz Guitarist (2017) [FLAC] {Fresh Sound FSR-CD 924 rec 1955-1957}\16 - The Night We Called It A Day.wav

Peak level 85.1 %
Extraction speed 4.2 X
Track quality 99.9 %
Test CRC 1542CA83
Copy CRC 1542CA83
Track not present in AccurateRip database
Copy OK

Track 17

Filename D:\_EAC\Eddie Duran - Jazz Guitarist (2017) [FLAC] {Fresh Sound FSR-CD 924 rec 1955-1957}\17 - The Masquerade Is Over.wav

Peak level 97.7 %
Extraction speed 5.0 X
Track quality 99.9 %
Test CRC F4F97A64
Copy CRC F4F97A64
Track not present in AccurateRip database
Copy OK


None of the tracks are present in the AccurateRip database

No errors occurred

End of status report

==== Log checksum 62CE1D1A7EBB7388115DC32D795A328B63A4A4D8DF34DA3393F0D3D7A625E2B0 ====


Eddie Duran - Jazz Guitarist: Modern Music From San Francisco (2017) {Fresh Sound FSR-CD 924 rec 1955-1957}

Eddie Duran - Jazz Guitarist: Modern Music From San Francisco (2017) {Fresh Sound FSR-CD 924 rec 1955-1957}


thanks to 0xxa…


===