Subcategories

Edgar Fruitier & Marc Ouellet & Various Artists - Les Grands Classiques d'Edgar: La Musique Sacrée (2010)

Posted By: delpotro
Edgar Fruitier & Marc Ouellet & Various Artists - Les Grands Classiques d'Edgar: La Musique Sacrée (2010)

Edgar Fruitier & Marc Ouellet & Various Artists - Les Grands Classiques d'Edgar: La Musique Sacrée (2010)
EAC Rip | FLAC (tracks+log+.cue) | 06:25:17 | 1,5 Gb
Classical, Sacred | Label: Octave Productions

A collaboration between Edgar Fruitier, classical music expert and collector, Cardinal Jean-Claude Turcotte and Cardinal Marc Ouellet, this 6 CD collection of sacred music is a classical's music lover's dream.
Tracklist:
CD1
01 - Johann Sebastian Bach - Cantate - BWV 147. Choral: Jesu bleibet mein Freude
02 - Giovanni Battista Pergolesi - Stabat Mater - Stabat Mater
03 - Dom André Laberge - Orgue I
04 - Anton Bruckner - Messe en mi mineur pour choeur à 8 voix et ensemble d'instruments à vent - Kyrie
05 - Johann Sebastian Bach - Cantate 82 - Ich habe genug!
06 - Thomas Tallis - O nata lux de lumine
07 - Giovanni Gabrieli - Exaudi me Domine
08 - Antonín Dvořák - Requiem - Pie Jesu
09 - Henry Purcell - Ode on Saint Cecilia's Day, Welcome to All the Pleasures - Z. 339. Overture
10 - Wolfgang Amadeus Mozart - Requiem - Lacrimosa
11 - Thomas Tallis - Salvator mundi Domine
12 - Antonio Vivaldi - Gloria en do majeur - RV 589. Et in terra pax
13 - Felix Mendelssohn - Elijah - O Rest in The Lord
14 - Dextera Domine
15 - Charles Gounod - Le ciel a visité la terre

CD2
01 - Théodore Dubois - Les Sept Paroles du Christ - Intro
02 - Maurice Duruflé - Requiem - Op. 9. Introït, Kyrie
03 - Dom André Laberge - Orgue XII
04 - Olivier Messiaen - O Sacrum Convivium !
05 - Johann Sebastian Bach - La Messe en si mineur - BWV 232. Christie eleison
06 - Henry Purcell - Ode on Saint Cecilia's Day, Welcome to All the Pleasures - Z. 339. Here the Deities Approve
07 - Anton Bruckner - Messe en mi mineur pour choeur à 8 voix et ensemble d'instruments à vent - Gloria
08 - Antonín Dvořák - Requiem - Graduate
09 - Henry Purcell - Ode on Saint Cecilia's Day, Welcome to All the Pleasures - Z. 339. Adagio
10 - Gabriel Fauré - Requiem - Pie Jesu
11 - César Franck - Psaume CL
12 - Pierick Houdy - La Messe Québécoise - Communion
13 - Office de la semaine sainte - Cruciem Tuam
14 - Ludwig van Beethoven - Missa Solemnis - Benedictus

CD3
01 - Hildegard von Bingen - Ordo Vritutum - Prologue
02 - Johann Sebastian Bach - Le Petit Livre d'orgue - BWV 622. O mensch, bewein dein' Sunde gross
03 - Wolfgang Amadeus Mozart - Ave Verum Corpus
04 - Johann Sebastian Bach - La Messe en si mineur - BWV 232. Agnus Dei
05 - Claudio Monteverdi - Beatus Vir
06 - Franz Schubert - La Messe Allemande - D. 872. Introït, Zum Eingang
07 - Franz Schubert - La Messe Allemande - D. 872. Santus, Zum Sanctus
08 - Charles Gounod - La Messe Solennelle de Sainte Cécile - Offertorium
09 - Gregorio Allegri - Miserere
10 - Roland de Lassus - Omnes de Saba Venient
11 - Richard Wagner - Parsifal - L'Enchantement du Vendredi Saint

CD4
01 - Gabriel Fauré - Cantique de Jean Racine
02 - Dom André Laberge - Orgue XXI
03 - Théodore Dubois - Messe en sol - Sanctus, Agnus Dei
04 - Johann Sebastian Bach - Ave Maria
05 - Joseph Haydn - Les sept dernières paroles du Christ en croix - Largo. Père, pardonnez-leur, parce qu'ils ne savent ce qu'ils font
06 - Crux Fidelis
07 - Wolfgang Amadeus Mozart - Vesperae Solemnes - Laudate Dominum
08 - Giovanni Pierluigi da Palestrina - Litaniae de Beata Virgine Maria
09 - Henry Purcell - Music For Saint Cecilia's Day - Hail! Bright Cecilia - Z 328. Thou Tun'st this World
10 - Johann Sebastian Bach - La Passion selon Saint Mathieu - BWV 244. Mache dich, mein herze rein
11 - Johann Sebastian Bach - Le Petit Livre d'orgue - BWV 614. Das alte Jahr vergangen ist
12 - Thomas Tallis - Jesu salvator saeculi
13 - Giuseppe Verdi - La Force du destin - La Vergine degli Angeli

CD5
01 - César Franck - Panis Angelicus
02 - Johann Sebastian Bach - La Passion selon Saint Mathieu - BWV 244. Erbame Dich, Mein Gott (Chor I)
03 - Joseph Haydn - Les Sept Dernières Paroles du Christ en croix - Largo. Mon Dieu, pourquoi m'as tu abandonné?
04 - Thomas Tallis - Spem in Alium
05 - Felix Mendelssohn - Elijah - Woe Unto Them
06 - Giuseppe Verdi - Messa di Requiem - Lacrimosa
07 - Josquin des Prez - Inviolata, integra et casta es
08 - Giovanni Pierluigi da Palestrina - Beatus Laurentius
09 - Johann Sebastian Bach - Gott, Durch Deine Gute BWV600
10 - Lamentations de Jérémie
11 - Wolfgang Amadeus Mozart - Requiem - Recordare
12 - Motet 'Tantum Ergo' III
13 - Sergei Rachmaninov - Les Vêpres - Svete Tikhiy

CD6
01 - Franz Schubert - Ave Maria
02 - Thomas Tallis - Lamentations du prophète Jérémie - Première partie. Incipit Lamentatio Jeremiae Prophetae
03 - Thomas Tallis - Lamentations du prophète Jérémie - Première partie. De Lamentatione Jeremiae Prophetae
04 - Johann Sebastian Bach - La Passion selon Saint Mathieu - BWV 244. O Lamm Gottes, Unschuldig
05 - Henry Purcell - Music For Saint Cecilia's Day - Hail! Bright Cecilia Z. 328. Soul of the World
06 - Joseph Haydn - Les Sept Dernières Paroles du Christ en croix - Largo. Seigneur, je remets mon âme entre tes mains
07 - Kyrie 8 'De Angelis' V
08 - Gioacchino Rossini - Stabat Mater - Cujus Animan
09 - Johannes Brahms - Un requiem allemand - Ihr Habt Nun Traurigkeit
10 - Franz Liszt - Saint François d'Assise - La Prédication aux oiseaux
11 - Sergei Rachmaninov - Les Vêpres - Velichit Dusha Moya Gospoda

Exact Audio Copy V1.1 from 23. June 2015

EAC extraction logfile from 20. June 2016, 17:53

- / Les Grands Classiques d'Edgar - La Musique Sacrée

Used drive : HL-DT-STDVDRAM GH24NS95 Adapter: 1 ID: 1

Read mode : Secure
Utilize accurate stream : Yes
Defeat audio cache : Yes
Make use of C2 pointers : No

Read offset correction : 6
Overread into Lead-In and Lead-Out : No
Fill up missing offset samples with silence : Yes
Delete leading and trailing silent blocks : No
Null samples used in CRC calculations : Yes
Used interface : Native Win32 interface for Win NT & 2000
Gap handling : Appended to previous track

Used output format : User Defined Encoder
Selected bitrate : 1024 kBit/s
Quality : High
Add ID3 tag : No
Command line compressor : C:\Program Files (x86)\Exact Audio Copy\Flac\flac.exe
Additional command line options : -8 -e -V -T "ARTIST=%artist%" -T "TITLE=%title%" -T "ALBUM=%albumtitle%" -T "DATE=%year%" -T "TRACKNUMBER=%tracknr%" -T "GENRE=%genre%" -T "PERFORMER=%albuminterpret%" -T "COMPOSER=%composer%" %haslyrics%–tag-from-file=LYRICS="%lyricsfile%"%haslyrics% -T "ALBUMARTIST=%albumartist%" -T "DISCNUMBER=%cdnumber%" -T "TOTALDISCS=%totalcds%" -T "TOTALTRACKS=%numtracks%" -T "COMMENT=%comment%" %source% -o %dest%


TOC of the extracted CD

Track | Start | Length | Start sector | End sector
––––––––––––––––––––––––––––-
1 | 0:00.00 | 3:39.09 | 0 | 16433
2 | 3:39.09 | 4:30.06 | 16434 | 36689
3 | 8:09.15 | 3:11.72 | 36690 | 51086
4 | 11:21.12 | 6:32.49 | 51087 | 80535
5 | 17:53.61 | 7:33.68 | 80536 | 114578
6 | 25:27.54 | 2:13.35 | 114579 | 124588
7 | 27:41.14 | 5:44.43 | 124589 | 150431
8 | 33:25.57 | 5:47.54 | 150432 | 176510
9 | 39:13.36 | 3:23.03 | 176511 | 191738
10 | 42:36.39 | 4:11.31 | 191739 | 210594
11 | 46:47.70 | 5:22.06 | 210595 | 234750
12 | 52:10.01 | 4:44.50 | 234751 | 256100
13 | 56:54.51 | 3:43.70 | 256101 | 272895
14 | 60:38.46 | 1:24.07 | 272896 | 279202
15 | 62:02.53 | 2:53.35 | 279203 | 292212


Track 1

Filename Z:\media\Main\Various Artists - La Musique Sacrée - 2010 - FLAC\CD1\01 - Leopold Stokowski Symphony Orchestra, Leopold Stokowski - Cantate - BWV 147. Choral- Jesu bleibet mein Freude.wav

Pre-gap length 0:00:02.00

Peak level 60.9 %
Extraction speed 0.9 X
Track quality 99.9 %
Test CRC D7A9EEC3
Copy CRC D7A9EEC3
Accurately ripped (confidence 8) [D030F276] (AR v2)
Copy OK

Track 2

Filename Z:\media\Main\Various Artists - La Musique Sacrée - 2010 - FLAC\CD1\02 - Emma Kirkby, James Bowman, The Academy of Ancien Music, Christopher Hogwood - Stabat Mater - Stabat Mater.wav

Peak level 60.9 %
Extraction speed 1.1 X
Track quality 100.0 %
Test CRC 4224592A
Copy CRC 4224592A
Accurately ripped (confidence 7) [45FB9B0E] (AR v2)
Copy OK

Track 3

Filename Z:\media\Main\Various Artists - La Musique Sacrée - 2010 - FLAC\CD1\03 - Dom André Laberge - Orgue I.wav

Peak level 21.1 %
Extraction speed 1.2 X
Track quality 100.0 %
Test CRC C7AE8A97
Copy CRC C7AE8A97
Accurately ripped (confidence 7) [667F523F] (AR v2)
Copy OK

Track 4

Filename Z:\media\Main\Various Artists - La Musique Sacrée - 2010 - FLAC\CD1\04 - Les Petits Chanteurs du Mont-Royal et musiciens, Gilbert Patenaude - Messe en mi mineur pour choeur à 8 voix et ensemble d'instruments à vent - Kyrie.wav

Peak level 84.5 %
Extraction speed 1.4 X
Track quality 100.0 %
Test CRC 41D84E5E
Copy CRC 41D84E5E
Accurately ripped (confidence 7) [F18EC466] (AR v2)
Copy OK

Track 5

Filename Z:\media\Main\Various Artists - La Musique Sacrée - 2010 - FLAC\CD1\05 - Dietrich Fischer-Dieskau, Hermann Tottcher, Kammerorchester Karl Ristenpart, Karl Ristenpart - Cantate 82 - Ich habe genug!.wav

Peak level 52.3 %
Extraction speed 1.6 X
Track quality 100.0 %
Test CRC 73174181
Copy CRC 73174181
Accurately ripped (confidence 7) [7661411C] (AR v2)
Copy OK

Track 6

Filename Z:\media\Main\Various Artists - La Musique Sacrée - 2010 - FLAC\CD1\06 - The Deller Consort, Alfred Deller - O nata lux de lumine.wav

Peak level 44.5 %
Extraction speed 1.1 X
Track quality 99.9 %
Test CRC FB9E2776
Copy CRC FB9E2776
Accurately ripped (confidence 7) [8AC217E8] (AR v2)
Copy OK

Track 7

Filename Z:\media\Main\Various Artists - La Musique Sacrée - 2010 - FLAC\CD1\07 - Le Studio de musique ancienne de Montréal, Christopher Jackson - Exaudi me Domine.wav

Peak level 65.7 %
Extraction speed 1.7 X
Track quality 100.0 %
Test CRC A1E106EB
Copy CRC A1E106EB
Accurately ripped (confidence 7) [B9071D27] (AR v2)
Copy OK

Track 8

Filename Z:\media\Main\Various Artists - La Musique Sacrée - 2010 - FLAC\CD1\08 - Maria Stader, Sieglinde Wagner, Ernst Haefliger, Kim Borg, Prague Philharmonic Choir, Czech Philharmonic Orchestra, Markéta Kuhnova, Karel Ančerl - Requiem - Pie Jesu.wav

Peak level 77.4 %
Extraction speed 1.8 X
Track quality 100.0 %
Test CRC 696B5D89
Copy CRC 696B5D89
Accurately ripped (confidence 7) [F283BB3A] (AR v2)
Copy OK

Track 9

Filename Z:\media\Main\Various Artists - La Musique Sacrée - 2010 - FLAC\CD1\09 - Kalmar Chamber Orchestra of London, Alfred Deller - Ode on Saint Cecilia's Day, Welcome to All the Pleasures - Z. 339. Overture.wav

Peak level 36.4 %
Extraction speed 1.7 X
Track quality 100.0 %
Test CRC E43C71F0
Copy CRC E43C71F0
Accurately ripped (confidence 7) [14377098] (AR v2)
Copy OK

Track 10

Filename Z:\media\Main\Various Artists - La Musique Sacrée - 2010 - FLAC\CD1\10 - Elisabeth Grümmer, Marga Hoffgen, Helmut Krebs, Göttlob Frick, Chor der St. Hedwigs - Kathedrale Berlin, Berliner Philharmonic, Rudolf Kempe - Requiem - Lacrimosa.wav

Peak level 93.1 %
Extraction speed 1.9 X
Track quality 100.0 %
Test CRC FD3B6118
Copy CRC FD3B6118
Accurately ripped (confidence 7) [E9773B2A] (AR v2)
Copy OK

Track 11

Filename Z:\media\Main\Various Artists - La Musique Sacrée - 2010 - FLAC\CD1\11 - The Deller Consort, Alfred Deller - Salvator mundi Domine.wav

Peak level 68.3 %
Extraction speed 2.0 X
Track quality 100.0 %
Test CRC D117C78D
Copy CRC D117C78D
Accurately ripped (confidence 7) [FC89B351] (AR v2)
Copy OK

Track 12

Filename Z:\media\Main\Various Artists - La Musique Sacrée - 2010 - FLAC\CD1\12 - Elisabeth Vaughan, Janet Baker, Roger Lord, Kenneth Heath, John Langdon, Andrew Davis, Academy St. Martin-in-the-Fields, The Choir of King's College, Sir David Willcocks

Peak level 75.7 %
Extraction speed 2.0 X
Track quality 100.0 %
Test CRC 839450D6
Copy CRC 839450D6
Accurately ripped (confidence 7) [FFAC7EE9] (AR v2)
Copy OK

Track 13

Filename Z:\media\Main\Various Artists - La Musique Sacrée - 2010 - FLAC\CD1\13 - Kathleen Ferrier, The Boyd Neel String Orcherstra, Boyd Neel - Elijah - O Rest in The Lord.wav

Peak level 76.7 %
Extraction speed 2.0 X
Track quality 100.0 %
Test CRC 6703D9A7
Copy CRC 6703D9A7
Accurately ripped (confidence 7) [49196D76] (AR v2)
Copy OK

Track 14

Filename Z:\media\Main\Various Artists - La Musique Sacrée - 2010 - FLAC\CD1\14 - Schola des Pères du Saint-Esprit - Dextera Domine.wav

Peak level 44.1 %
Extraction speed 1.6 X
Track quality 100.0 %
Test CRC 7687A071
Copy CRC 7687A071
Accurately ripped (confidence 7) [78405127] (AR v2)
Copy OK

Track 15

Filename Z:\media\Main\Various Artists - La Musique Sacrée - 2010 - FLAC\CD1\15 - Martha Angelici, Orchestre de l'Association des concerts colonne, Jésus Etcheverry - Le ciel a visité la terre.wav

Peak level 57.4 %
Extraction speed 2.1 X
Track quality 100.0 %
Test CRC 4E288BDA
Copy CRC 4E288BDA
Accurately ripped (confidence 7) [74B5A458] (AR v2)
Copy OK


All tracks accurately ripped

No errors occurred

End of status report

==== Log checksum BCBE7D50BEAC09DD328A14D08DFA1BD5EEE06239B9E8DAEEE41C95EB4D2DA629 ====

Exact Audio Copy V1.1 from 23. June 2015

EAC extraction logfile from 20. June 2016, 17:52

- / Les Grands Classiques d'Edgar - La Musique Sacrée

Used drive : TSSTcorpDVD+-RW TS-H653B Adapter: 1 ID: 0

Read mode : Secure
Utilize accurate stream : Yes
Defeat audio cache : Yes
Make use of C2 pointers : No

Read offset correction : 6
Overread into Lead-In and Lead-Out : No
Fill up missing offset samples with silence : Yes
Delete leading and trailing silent blocks : No
Null samples used in CRC calculations : Yes
Used interface : Native Win32 interface for Win NT & 2000
Gap handling : Appended to previous track

Used output format : User Defined Encoder
Selected bitrate : 1024 kBit/s
Quality : High
Add ID3 tag : No
Command line compressor : C:\Program Files (x86)\Exact Audio Copy\Flac\flac.exe
Additional command line options : -8 -e -V -T "ARTIST=%artist%" -T "TITLE=%title%" -T "ALBUM=%albumtitle%" -T "DATE=%year%" -T "TRACKNUMBER=%tracknr%" -T "GENRE=%genre%" -T "PERFORMER=%albuminterpret%" -T "COMPOSER=%composer%" %haslyrics%–tag-from-file=LYRICS="%lyricsfile%"%haslyrics% -T "ALBUMARTIST=%albumartist%" -T "DISCNUMBER=%cdnumber%" -T "TOTALDISCS=%totalcds%" -T "TOTALTRACKS=%numtracks%" -T "COMMENT=%comment%" %source% -o %dest%


TOC of the extracted CD

Track | Start | Length | Start sector | End sector
––––––––––––––––––––––––––––-
1 | 0:00.00 | 2:02.53 | 0 | 9202
2 | 2:02.53 | 7:18.10 | 9203 | 42062
3 | 9:20.63 | 2:51.16 | 42063 | 54903
4 | 12:12.04 | 4:37.70 | 54904 | 75748
5 | 16:49.74 | 6:06.67 | 75749 | 103265
6 | 22:56.66 | 4:12.06 | 103266 | 122171
7 | 27:08.72 | 5:33.70 | 122172 | 147216
8 | 32:42.67 | 5:00.29 | 147217 | 169745
9 | 37:43.21 | 1:58.52 | 169746 | 178647
10 | 39:41.73 | 2:58.11 | 178648 | 192008
11 | 42:40.09 | 4:45.34 | 192009 | 213417
12 | 47:25.43 | 3:41.04 | 213418 | 229996
13 | 51:06.47 | 1:51.72 | 229997 | 238393
14 | 52:58.44 | 13:09.62 | 238394 | 297630


Track 1

Filename Z:\media\Main\Various Artists - La Musique Sacrée - 2010 - FLAC\CD2\01 - Le Grand Choeur et Orchestre de Montreal, Martin Dagenais - Les Sept Paroles du Christ - Intro.wav

Pre-gap length 0:00:02.00

Peak level 80.3 %
Extraction speed 1.4 X
Track quality 100.0 %
Test CRC 35D12A77
Copy CRC 35D12A77
Accurately ripped (confidence 6) [5C1BC656] (AR v2)
Copy OK

Track 2

Filename Z:\media\Main\Various Artists - La Musique Sacrée - 2010 - FLAC\CD2\02 - Felicity Palmer, John Shirley-Quirk, Boys of Westminster Cathedral Choir, London Symphony Choir, London Symphony Orchestra, Richard Hickox - Requiem - Op. 9. Introït, Ky

Peak level 86.9 %
Extraction speed 1.2 X
Track quality 100.0 %
Test CRC CE814033
Copy CRC CE814033
Accurately ripped (confidence 6) [A8E41D70] (AR v2)
Copy OK

Track 3

Filename Z:\media\Main\Various Artists - La Musique Sacrée - 2010 - FLAC\CD2\03 - Dom André Laberge - Orgue XII.wav

Peak level 18.9 %
Extraction speed 1.2 X
Track quality 100.0 %
Test CRC 42DB0EAF
Copy CRC 42DB0EAF
Accurately ripped (confidence 5) [D4B37F7C] (AR v2)
Copy OK

Track 4

Filename Z:\media\Main\Various Artists - La Musique Sacrée - 2010 - FLAC\CD2\04 - Stephen Rall, Tafelmusik Chamber Choir, Ivars Taurins - O Sacrum Convivium !.wav

Peak level 88.8 %
Extraction speed 1.4 X
Track quality 100.0 %
Test CRC 5A7A661C
Copy CRC 5A7A661C
Accurately ripped (confidence 6) [F400CBBA] (AR v2)
Copy OK

Track 5

Filename Z:\media\Main\Various Artists - La Musique Sacrée - 2010 - FLAC\CD2\05 - Elisabeth Schwarzkopf, Marga Höffgen, Philarmonia Orchestra, Herbert von Karajan - La Messe en si mineur - BWV 232. Christie eleison.wav

Peak level 54.2 %
Extraction speed 1.6 X
Track quality 100.0 %
Test CRC 45275C32
Copy CRC 45275C32
Accurately ripped (confidence 6) [31746606] (AR v2)
Copy OK

Track 6

Filename Z:\media\Main\Various Artists - La Musique Sacrée - 2010 - FLAC\CD2\06 - Alfred Deller, Kalmar Chamber Orchestra of London, Alfred Deller - Ode on Saint Cecilia's Day, Welcome to All the Pleasures - Z. 339. Here the Deities Approve.wav

Peak level 50.4 %
Extraction speed 1.6 X
Track quality 100.0 %
Test CRC C9BC3437
Copy CRC C9BC3437
Accurately ripped (confidence 6) [2EBE638B] (AR v2)
Copy OK

Track 7

Filename Z:\media\Main\Various Artists - La Musique Sacrée - 2010 - FLAC\CD2\07 - Les Petits Chanteurs du Mont-Royal et musiciens, Gilbert Patenaude - Messe en mi mineur pour choeur à 8 voix et ensemble d'instruments à vent - Gloria.wav

Peak level 84.9 %
Extraction speed 1.7 X
Track quality 100.0 %
Test CRC 6AC60063
Copy CRC 6AC60063
Accurately ripped (confidence 6) [A3B80CBA] (AR v2)
Copy OK

Track 8

Filename Z:\media\Main\Various Artists - La Musique Sacrée - 2010 - FLAC\CD2\08 - Maria Stader, Sieglinde Wagner, Ernst Haefliger, Kim Borg, Prague Philharmonic Choir, Czech Philharmonic Orchestra, Markéta Kuhnova, Karel Ančerl - Requiem - Graduate.wav

Peak level 86.1 %
Extraction speed 1.8 X
Track quality 100.0 %
Test CRC D9CE6460
Copy CRC D9CE6460
Accurately ripped (confidence 6) [CFF81E15] (AR v2)
Copy OK

Track 9

Filename Z:\media\Main\Various Artists - La Musique Sacrée - 2010 - FLAC\CD2\09 - Walter Bergman - Ode on Saint Cecilia's Day, Welcome to All the Pleasures - Z. 339. Adagio.wav

Peak level 19.7 %
Extraction speed 1.5 X
Track quality 100.0 %
Test CRC 193E2736
Copy CRC 193E2736
Accurately ripped (confidence 6) [98FA38B0] (AR v2)
Copy OK

Track 10

Filename Z:\media\Main\Various Artists - La Musique Sacrée - 2010 - FLAC\CD2\10 - Joëlle Bourdon, Alexandre da Costa, Régis Rousseau, Manon Le Compte, Gilbert Patenaude - Requiem - Pie Jesu.wav

Peak level 38.6 %
Extraction speed 1.7 X
Track quality 100.0 %
Test CRC C83662F7
Copy CRC C83662F7
Accurately ripped (confidence 6) [39089D6D] (AR v2)
Copy OK

Track 11

Filename Z:\media\Main\Various Artists - La Musique Sacrée - 2010 - FLAC\CD2\11 - Antonio Figueroa, Marc Boucher, Régis Rousseau, Les Chantres musiciens, Les Voix d'elles, Gilbert Patenaude - Psaume CL.wav

Peak level 94.1 %
Extraction speed 1.9 X
Track quality 100.0 %
Test CRC 82277975
Copy CRC 82277975
Accurately ripped (confidence 6) [F60FB5EB] (AR v2)
Copy OK

Track 12

Filename Z:\media\Main\Various Artists - La Musique Sacrée - 2010 - FLAC\CD2\12 - Ensemble Vocal Claude Gosselin de Québec et musiciens, Claude Gosselin - La Messe Québécoise - Communion.wav

Peak level 55.5 %
Extraction speed 1.9 X
Track quality 100.0 %
Test CRC 6E1ECCC0
Copy CRC 6E1ECCC0
Accurately ripped (confidence 6) [60BD4C8A] (AR v2)
Copy OK

Track 13

Filename Z:\media\Main\Various Artists - La Musique Sacrée - 2010 - FLAC\CD2\13 - Schola des Pères du Saint-Esprit - Office de la semaine sainte - Cruciem Tuam.wav

Peak level 68.1 %
Extraction speed 1.6 X
Track quality 100.0 %
Test CRC A6D54699
Copy CRC A6D54699
Accurately ripped (confidence 6) [635BAC11] (AR v2)
Copy OK

Track 14

Filename Z:\media\Main\Various Artists - La Musique Sacrée - 2010 - FLAC\CD2\14 - Elisabeth Schwarzkopf, Christa Ludwig, Nicolai Gedda, Nicola Zaccaria, Singverein der Gesellschaft der Musikfreunde in Wein, Philharmonic Orchestra, Herbert von Karajan -

Peak level 97.7 %
Extraction speed 2.1 X
Track quality 99.9 %
Test CRC 9298F6D3
Copy CRC 9298F6D3
Accurately ripped (confidence 6) [0D228EC6] (AR v2)
Copy OK


All tracks accurately ripped

No errors occurred

End of status report

==== Log checksum FF09AB16878ECD8A98A0D2876B3889E70A30A3FD7BA1DB1DA535778DAED05F5A ====

Exact Audio Copy V1.1 from 23. June 2015

EAC extraction logfile from 21. June 2016, 2:27

- / Les Grands Classiques d'Edgar - La Musique Sacrée

Used drive : HL-DT-STDVDRAM GH24NS95 Adapter: 1 ID: 1

Read mode : Secure
Utilize accurate stream : Yes
Defeat audio cache : Yes
Make use of C2 pointers : No

Read offset correction : 6
Overread into Lead-In and Lead-Out : No
Fill up missing offset samples with silence : Yes
Delete leading and trailing silent blocks : No
Null samples used in CRC calculations : Yes
Used interface : Native Win32 interface for Win NT & 2000
Gap handling : Appended to previous track

Used output format : User Defined Encoder
Selected bitrate : 1024 kBit/s
Quality : High
Add ID3 tag : No
Command line compressor : C:\Program Files (x86)\Exact Audio Copy\Flac\flac.exe
Additional command line options : -8 -e -V -T "ARTIST=%artist%" -T "TITLE=%title%" -T "ALBUM=%albumtitle%" -T "DATE=%year%" -T "TRACKNUMBER=%tracknr%" -T "GENRE=%genre%" -T "PERFORMER=%albuminterpret%" -T "COMPOSER=%composer%" %haslyrics%–tag-from-file=LYRICS="%lyricsfile%"%haslyrics% -T "ALBUMARTIST=%albumartist%" -T "DISCNUMBER=%cdnumber%" -T "TOTALDISCS=%totalcds%" -T "TOTALTRACKS=%numtracks%" -T "COMMENT=%comment%" %source% -o %dest%


TOC of the extracted CD

Track | Start | Length | Start sector | End sector
––––––––––––––––––––––––––––-
1 | 0:00.00 | 5:36.35 | 0 | 25234
2 | 5:36.35 | 4:34.48 | 25235 | 45832
3 | 10:11.08 | 3:52.24 | 45833 | 63256
4 | 14:03.32 | 7:00.10 | 63257 | 94766
5 | 21:03.42 | 8:04.49 | 94767 | 131115
6 | 29:08.16 | 1:38.16 | 131116 | 138481
7 | 30:46.32 | 1:53.60 | 138482 | 147016
8 | 32:40.17 | 3:20.52 | 147017 | 162068
9 | 36:00.69 | 11:17.21 | 162069 | 212864
10 | 47:18.15 | 2:28.43 | 212865 | 224007
11 | 49:46.58 | 12:30.03 | 224008 | 280260


Track 1

Filename Z:\media\Main\Various Artists - La Musique Sacrée - 2010 - FLAC\CD3\01 - Louise Le Compte-Poirier, Manon Le Compte, Les Filles de l'Île, Les Chantres Musiciens, Gilbert Patenaude - Ordo Vritutum - Prologue.wav

Pre-gap length 0:00:02.00

Peak level 87.1 %
Extraction speed 1.0 X
Track quality 100.0 %
Test CRC 3284221A
Copy CRC 3284221A
Accurately ripped (confidence 3) [F2E33A28] (AR v2)
Copy OK

Track 2

Filename Z:\media\Main\Various Artists - La Musique Sacrée - 2010 - FLAC\CD3\02 - Helmut Walcha - Le Petit Livre d'orgue - BWV 622. O mensch, bewein dein' Sunde gross.wav

Peak level 26.7 %
Extraction speed 1.2 X
Track quality 100.0 %
Test CRC 838D76F3
Copy CRC 838D76F3
Accurately ripped (confidence 2) [3F451A74] (AR v2)
Copy OK

Track 3

Filename Z:\media\Main\Various Artists - La Musique Sacrée - 2010 - FLAC\CD3\03 - Peter White, Choir of St John's College of Cambridge - Ave Verum Corpus.wav

Peak level 48.4 %
Extraction speed 1.2 X
Track quality 100.0 %
Test CRC 3F696F95
Copy CRC 3F696F95
Accurately ripped (confidence 2) [3DFC0142] (AR v2)
Copy OK

Track 4

Filename Z:\media\Main\Various Artists - La Musique Sacrée - 2010 - FLAC\CD3\04 - Elisabeth Schwarzkopf, Marga Höffgen, Philarmonia Orchestra, Herbert von Karajan - La Messe en si mineur - BWV 232. Agnus Dei.wav

Peak level 80.8 %
Extraction speed 1.5 X
Track quality 100.0 %
Test CRC 3C77434E
Copy CRC 3C77434E
Accurately ripped (confidence 2) [6A07CAAC] (AR v2)
Copy OK

Track 5

Filename Z:\media\Main\Various Artists - La Musique Sacrée - 2010 - FLAC\CD3\05 - Le Studio de musique ancienne de Montréal, Christopher Jackson - Beatus Vir.wav

Peak level 58.9 %
Extraction speed 1.6 X
Track quality 100.0 %
Test CRC F1BC76A7
Copy CRC F1BC76A7
Accurately ripped (confidence 2) [F8071D79] (AR v2)
Copy OK

Track 6

Filename Z:\media\Main\Various Artists - La Musique Sacrée - 2010 - FLAC\CD3\06 - Vienna Chamber Choir, Vienna Symphony Orchestra, Hans Gillesberger - La Messe Allemande - D. 872. Introït, Zum Eingang.wav

Peak level 77.8 %
Extraction speed 1.3 X
Track quality 100.0 %
Test CRC 899F6A77
Copy CRC 899F6A77
Accurately ripped (confidence 2) [59CF648F] (AR v2)
Copy OK

Track 7

Filename Z:\media\Main\Various Artists - La Musique Sacrée - 2010 - FLAC\CD3\07 - Vienna Chamber Choir, Vienna Symphony Orchestra, Hans Gillesberger - La Messe Allemande - D. 872. Santus, Zum Sanctus.wav

Peak level 65.2 %
Extraction speed 1.4 X
Track quality 100.0 %
Test CRC 76DF23DE
Copy CRC 76DF23DE
Accurately ripped (confidence 3) [99D58567] (AR v2)
Copy OK

Track 8

Filename Z:\media\Main\Various Artists - La Musique Sacrée - 2010 - FLAC\CD3\08 - Czech Philharmonic Orchestra, Igor Markevitch - La Messe Solennelle de Sainte Cécile - Offertorium.wav

Peak level 45.0 %
Extraction speed 1.6 X
Track quality 100.0 %
Test CRC 19C88325
Copy CRC 19C88325
Accurately ripped (confidence 3) [E2D4845F] (AR v2)
Copy OK

Track 9

Filename Z:\media\Main\Various Artists - La Musique Sacrée - 2010 - FLAC\CD3\09 - The Choir of King's College, Sir David Willcocks - Miserere.wav

Peak level 57.5 %
Extraction speed 1.9 X
Track quality 99.9 %
Test CRC 5927C06F
Copy CRC 5927C06F
Accurately ripped (confidence 3) [2463314B] (AR v2)
Copy OK

Track 10

Filename Z:\media\Main\Various Artists - La Musique Sacrée - 2010 - FLAC\CD3\10 - Le Studio de musique ancienne de Montréal, Christopher Jackson - Omnes de Saba Venient.wav

Peak level 58.2 %
Extraction speed 1.7 X
Track quality 100.0 %
Test CRC 49FAC256
Copy CRC 49FAC256
Accurately ripped (confidence 3) [4FA3FABB] (AR v2)
Copy OK

Track 11

Filename Z:\media\Main\Various Artists - La Musique Sacrée - 2010 - FLAC\CD3\11 - Vienna Philharmonic Orchestra, Rudolf Kempe - Parsifal - L'Enchantement du Vendredi Saint.wav

Peak level 96.6 %
Extraction speed 2.2 X
Track quality 100.0 %
Test CRC CE580390
Copy CRC CE580390
Accurately ripped (confidence 3) [EE29FA89] (AR v2)
Copy OK


All tracks accurately ripped

No errors occurred

End of status report

==== Log checksum 43F9A5C6755C5CF53D11E67DDB499F40111BC13E9E4DB0939002E92DFDF3544A ====

Exact Audio Copy V1.1 from 23. June 2015

EAC extraction logfile from 21. June 2016, 2:26

- / Les Grands Classiques d'Edgar - La Musique Sacrée

Used drive : TSSTcorpDVD+-RW TS-H653B Adapter: 1 ID: 0

Read mode : Secure
Utilize accurate stream : Yes
Defeat audio cache : Yes
Make use of C2 pointers : No

Read offset correction : 6
Overread into Lead-In and Lead-Out : No
Fill up missing offset samples with silence : Yes
Delete leading and trailing silent blocks : No
Null samples used in CRC calculations : Yes
Used interface : Native Win32 interface for Win NT & 2000
Gap handling : Appended to previous track

Used output format : User Defined Encoder
Selected bitrate : 1024 kBit/s
Quality : High
Add ID3 tag : No
Command line compressor : C:\Program Files (x86)\Exact Audio Copy\Flac\flac.exe
Additional command line options : -8 -e -V -T "ARTIST=%artist%" -T "TITLE=%title%" -T "ALBUM=%albumtitle%" -T "DATE=%year%" -T "TRACKNUMBER=%tracknr%" -T "GENRE=%genre%" -T "PERFORMER=%albuminterpret%" -T "COMPOSER=%composer%" %haslyrics%–tag-from-file=LYRICS="%lyricsfile%"%haslyrics% -T "ALBUMARTIST=%albumartist%" -T "DISCNUMBER=%cdnumber%" -T "TOTALDISCS=%totalcds%" -T "TOTALTRACKS=%numtracks%" -T "COMMENT=%comment%" %source% -o %dest%


TOC of the extracted CD

Track | Start | Length | Start sector | End sector
––––––––––––––––––––––––––––-
1 | 0:00.00 | 5:12.47 | 0 | 23446
2 | 5:12.47 | 3:32.39 | 23447 | 39385
3 | 8:45.11 | 5:44.25 | 39386 | 65210
4 | 14:29.36 | 2:49.33 | 65211 | 77918
5 | 17:18.69 | 8:17.44 | 77919 | 115237
6 | 25:36.38 | 2:48.56 | 115238 | 127893
7 | 28:25.19 | 4:45.35 | 127894 | 149303
8 | 33:10.54 | 6:08.72 | 149304 | 176975
9 | 39:19.51 | 4:17.19 | 176976 | 196269
10 | 43:36.70 | 7:13.37 | 196270 | 228781
11 | 50:50.32 | 2:22.33 | 228782 | 239464
12 | 53:12.65 | 5:20.58 | 239465 | 263522
13 | 58:33.48 | 3:39.74 | 263523 | 280021


Track 1

Filename Z:\media\Main\Various Artists - La Musique Sacrée - 2010 - FLAC\CD4\01 - Choeur et Orchestre National de la Radiodiffusion Française - Cantique de Jean Racine.wav

Pre-gap length 0:00:02.00

Peak level 88.6 %
Extraction speed 1.2 X
Track quality 100.0 %
Test CRC FD966D94
Copy CRC FD966D94
Accurately ripped (confidence 7) [EFA0E10B] (AR v2)
Copy OK

Track 2

Filename Z:\media\Main\Various Artists - La Musique Sacrée - 2010 - FLAC\CD4\02 - Dom André Laberge - Orgue XXI.wav

Peak level 19.8 %
Extraction speed 1.1 X
Track quality 100.0 %
Test CRC 9DD25F59
Copy CRC 9DD25F59
Accurately ripped (confidence 7) [445D2981] (AR v2)
Copy OK

Track 3

Filename Z:\media\Main\Various Artists - La Musique Sacrée - 2010 - FLAC\CD4\03 - Antonio Figueroa, Régis Rousseau, Les Chantres Musiciens, Gilbert Patenaude - Messe en sol - Sanctus, Agnus Dei.wav

Peak level 60.8 %
Extraction speed 1.3 X
Track quality 100.0 %
Test CRC 66896902
Copy CRC 66896902
Accurately ripped (confidence 7) [16A0ECF8] (AR v2)
Copy OK

Track 4

Filename Z:\media\Main\Various Artists - La Musique Sacrée - 2010 - FLAC\CD4\04 - Martha Angelici, Orchestre de l'Association des concerts colonne, Jésus Etcheverry - Ave Maria.wav

Peak level 53.6 %
Extraction speed 1.3 X
Track quality 100.0 %
Test CRC EBE0244E
Copy CRC EBE0244E
Accurately ripped (confidence 7) [7C0DE09B] (AR v2)
Copy OK

Track 5

Filename Z:\media\Main\Various Artists - La Musique Sacrée - 2010 - FLAC\CD4\05 - Amadeus String Quartet - Les sept dernières paroles du Christ en croix - Largo. Père, pardonnez-leur, parce qu'ils ne savent ce qu'ils font.wav

Peak level 41.5 %
Extraction speed 1.7 X
Track quality 100.0 %
Test CRC 00812209
Copy CRC 00812209
Accurately ripped (confidence 7) [9BFA12B0] (AR v2)
Copy OK

Track 6

Filename Z:\media\Main\Various Artists - La Musique Sacrée - 2010 - FLAC\CD4\06 - Schola des Pères du Saint-Esprit - Crux Fidelis.wav

Peak level 80.3 %
Extraction speed 1.4 X
Track quality 100.0 %
Test CRC C4D4E5B0
Copy CRC C4D4E5B0
Accurately ripped (confidence 7) [93629E74] (AR v2)
Copy OK

Track 7

Filename Z:\media\Main\Various Artists - La Musique Sacrée - 2010 - FLAC\CD4\07 - Wilma Lipp - Vesperae Solemnes - Laudate Dominum.wav

Peak level 49.0 %
Extraction speed 1.7 X
Track quality 100.0 %
Test CRC BF581A58
Copy CRC BF581A58
Accurately ripped (confidence 7) [BB0E9B62] (AR v2)
Copy OK

Track 8

Filename Z:\media\Main\Various Artists - La Musique Sacrée - 2010 - FLAC\CD4\08 - Le Studio de musique ancienne de Montréal, Christopher Jackson - Litaniae de Beata Virgine Maria.wav

Peak level 51.3 %
Extraction speed 1.9 X
Track quality 100.0 %
Test CRC 9D82BA30
Copy CRC 9D82BA30
Accurately ripped (confidence 7) [F9FDE395] (AR v2)
Copy OK

Track 9

Filename Z:\media\Main\Various Artists - La Musique Sacrée - 2010 - FLAC\CD4\09 - April Cantelo, Ambrosian Singers, Kalmar Chamber Orchestra of London, Michael Tippett - Music For Saint Cecilia's Day - Hail! Bright Cecilia - Z 328. Thou Tun'st this Wor

Peak level 69.9 %
Extraction speed 1.9 X
Track quality 100.0 %
Test CRC 9923E5F5
Copy CRC 9923E5F5
Accurately ripped (confidence 6) [528F53C5] (AR v2)
Copy OK

Track 10

Filename Z:\media\Main\Various Artists - La Musique Sacrée - 2010 - FLAC\CD4\10 - Dietrich Fischer-Dieskau, MünchenerBach-Orchestra, Karl Richer - La Passion selon Saint Mathieu - BWV 244. Mache dich, mein herze rein.wav

Peak level 47.1 %
Extraction speed 2.2 X
Track quality 100.0 %
Test CRC 376AEE84
Copy CRC 376AEE84
Accurately ripped (confidence 6) [E5CAB597] (AR v2)
Copy OK

Track 11

Filename Z:\media\Main\Various Artists - La Musique Sacrée - 2010 - FLAC\CD4\11 - Helmut Walcha - Le Petit Livre d'orgue - BWV 614. Das alte Jahr vergangen ist.wav

Peak level 20.7 %
Extraction speed 1.5 X
Track quality 99.9 %
Test CRC 252E9604
Copy CRC 252E9604
Accurately ripped (confidence 6) [9ECB7234] (AR v2)
Copy OK

Track 12

Filename Z:\media\Main\Various Artists - La Musique Sacrée - 2010 - FLAC\CD4\12 - The Deller Consort, Alfred Deller - Jesu salvator saeculi.wav

Peak level 75.0 %
Extraction speed 2.2 X
Track quality 100.0 %
Test CRC 45218FEA
Copy CRC 45218FEA
Accurately ripped (confidence 6) [30BB3D3B] (AR v2)
Copy OK

Track 13

Filename Z:\media\Main\Various Artists - La Musique Sacrée - 2010 - FLAC\CD4\13 - Maria Callas, Choeur et Orchestre de la Scala de Milan - La Force du destin - La Vergine degli Angeli.wav

Peak level 96.5 %
Extraction speed 2.0 X
Track quality 100.0 %
Test CRC C4021EDB
Copy CRC C4021EDB
Accurately ripped (confidence 6) [0AFCB162] (AR v2)
Copy OK


All tracks accurately ripped

No errors occurred

End of status report

==== Log checksum C069CE1E110EB00087A120208D2580DA4BDE106D4BD76F00A97CB2711F2A6C28 ====

Exact Audio Copy V1.1 from 23. June 2015

EAC extraction logfile from 21. June 2016, 16:45

- / Les Grands Classiques d'Edgar - La Musique Sacrée

Used drive : HL-DT-STDVDRAM GH24NS95 Adapter: 1 ID: 1

Read mode : Secure
Utilize accurate stream : Yes
Defeat audio cache : Yes
Make use of C2 pointers : No

Read offset correction : 6
Overread into Lead-In and Lead-Out : No
Fill up missing offset samples with silence : Yes
Delete leading and trailing silent blocks : No
Null samples used in CRC calculations : Yes
Used interface : Native Win32 interface for Win NT & 2000
Gap handling : Appended to previous track

Used output format : User Defined Encoder
Selected bitrate : 1024 kBit/s
Quality : High
Add ID3 tag : No
Command line compressor : C:\Program Files (x86)\Exact Audio Copy\Flac\flac.exe
Additional command line options : -8 -e -V -T "ARTIST=%artist%" -T "TITLE=%title%" -T "ALBUM=%albumtitle%" -T "DATE=%year%" -T "TRACKNUMBER=%tracknr%" -T "GENRE=%genre%" -T "PERFORMER=%albuminterpret%" -T "COMPOSER=%composer%" %haslyrics%–tag-from-file=LYRICS="%lyricsfile%"%haslyrics% -T "ALBUMARTIST=%albumartist%" -T "DISCNUMBER=%cdnumber%" -T "TOTALDISCS=%totalcds%" -T "TOTALTRACKS=%numtracks%" -T "COMMENT=%comment%" %source% -o %dest%


TOC of the extracted CD

Track | Start | Length | Start sector | End sector
––––––––––––––––––––––––––––-
1 | 0:00.00 | 3:58.20 | 0 | 17869
2 | 3:58.20 | 7:50.11 | 17870 | 53130
3 | 11:48.31 | 5:47.48 | 53131 | 79203
4 | 17:36.04 | 11:40.07 | 79204 | 131710
5 | 29:16.11 | 3:17.45 | 131711 | 146530
6 | 32:33.56 | 5:26.20 | 146531 | 171000
7 | 38:00.01 | 5:24.19 | 171001 | 195319
8 | 43:24.20 | 3:43.26 | 195320 | 212070
9 | 47:07.46 | 1:09.07 | 212071 | 217252
10 | 48:16.53 | 6:19.22 | 217253 | 245699
11 | 54:36.00 | 7:28.17 | 245700 | 279316
12 | 62:04.17 | 1:26.10 | 279317 | 285776
13 | 63:30.27 | 3:08.02 | 285777 | 299878


Track 1

Filename Z:\media\Main\Various Artists - La Musique Sacrée - 2010 - FLAC\CD5\01 - Martha Angelici, Orchestre de l'Association des concerts colonne, Jésus Etcheverry - Panis Angelicus.wav

Pre-gap length 0:00:02.00

Peak level 62.1 %
Extraction speed 1.0 X
Track quality 100.0 %
Test CRC FA6876F0
Copy CRC FA6876F0
Accurately ripped (confidence 4) [9D44FC1D] (AR v2)
Copy OK

Track 2

Filename Z:\media\Main\Various Artists - La Musique Sacrée - 2010 - FLAC\CD5\02 - Hertha Töpper, Münchener Bach-Orchestra, Münchener Chor, Karl Richter - La Passion selon Saint Mathieu - BWV 244. Erbame Dich, Mein Gott (Chor I).wav

Peak level 64.2 %
Extraction speed 1.2 X
Track quality 100.0 %
Test CRC C4FBBBE5
Copy CRC C4FBBBE5
Accurately ripped (confidence 4) [6EDA7166] (AR v2)
Copy OK

Track 3

Filename Z:\media\Main\Various Artists - La Musique Sacrée - 2010 - FLAC\CD5\03 - Amadeus String Quartet - Les Sept Dernières Paroles du Christ en croix - Largo. Mon Dieu, pourquoi m'as tu abandonné.wav

Peak level 61.6 %
Extraction speed 1.4 X
Track quality 100.0 %
Test CRC 179445FB
Copy CRC 179445FB
Accurately ripped (confidence 4) [141AE09B] (AR v2)
Copy OK

Track 4

Filename Z:\media\Main\Various Artists - La Musique Sacrée - 2010 - FLAC\CD5\04 - The Choir of King's College, Sir David Willcocks - Spem in Alium.wav

Peak level 90.8 %
Extraction speed 1.6 X
Track quality 100.0 %
Test CRC 18251D36
Copy CRC 18251D36
Accurately ripped (confidence 4) [2263A4D7] (AR v2)
Copy OK

Track 5

Filename Z:\media\Main\Various Artists - La Musique Sacrée - 2010 - FLAC\CD5\05 - Kathleen Ferrier, The Boyd Neel String Orcherstra, Boyd Neel - Elijah - Woe Unto Them.wav

Peak level 52.4 %
Extraction speed 1.6 X
Track quality 100.0 %
Test CRC 7BFC2755
Copy CRC 7BFC2755
Accurately ripped (confidence 4) [2986EDB1] (AR v2)
Copy OK

Track 6

Filename Z:\media\Main\Various Artists - La Musique Sacrée - 2010 - FLAC\CD5\06 - Maria Stader, Marianna Radev, Helmut Krebs, Kim Borg, RIAS-Kammerchor, Chorale des St. Hedwigs-Kathedrale, RIAS-Symphonie-Orchester Berlin, Ferenc Fricsay - Messa di Requ

Peak level 79.7 %
Extraction speed 1.7 X
Track quality 100.0 %
Test CRC 36FD7ECF
Copy CRC 36FD7ECF
Accurately ripped (confidence 4) [E4A46A6A] (AR v2)
Copy OK

Track 7

Filename Z:\media\Main\Various Artists - La Musique Sacrée - 2010 - FLAC\CD5\07 - Le Studio de musique ancienne de Montréal, Christopher Jackson - Inviolata, integra et casta es.wav

Peak level 59.3 %
Extraction speed 1.8 X
Track quality 100.0 %
Test CRC 6301D003
Copy CRC 6301D003
Accurately ripped (confidence 4) [BA596427] (AR v2)
Copy OK

Track 8

Filename Z:\media\Main\Various Artists - La Musique Sacrée - 2010 - FLAC\CD5\08 - Le Studio de musique ancienne de Montréal, Christopher Jackson - Beatus Laurentius.wav

Peak level 47.8 %
Extraction speed 1.8 X
Track quality 100.0 %
Test CRC E89DB1F6
Copy CRC E89DB1F6
Accurately ripped (confidence 4) [F15259B6] (AR v2)
Copy OK

Track 9

Filename Z:\media\Main\Various Artists - La Musique Sacrée - 2010 - FLAC\CD5\09 - Helmut Walcha - Gott, Durch Deine Gute BWV600.wav

Peak level 22.4 %
Extraction speed 1.4 X
Track quality 100.0 %
Test CRC DA8AC239
Copy CRC DA8AC239
Accurately ripped (confidence 4) [BFC505B8] (AR v2)
Copy OK

Track 10

Filename Z:\media\Main\Various Artists - La Musique Sacrée - 2010 - FLAC\CD5\10 - Schola des Pères du Saint-Esprit - Lamentations de Jérémie.wav

Peak level 55.4 %
Extraction speed 2.0 X
Track quality 100.0 %
Test CRC 2AB18077
Copy CRC 2AB18077
Accurately ripped (confidence 4) [3AFA1654] (AR v2)
Copy OK

Track 11

Filename Z:\media\Main\Various Artists - La Musique Sacrée - 2010 - FLAC\CD5\11 - Sena Jurinac, Lucrecia West, Hans Loeffer, Frederick Gutherie, Vienna Academy Chamber Choir, Vienna State Opera Orchestra, Hermann Scherchen - Requiem - Recordare.wav

Peak level 96.3 %
Extraction speed 2.2 X
Track quality 100.0 %
Test CRC 159B71E8
Copy CRC 159B71E8
Accurately ripped (confidence 3) [D6CB05EE] (AR v2)
Copy OK

Track 12

Filename Z:\media\Main\Various Artists - La Musique Sacrée - 2010 - FLAC\CD5\12 - Choeur des moines de Saint-Benoît-du-Lac, Dom André Saint-Cyr - Motet ''Tantum Ergo'' III.wav

Peak level 40.6 %
Extraction speed 1.8 X
Track quality 100.0 %
Test CRC AB0AF5C0
Copy CRC AB0AF5C0
Accurately ripped (confidence 5) [B2CAA8A0] (AR v2)
Copy OK

Track 13

Filename Z:\media\Main\Various Artists - La Musique Sacrée - 2010 - FLAC\CD5\13 - St. Petersburg Chamber Choir, Nikolai Korniev - Les Vêpres - Svete Tikhiy.wav

Peak level 96.6 %
Extraction speed 2.1 X
Track quality 100.0 %
Test CRC 7438C271
Copy CRC 7438C271
Accurately ripped (confidence 3) [93468A4C] (AR v2)
Copy OK


All tracks accurately ripped

No errors occurred

End of status report

==== Log checksum 94AF97D4DA588D26E37E8F97B0559624B62A7548FDD56753131AC08BFA71BAB6 ====

Exact Audio Copy V1.1 from 23. June 2015

EAC extraction logfile from 21. June 2016, 16:45

- / Les Grands Classiques d'Edgar - La Musique Sacrée

Used drive : TSSTcorpDVD+-RW TS-H653B Adapter: 1 ID: 0

Read mode : Secure
Utilize accurate stream : Yes
Defeat audio cache : Yes
Make use of C2 pointers : No

Read offset correction : 6
Overread into Lead-In and Lead-Out : No
Fill up missing offset samples with silence : Yes
Delete leading and trailing silent blocks : No
Null samples used in CRC calculations : Yes
Used interface : Native Win32 interface for Win NT & 2000
Gap handling : Appended to previous track

Used output format : User Defined Encoder
Selected bitrate : 1024 kBit/s
Quality : High
Add ID3 tag : No
Command line compressor : C:\Program Files (x86)\Exact Audio Copy\Flac\flac.exe
Additional command line options : -8 -e -V -T "ARTIST=%artist%" -T "TITLE=%title%" -T "ALBUM=%albumtitle%" -T "DATE=%year%" -T "TRACKNUMBER=%tracknr%" -T "GENRE=%genre%" -T "PERFORMER=%albuminterpret%" -T "COMPOSER=%composer%" %haslyrics%–tag-from-file=LYRICS="%lyricsfile%"%haslyrics% -T "ALBUMARTIST=%albumartist%" -T "DISCNUMBER=%cdnumber%" -T "TOTALDISCS=%totalcds%" -T "TOTALTRACKS=%numtracks%" -T "COMMENT=%comment%" %source% -o %dest%


TOC of the extracted CD

Track | Start | Length | Start sector | End sector
––––––––––––––––––––––––––––-
1 | 0:00.00 | 5:58.53 | 0 | 26902
2 | 5:58.53 | 1:17.30 | 26903 | 32707
3 | 7:16.08 | 1:42.30 | 32708 | 40387
4 | 8:58.38 | 9:54.29 | 40388 | 84966
5 | 18:52.67 | 3:21.22 | 84967 | 100063
6 | 22:14.14 | 9:56.68 | 100064 | 144831
7 | 32:11.07 | 1:58.43 | 144832 | 153724
8 | 34:09.50 | 4:14.60 | 153725 | 172834
9 | 38:24.35 | 8:09.53 | 172835 | 209562
10 | 46:34.13 | 9:05.34 | 209563 | 250471
11 | 55:39.47 | 7:24.46 | 250472 | 283817


Track 1

Filename Z:\media\Main\Various Artists - La Musique Sacrée - 2010 - FLAC\CD6\01 - Martha Angelici, Orchestre de l'Association des concerts colonne, Jésus Etcheverry - Ave Maria.wav

Pre-gap length 0:00:02.00

Peak level 70.2 %
Extraction speed 1.1 X
Track quality 100.0 %
Test CRC AC5D31DE
Copy CRC AC5D31DE
Accurately ripped (confidence 3) [E8CC17F2] (AR v2)
Copy OK

Track 2

Filename Z:\media\Main\Various Artists - La Musique Sacrée - 2010 - FLAC\CD6\02 - The Deller Consort, Alfred Deller - Lamentations du prophète Jérémie - Première partie. Incipit Lamentatio Jeremiae Prophetae.wav

Peak level 36.0 %
Extraction speed 0.9 X
Track quality 100.0 %
Test CRC E53AED32
Copy CRC E53AED32
Accurately ripped (confidence 3) [CC9DB562] (AR v2)
Copy OK

Track 3

Filename Z:\media\Main\Various Artists - La Musique Sacrée - 2010 - FLAC\CD6\03 - The Deller Consort, Alfred Deller - Lamentations du prophète Jérémie - Première partie. De Lamentatione Jeremiae Prophetae.wav

Peak level 40.2 %
Extraction speed 0.9 X
Track quality 100.0 %
Test CRC 463C02D6
Copy CRC 463C02D6
Accurately ripped (confidence 3) [2D4E2E4B] (AR v2)
Copy OK

Track 4

Filename Z:\media\Main\Various Artists - La Musique Sacrée - 2010 - FLAC\CD6\04 - Münchener Bach-Orchestra, Münchener Chor, Karl Richter - La Passion selon Saint Mathieu - BWV 244. O Lamm Gottes, Unschuldig.wav

Peak level 54.7 %
Extraction speed 1.5 X
Track quality 100.0 %
Test CRC 1669F472
Copy CRC 1669F472
Accurately ripped (confidence 3) [B162DD16] (AR v2)
Copy OK

Track 5

Filename Z:\media\Main\Various Artists - La Musique Sacrée - 2010 - FLAC\CD6\05 - April Cantelo, Alfred Deller, Peter Salmon, Wilfrid Brown, Maurice Bevan, John Frost, Ambrosian Singers, Kalmar Chamber Orchestra of London, Michael Tippett - Music For S

Peak level 66.8 %
Extraction speed 1.5 X
Track quality 100.0 %
Test CRC E17FE77F
Copy CRC E17FE77F
Accurately ripped (confidence 3) [66C3972A] (AR v2)
Copy OK

Track 6

Filename Z:\media\Main\Various Artists - La Musique Sacrée - 2010 - FLAC\CD6\06 - Amadeus String Quartet - Les Sept Dernières Paroles du Christ en croix - Largo. Seigneur, je remets mon âme entre tes mains.wav

Peak level 51.8 %
Extraction speed 1.7 X
Track quality 99.9 %
Test CRC AE1D02E5
Copy CRC AE1D02E5
Accurately ripped (confidence 3) [BA74504E] (AR v2)
Copy OK

Track 7

Filename Z:\media\Main\Various Artists - La Musique Sacrée - 2010 - FLAC\CD6\07 - Choeur des moines de Saint-Benoît-du-Lac, Dom André Saint-Cyr - Kyrie 8 ''De Angelis'' V.wav

Peak level 38.8 %
Extraction speed 1.5 X
Track quality 100.0 %
Test CRC 141DA860
Copy CRC 141DA860
Accurately ripped (confidence 3) [C7855FF4] (AR v2)
Copy OK

Track 8

Filename Z:\media\Main\Various Artists - La Musique Sacrée - 2010 - FLAC\CD6\08 - Jussi Björling, Stockholm Orchestra, Nils Grevillius - Stabat Mater - Cujus Animan.wav

Peak level 43.8 %
Extraction speed 1.9 X
Track quality 100.0 %
Test CRC E71AE8A9
Copy CRC E71AE8A9
Accurately ripped (confidence 3) [2BB34276] (AR v2)
Copy OK

Track 9

Filename Z:\media\Main\Various Artists - La Musique Sacrée - 2010 - FLAC\CD6\09 - Elisabeth Grümmer, Chor der St. Hedwigs - Kathedrale Berlin, Berliner Philharmonic, Rudolf Kempe - Un requiem allemand - Ihr Habt Nun Traurigkeit.wav

Peak level 76.9 %
Extraction speed 1.9 X
Track quality 99.9 %
Test CRC 3A212330
Copy CRC 3A212330
Accurately ripped (confidence 3) [D8C2415A] (AR v2)
Copy OK

Track 10

Filename Z:\media\Main\Various Artists - La Musique Sacrée - 2010 - FLAC\CD6\10 - Anne-Marie Dubois - Saint François d'Assise - La Prédication aux oiseaux.wav

Peak level 81.6 %
Extraction speed 2.0 X
Track quality 99.9 %
Test CRC DF6263C7
Copy CRC DF6263C7
Accurately ripped (confidence 3) [026C42E8] (AR v2)
Copy OK

Track 11

Filename Z:\media\Main\Various Artists - La Musique Sacrée - 2010 - FLAC\CD6\11 - St. Petersburg Chamber Choir, Nikolai Korniev - Les Vêpres - Velichit Dusha Moya Gospoda.wav

Peak level 96.6 %
Extraction speed 2.3 X
Track quality 100.0 %
Test CRC 4C69CEB4
Copy CRC 4C69CEB4
Accurately ripped (confidence 3) [3609DD72] (AR v2)
Copy OK


All tracks accurately ripped

No errors occurred

End of status report

==== Log checksum D823A8B5CF44E56F8EF70596DB6F4808C132EAE74D2D62B63EC36FB4FF4D68BB ====

Thanks to the Original ripper nekoma !