Subcategories

Edith Piaf - Nostalgie: 18 chansons de cabaret (1996)

Posted By: Speedyclick
Edith Piaf - Nostalgie: 18 chansons de cabaret (1996)

Edith Piaf - Nostalgie: 18 chansons de cabaret (1996)
EAC Rip | FLAC (image & cue & log) & mp3 @ 320 kbps | tracks: 18 | Scans | 1:01:11 | ~ 233 Mb & 156 Mb
Label: Hallmark | 5% recovery record | Original recordings | Genre: chansons francaises, cabaret

Here are 18 of Edith Piaf's finest hits and classic tracks. The emotional honesty of her singing, her passion and commitment to her art, and most of all her utterly distinctive voice would propel her to international stardom after WWII, but this collection features the songs and the performances that won her forever the hearts of her own people. Enjoy the sound of the authentic early Piaf, France's "Little Sparrow".

TRACKLIST
01. C'etait une histoire d'amour
02. Un jeune homme chantait
03. Mon apero
04. Le fanion de la legion
05. L'etranger
06. Je n'en connais pas la fin
07. L'accordeoniste
08. Paris-Mediterranee
09. La java de Cezigue
10. C'est lui que mon coeur a choisi
11. Le grand voyage du pauvre negre
12. Les hiboux
13. Elle frequentait la rue Pigalle
14. Mon legionnaire
15. Les momes de la cloche
16. J'ai danse avec l'amour
17. J'suis mordue
18. Reste

Exact Audio Copy V1.0 beta 3 from 29. August 2011

EAC extraction logfile from 11. November 2011, 17:07

Edith Piaf / Nostalgie

Used drive : HL-DT-STDVDRAM GSA-T20N Adapter: 1 ID: 0

Read mode : Secure
Utilize accurate stream : Yes
Defeat audio cache : Yes
Make use of C2 pointers : No

Read offset correction : 667
Overread into Lead-In and Lead-Out : No
Fill up missing offset samples with silence : Yes
Delete leading and trailing silent blocks : No
Null samples used in CRC calculations : Yes
Used interface : Native Win32 interface for Win NT & 2000

Used output format : User Defined Encoder
Selected bitrate : 1024 kBit/s
Quality : High
Add ID3 tag : No
Command line compressor : C:\Program Files\Exact Audio Copy\Flac\flac.exe
Additional command line options : -V -5 -T "artist=%artist%" -T "title=%title%" -T "album=%albumtitle%" -T "tracknumber=%tracknr2%" -T "genre=%genre%" -5 %source%


TOC of the extracted CD

Track | Start | Length | Start sector | End sector
––––––––––––––––––––––––––––-
1 | 0:00.32 | 4:29.08 | 32 | 20214
2 | 4:29.40 | 2:56.05 | 20215 | 33419
3 | 7:25.45 | 3:39.65 | 33420 | 49909
4 | 11:05.35 | 3:27.35 | 49910 | 65469
5 | 14:32.70 | 3:27.47 | 65470 | 81041
6 | 18:00.42 | 3:17.38 | 81042 | 95854
7 | 21:18.05 | 3:09.27 | 95855 | 110056
8 | 24:27.32 | 3:07.35 | 110057 | 124116
9 | 27:34.67 | 3:04.35 | 124117 | 137951
10 | 30:39.27 | 3:22.28 | 137952 | 153129
11 | 34:01.55 | 3:46.52 | 153130 | 170131
12 | 37:48.32 | 3:26.23 | 170132 | 185604
13 | 41:14.55 | 3:35.35 | 185605 | 201764
14 | 44:50.15 | 3:32.12 | 201765 | 217676
15 | 48:22.27 | 3:21.35 | 217677 | 232786
16 | 51:43.62 | 3:19.60 | 232787 | 247771
17 | 55:03.47 | 3:05.43 | 247772 | 261689
18 | 58:09.15 | 3:02.67 | 261690 | 275406


Range status and errors

Selected range

Filename M:\EAC Rips\HENRI BEZA\Edith Piaf - Nostalgie\Edith Piaf - Nostalgie.wav

Peak level 95.1 %
Extraction speed 3.6 X
Range quality 100.0 %
Test CRC 442583BB
Copy CRC 442583BB
Copy OK

No errors occurred


AccurateRip summary

Track 1 not present in database
Track 2 not present in database
Track 3 not present in database
Track 4 not present in database
Track 5 not present in database
Track 6 not present in database
Track 7 not present in database
Track 8 not present in database
Track 9 not present in database
Track 10 not present in database
Track 11 not present in database
Track 12 not present in database
Track 13 not present in database
Track 14 not present in database
Track 15 not present in database
Track 16 not present in database
Track 17 not present in database
Track 18 not present in database

None of the tracks are present in the AccurateRip database

End of status report

–– CUETools DB Plugin V2.1.3

[CTDB TOCID: KP2Y0x1eoC95XuYEz991yib7V54-] disk not present in database, Submit result: KP2Y0x1eoC95XuYEz991yib7V54- has been uploaded


==== Log checksum A46698B62EC11B1F27970E1777A850E53900AEE4F6B875AFD4D8732739EFF82C ====