Subcategories

Edu Passeto & Gui Tavares - Noite Que Brincou De Lua (1981/2018)

Posted By: aasana
Edu Passeto & Gui Tavares - Noite Que Brincou De Lua (1981/2018)

Edu Passeto & Gui Tavares - Noite Que Brincou De Lua (1981/2018)
EAC Rip | FLAC (tracks+.cue+.log+.m3u) | 33:54 min | 198 MB
Fusion, Samba, Jazz, Latin, Funk / Soul | Label: Amendoim, Far Out Recordings

A Brazilian duo with a really wonderful sound – one that manages to merge acoustic instrumentation, vocal harmonies, and some light electric touches – all with a sound that's both jazzy and folksy at the same time! Edu Passeto and Gui Tavares have this unique vibe that maybe reminds us a bit of some of the Quarto Records material at the end of the 60s – and a warmth that might put them somewhere in the territory of Joyce – but, as with so many one of a kind Brazilian records from the golden years, there's something going on here that's very much its own – and which makes this obscure indie treasure the kind of record you'll keep going back to over the years, finding something new every time. Titles include "Vento Me Traz", "Canto Livre", "Heroi De Jornal", "Noite Que Brincou De Lua", "Seguir", and "Menino De Pindorama".

Tracklist:
01. Edu Passeto & Gui Tavares - Noite Que Brincou De Lua
02. Edu Passeto & Gui Tavares - Sabiá Na Palmeira
03. Edu Passeto & Gui Tavares - Seguir
04. Edu Passeto & Gui Tavares - Fogo Grande
05. Edu Passeto & Gui Tavares - Herói De Jornal
06. Edu Passeto & Gui Tavares - Menino De Pindorama
07. Edu Passeto & Gui Tavares - Canto Livre
08. Edu Passeto & Gui Tavares - Descobrir
09. Edu Passeto & Gui Tavares - Baca Sará
10. Edu Passeto & Gui Tavares - Profome
11. Edu Passeto & Gui Tavares - Vento Me Traz

Exact Audio Copy V1.3 from 2. September 2016

EAC extraction logfile from 2. April 2018, 23:17

Edu Passeto & Gui Tavares / Noite Que Brincou De Lua

Used drive : TSSTcorpCDDVDW SN-208FB Adapter: 1 ID: 0

Read mode : Secure
Utilize accurate stream : Yes
Defeat audio cache : Yes
Make use of C2 pointers : No

Read offset correction : 6
Overread into Lead-In and Lead-Out : No
Fill up missing offset samples with silence : Yes
Delete leading and trailing silent blocks : No
Null samples used in CRC calculations : Yes
Used interface : Native Win32 interface for Win NT & 2000
Gap handling : Appended to previous track

Used output format : User Defined Encoder
Selected bitrate : 1024 kBit/s
Quality : High
Add ID3 tag : No
Command line compressor : C:\Program Files (x86)\Exact Audio Copy\FLAC\flac.exe
Additional command line options : -8 -e -p -V -T "ARTIST=%artist%" -T "TITLE=%title%" -T "ALBUM=%albumtitle%" -T "DATE=%year%" -T "TRACKNUMBER=%tracknr%" -T "GENRE=%genre%" -T "PERFORMER=%albuminterpret%" -T "COMPOSER=%composer%" %haslyrics%–tag-from-file=LYRICS="%lyricsfile%"%haslyrics% -T "ALBUMARTIST=%albumartist%" -T "DISCNUMBER=%cdnumber%" -T "TOTALDISCS=%totalcds%" -T "TOTALTRACKS=%numtracks%" -T "COMMENT=%comment%" %source% -o %dest%


TOC of the extracted CD

Track | Start | Length | Start sector | End sector
––––––––––––––––––––––––––––-
1 | 0:00.00 | 2:34.60 | 0 | 11609
2 | 2:34.60 | 3:55.56 | 11610 | 29290
3 | 6:30.41 | 3:26.62 | 29291 | 44802
4 | 9:57.28 | 3:45.26 | 44803 | 61703
5 | 13:42.54 | 2:23.17 | 61704 | 72445
6 | 16:05.71 | 3:58.29 | 72446 | 90324
7 | 20:04.25 | 1:10.29 | 90325 | 95603
8 | 21:14.54 | 4:00.11 | 95604 | 113614
9 | 25:14.65 | 2:37.53 | 113615 | 125442
10 | 27:52.43 | 2:54.00 | 125443 | 138492
11 | 30:46.43 | 3:08.30 | 138493 | 152622


Track 1

Filename C:\EAC\Edu Passeto & Gui Tavares ‎– Noite Que Brincou De Lua (2018) [FLAC] {FORDIS01}\01 - Noite Que Brincou De Lua.wav

Pre-gap length 0:00:02.00

Peak level 100.0 %
Extraction speed 2.3 X
Track quality 100.0 %
Test CRC 3C1BC060
Copy CRC 3C1BC060
Track not present in AccurateRip database
Copy OK

Track 2

Filename C:\EAC\Edu Passeto & Gui Tavares ‎– Noite Que Brincou De Lua (2018) [FLAC] {FORDIS01}\02 - Sabiá Na Palmeira.wav

Peak level 100.0 %
Extraction speed 2.6 X
Track quality 100.0 %
Test CRC 35F2FB27
Copy CRC 35F2FB27
Track not present in AccurateRip database
Copy OK

Track 3

Filename C:\EAC\Edu Passeto & Gui Tavares ‎– Noite Que Brincou De Lua (2018) [FLAC] {FORDIS01}\03 - Seguir.wav

Peak level 100.0 %
Extraction speed 2.2 X
Track quality 99.9 %
Test CRC D160F006
Copy CRC D160F006
Track not present in AccurateRip database
Copy OK

Track 4

Filename C:\EAC\Edu Passeto & Gui Tavares ‎– Noite Que Brincou De Lua (2018) [FLAC] {FORDIS01}\04 - Fogo Grande.wav

Peak level 100.0 %
Extraction speed 3.0 X
Track quality 100.0 %
Test CRC B729FC2D
Copy CRC B729FC2D
Track not present in AccurateRip database
Copy OK

Track 5

Filename C:\EAC\Edu Passeto & Gui Tavares ‎– Noite Que Brincou De Lua (2018) [FLAC] {FORDIS01}\05 - Herói De Jornal.wav

Peak level 96.1 %
Extraction speed 2.9 X
Track quality 100.0 %
Test CRC 36A4389C
Copy CRC 36A4389C
Track not present in AccurateRip database
Copy OK

Track 6

Filename C:\EAC\Edu Passeto & Gui Tavares ‎– Noite Que Brincou De Lua (2018) [FLAC] {FORDIS01}\06 - Menino De Pindorama.wav

Peak level 100.0 %
Extraction speed 2.7 X
Track quality 99.9 %
Test CRC 9FF24064
Copy CRC 9FF24064
Track not present in AccurateRip database
Copy OK

Track 7

Filename C:\EAC\Edu Passeto & Gui Tavares ‎– Noite Que Brincou De Lua (2018) [FLAC] {FORDIS01}\07 - Canto Livre.wav

Peak level 99.8 %
Extraction speed 1.6 X
Track quality 99.8 %
Test CRC 9BA66AC9
Copy CRC 9BA66AC9
Track not present in AccurateRip database
Copy OK

Track 8

Filename C:\EAC\Edu Passeto & Gui Tavares ‎– Noite Que Brincou De Lua (2018) [FLAC] {FORDIS01}\08 - Descobrir.wav

Peak level 100.0 %
Extraction speed 3.5 X
Track quality 100.0 %
Test CRC 736B7474
Copy CRC 736B7474
Track not present in AccurateRip database
Copy OK

Track 9

Filename C:\EAC\Edu Passeto & Gui Tavares ‎– Noite Que Brincou De Lua (2018) [FLAC] {FORDIS01}\09 - Baca Sará.wav

Peak level 100.0 %
Extraction speed 2.6 X
Track quality 99.9 %
Test CRC 9512233D
Copy CRC 9512233D
Track not present in AccurateRip database
Copy OK

Track 10

Filename C:\EAC\Edu Passeto & Gui Tavares ‎– Noite Que Brincou De Lua (2018) [FLAC] {FORDIS01}\10 - Profome.wav

Peak level 100.0 %
Extraction speed 3.5 X
Track quality 100.0 %
Test CRC DAE9723D
Copy CRC DAE9723D
Track not present in AccurateRip database
Copy OK

Track 11

Filename C:\EAC\Edu Passeto & Gui Tavares ‎– Noite Que Brincou De Lua (2018) [FLAC] {FORDIS01}\11 - Vento Me Traz.wav

Peak level 100.0 %
Extraction speed 3.7 X
Track quality 100.0 %
Test CRC 7C242844
Copy CRC 7C242844
Track not present in AccurateRip database
Copy OK


None of the tracks are present in the AccurateRip database

No errors occurred

End of status report

–– CUETools DB Plugin V2.1.6

[CTDB TOCID: XkXEwUrlooTzwGBUKd4RNTbfbqg-] found
Submit result: XkXEwUrlooTzwGBUKd4RNTbfbqg- has been confirmed
Track | CTDB Status
1 | (1/1) Accurately ripped
2 | (1/1) Accurately ripped
3 | (1/1) Accurately ripped
4 | (1/1) Accurately ripped
5 | (1/1) Accurately ripped
6 | (1/1) Accurately ripped
7 | (1/1) Accurately ripped
8 | (1/1) Accurately ripped
9 | (1/1) Accurately ripped
10 | (1/1) Accurately ripped
11 | (1/1) Accurately ripped


==== Log checksum D6A3B3C1DDDDF61770F6C1A5982D291A618D85F2CF9EC28602B855FD989BB6D8 ====