Subcategories

Einstürzende Neubauten - Kollaps (1981) {Potomak ‎25172 rel 2003}

Posted By: ruskaval
Einstürzende Neubauten - Kollaps (1981) {Potomak ‎25172 rel 2003}

Einstürzende Neubauten - Kollaps (1981) {Potomak ‎25172 rel 2003}
EAC rip (secure mode) | FLAC (tracks)+CUE+LOG -> 336 Mb | MP3 @320 -> 129 Mb
Full Artwork @ 600 dpi (jpg) -> 71 Mb | 5% repair rar
© 1981, 2003 ZickZack / Potomak ‎| 25172
Industrial / Experimental / Electronic / Experimental Rock / Dark Ambient

Einstürzende Neubauten's first album, as one might imagine, is their most primitive and radical effort, the purest expression of their original aesthetic. This makes the album both historically significant and conceptually intriguing, of course, but what's most interesting about this album is that it still sounds surprising decades after its release.
Einstürzende Neubauten - Kollaps (1981) {Potomak ‎25172 rel 2003}

Often, albums that are considered extreme art statements upon their debut sound almost quaint a few years later, but while Kollaps perhaps sounds less extreme to ears that heard industrial music turned into disco pabulum by the likes of Nine Inch Nails than it did before, songs like the eight-minute title track and the rumbling live closer, "Negativ Nein," are still a fascinating blend of rhythm and random bashing, tonality and atonality, with anguished vocals by Blixa Bargeld that often seem to have little connection with anything else in the piece. The brief tracks, like the 80-second "Sehnsucht," are even more extreme explorations of pure noise. Starting as early as the next album, Einstürzende Neubauten would begin slowly introducing more mainstream musical concepts into their aesthetic, making Kollaps as undiluted a listening experience as there is in the entire catalog.
Einstürzende Neubauten - Kollaps (1981) {Potomak ‎25172 rel 2003}


Personnel
Blixa Bargeld - lead vocals, guitars, noises
N.U. Unruh - percussion, vocals
F.M. Einheit - percussion, vocals

Track Listing
01 - Tanz debil
02 - Steh auf Berlin
03 - Negativ Nein
04 - U-Haft-Muzak
05 - Drauben ist feindlich
06 - Schmerzen horen
07 - Je'tm
08 - Kollaps
09 - Sehnsucht
10 - Vorm Krieg
11 - Hirnsage
12 - Abstieg e Zerfall
13 - Helga
14 - Schieb euch ins Blut
15 - Rohrbombe [Stahldubversion]
16 - Futuristischer Dub [Stahldubversion]
17 - Sado-Masodub [Stahldubversion]
18 - Liebesdub [Stahldubversion]
19 - Spionagedub [Stahldubversion]
20 - Mikrobendub [Stahldubversion]
21 - Gastarbeiterdub [Stahldubversion]
22 - Rivieradub [Stahldubversion]
23 - Lunebest [Stahldubversion]

Exact Audio Copy V1.0 beta 3 from 29. August 2011

EAC extraction logfile from 20. June 2014, 18:01

Einsturzende Neubauten / Kollaps

Used drive : HL-DT-STDVD+-RW GT80N Adapter: 0 ID: 0

Read mode : Secure
Utilize accurate stream : Yes
Defeat audio cache : Yes
Make use of C2 pointers : No

Read offset correction : 102
Overread into Lead-In and Lead-Out : No
Fill up missing offset samples with silence : Yes
Delete leading and trailing silent blocks : No
Null samples used in CRC calculations : Yes
Used interface : Native Win32 interface for Win NT & 2000
Gap handling : Appended to previous track

Used output format : User Defined Encoder
Selected bitrate : 128 kBit/s
Quality : High
Add ID3 tag : No
Command line compressor : C:\Program Files (x86)\Exact Audio Copy\FLAC\FLAC.EXE
Additional command line options : -8 -V -T "ARTIST=%artist%" -T "TITLE=%title%" -T "ALBUM=%albumtitle%" -T "DATE=%year%" -T "TRACKNUMBER=%tracknr%" -T "TOTALTRACKS=%numtracks%" -T "GENRE=%genre%" -T "ALBUMARTIST=%albumartist%" -T "ALBUM ARTIST=%albumartist%" -T "COMMENT=EAC Secure Mode, Test & Copy, AccurateRip, FLAC -8" %source%


TOC of the extracted CD

Track | Start | Length | Start sector | End sector
––––––––––––––––––––––––––––-
1 | 0:00.00 | 3:23.01 | 0 | 15225
2 | 3:23.01 | 3:46.50 | 15226 | 32225
3 | 7:09.51 | 2:27.17 | 32226 | 43267
4 | 9:36.68 | 3:40.49 | 43268 | 59816
5 | 13:17.42 | 0:48.71 | 59817 | 63487
6 | 14:06.38 | 2:31.66 | 63488 | 74878
7 | 16:38.29 | 1:24.33 | 74879 | 81211
8 | 18:02.62 | 8:03.45 | 81212 | 117481
9 | 26:06.32 | 1:21.22 | 117482 | 123578
10 | 27:27.54 | 0:20.30 | 123579 | 125108
11 | 27:48.09 | 1:54.62 | 125109 | 133720
12 | 29:42.71 | 4:28.24 | 133721 | 153844
13 | 34:11.20 | 0:38.69 | 153845 | 156763
14 | 34:50.14 | 3:05.67 | 156764 | 170705
15 | 37:56.06 | 1:02.32 | 170706 | 175387
16 | 38:58.38 | 1:03.23 | 175388 | 180135
17 | 40:01.61 | 3:10.65 | 180136 | 194450
18 | 43:12.51 | 1:29.28 | 194451 | 201153
19 | 44:42.04 | 2:11.51 | 201154 | 211029
20 | 46:53.55 | 1:46.24 | 211030 | 219003
21 | 48:40.04 | 2:46.70 | 219004 | 231523
22 | 51:26.74 | 2:46.11 | 231524 | 243984
23 | 54:13.10 | 1:57.72 | 243985 | 252831


Track 1

Filename C:\Users\porcupine\Desktop\EAC\01 - Tanz debil.wav

Pre-gap length 0:00:02.00

Peak level 100.0 %
Extraction speed 2.6 X
Track quality 100.0 %
Test CRC A58C1298
Copy CRC A58C1298
Accurately ripped (confidence 13) [10B530D0] (AR v2)
Copy OK

Track 2

Filename C:\Users\porcupine\Desktop\EAC\02 - Steh auf Berlin.wav

Pre-gap length 0:00:01.60

Peak level 100.0 %
Extraction speed 2.9 X
Track quality 100.0 %
Test CRC 363D4C34
Copy CRC 363D4C34
Accurately ripped (confidence 13) [A1E70F8F] (AR v2)
Copy OK

Track 3

Filename C:\Users\porcupine\Desktop\EAC\03 - Negativ Nein.wav

Pre-gap length 0:00:02.11

Peak level 100.0 %
Extraction speed 2.9 X
Track quality 100.0 %
Test CRC 3EE447C6
Copy CRC 3EE447C6
Accurately ripped (confidence 13) [FA74C9FD] (AR v2)
Copy OK

Track 4

Filename C:\Users\porcupine\Desktop\EAC\04 - U-Haft-Muzak.wav

Pre-gap length 0:00:03.19

Peak level 100.0 %
Extraction speed 3.3 X
Track quality 100.0 %
Test CRC A288DE2D
Copy CRC A288DE2D
Accurately ripped (confidence 13) [C83E3D63] (AR v2)
Copy OK

Track 5

Filename C:\Users\porcupine\Desktop\EAC\05 - Drauben ist feindlich.wav

Pre-gap length 0:00:03.66

Peak level 100.0 %
Extraction speed 2.3 X
Track quality 100.0 %
Test CRC 0379048A
Copy CRC 0379048A
Accurately ripped (confidence 13) [0C92D6E1] (AR v2)
Copy OK

Track 6

Filename C:\Users\porcupine\Desktop\EAC\06 - Schmerzen horen.wav

Pre-gap length 0:00:01.00

Peak level 100.0 %
Extraction speed 3.3 X
Track quality 100.0 %
Test CRC A9095594
Copy CRC A9095594
Accurately ripped (confidence 13) [42BF789E] (AR v2)
Copy OK

Track 7

Filename C:\Users\porcupine\Desktop\EAC\07 - Je'tm.wav

Peak level 94.5 %
Extraction speed 3.0 X
Track quality 100.0 %
Test CRC 4B2B3A77
Copy CRC 4B2B3A77
Accurately ripped (confidence 13) [53DBAEC3] (AR v2)
Copy OK

Track 8

Filename C:\Users\porcupine\Desktop\EAC\08 - Kollaps.wav

Pre-gap length 0:00:03.16

Peak level 100.0 %
Extraction speed 4.2 X
Track quality 100.0 %
Test CRC 553DF6F1
Copy CRC 553DF6F1
Accurately ripped (confidence 13) [0C77E0E3] (AR v2)
Copy OK

Track 9

Filename C:\Users\porcupine\Desktop\EAC\09 - Sehnsucht.wav

Pre-gap length 0:00:03.21

Peak level 100.0 %
Extraction speed 2.1 X
Track quality 99.8 %
Test CRC 54DA0C94
Copy CRC 54DA0C94
Accurately ripped (confidence 13) [ACEA235B] (AR v2)
Copy OK

Track 10

Filename C:\Users\porcupine\Desktop\EAC\10 - Vorm Krieg.wav

Pre-gap length 0:00:02.46

Peak level 100.0 %
Extraction speed 1.7 X
Track quality 100.0 %
Test CRC 6DCB1D1F
Copy CRC 6DCB1D1F
Accurately ripped (confidence 13) [102E4780] (AR v2)
Copy OK

Track 11

Filename C:\Users\porcupine\Desktop\EAC\11 - Hirnsage.wav

Pre-gap length 0:00:00.47

Peak level 100.0 %
Extraction speed 2.5 X
Track quality 99.9 %
Test CRC 49637B21
Copy CRC 49637B21
Accurately ripped (confidence 13) [BC65B3FF] (AR v2)
Copy OK

Track 12

Filename C:\Users\porcupine\Desktop\EAC\12 - Abstieg e Zerfall.wav

Pre-gap length 0:00:06.10

Peak level 100.0 %
Extraction speed 4.5 X
Track quality 100.0 %
Test CRC F0FC4152
Copy CRC F0FC4152
Accurately ripped (confidence 13) [D46AA472] (AR v2)
Copy OK

Track 13

Filename C:\Users\porcupine\Desktop\EAC\13 - Helga.wav

Peak level 100.0 %
Extraction speed 2.7 X
Track quality 100.0 %
Test CRC 508016A6
Copy CRC 508016A6
Accurately ripped (confidence 13) [62BC953D] (AR v2)
Copy OK

Track 14

Filename C:\Users\porcupine\Desktop\EAC\14 - Schieb euch ins Blut.wav

Pre-gap length 0:00:29.64

Peak level 100.0 %
Extraction speed 3.4 X
Track quality 99.9 %
Test CRC 5CFF1768
Copy CRC 5CFF1768
Accurately ripped (confidence 13) [428F3BF2] (AR v2)
Copy OK

Track 15

Filename C:\Users\porcupine\Desktop\EAC\15 - Rohrbombe [Stahldubversion].wav

Pre-gap length 0:00:29.64

Peak level 86.7 %
Extraction speed 2.0 X
Track quality 99.8 %
Test CRC 4B367E5D
Copy CRC 4B367E5D
Accurately ripped (confidence 13) [C5744838] (AR v2)
Copy OK

Track 16

Filename C:\Users\porcupine\Desktop\EAC\16 - Futuristischer Dub [Stahldubversion].wav

Pre-gap length 0:00:04.27

Peak level 100.0 %
Extraction speed 3.3 X
Track quality 100.0 %
Test CRC 88FEE759
Copy CRC 88FEE759
Accurately ripped (confidence 13) [B9527C2E] (AR v2)
Copy OK

Track 17

Filename C:\Users\porcupine\Desktop\EAC\17 - Sado-Masodub [Stahldubversion].wav

Pre-gap length 0:00:05.40

Peak level 77.5 %
Extraction speed 3.5 X
Track quality 99.9 %
Test CRC 6E9596A1
Copy CRC 6E9596A1
Accurately ripped (confidence 13) [CBA5EA2A] (AR v2)
Copy OK

Track 18

Filename C:\Users\porcupine\Desktop\EAC\18 - Liebesdub [Stahldubversion].wav

Pre-gap length 0:00:02.14

Peak level 100.0 %
Extraction speed 3.7 X
Track quality 100.0 %
Test CRC 1ED89263
Copy CRC 1ED89263
Accurately ripped (confidence 13) [CCC69392] (AR v2)
Copy OK

Track 19

Filename C:\Users\porcupine\Desktop\EAC\19 - Spionagedub [Stahldubversion].wav

Pre-gap length 0:00:03.31

Peak level 100.0 %
Extraction speed 3.9 X
Track quality 100.0 %
Test CRC FF0078E1
Copy CRC FF0078E1
Accurately ripped (confidence 13) [33590B09] (AR v2)
Copy OK

Track 20

Filename C:\Users\porcupine\Desktop\EAC\20 - Mikrobendub [Stahldubversion].wav

Pre-gap length 0:00:03.29

Peak level 100.0 %
Extraction speed 3.7 X
Track quality 100.0 %
Test CRC 7D231CAE
Copy CRC 7D231CAE
Accurately ripped (confidence 13) [008E6988] (AR v2)
Copy OK

Track 21

Filename C:\Users\porcupine\Desktop\EAC\21 - Gastarbeiterdub [Stahldubversion].wav

Pre-gap length 0:00:04.18

Peak level 84.2 %
Extraction speed 4.0 X
Track quality 100.0 %
Test CRC 27BD20BC
Copy CRC 27BD20BC
Accurately ripped (confidence 13) [E93FD6EC] (AR v2)
Copy OK

Track 22

Filename C:\Users\porcupine\Desktop\EAC\22 - Rivieradub [Stahldubversion].wav

Pre-gap length 0:00:00.06

Peak level 84.8 %
Extraction speed 4.3 X
Track quality 100.0 %
Test CRC 7D1EFBF8
Copy CRC 7D1EFBF8
Accurately ripped (confidence 13) [85F904CF] (AR v2)
Copy OK

Track 23

Filename C:\Users\porcupine\Desktop\EAC\23 - Lunebest [Stahldubversion].wav

Pre-gap length 0:00:04.29

Peak level 100.0 %
Extraction speed 4.0 X
Track quality 100.0 %
Test CRC 7AD307F6
Copy CRC 7AD307F6
Accurately ripped (confidence 13) [5D1E5C37] (AR v2)
Copy OK


All tracks accurately ripped

No errors occurred

End of status report

==== Log checksum 4410FA6516532904949330A3A5B9601F308CC4FCD8BB70508BAAFDB6AFD11DA1 ====


Einstürzende Neubauten - Kollaps (1981) {Potomak ‎25172 rel 2003}

Einstürzende Neubauten - Kollaps (1981) {Potomak ‎25172 rel 2003}



===