Subcategories

Elegant Simplicity - The Story Of Our Lives (2000)

Posted By: Domestos
Elegant Simplicity - The Story Of Our Lives (2000)

Elegant Simplicity - The Story Of Our Lives (2000)
EAC Rip | FLAC (image+.cue, log) ~ 300.82 Mb | 47:48 | Cover
Neo-Prog | Country: UK | Label: Proximity Records - ESCD 12

Featuring one large scale composition (divided into 12 chunks for easy location of favourite bits!), this conceptual piece is a real tour de force of musical styles. Featuring epic guitar and keyboard solos, Japanese influenced mellow bits and full-on symphonic extravagance, this album is not to be missed!

- Steven McCabe / guitars, keyboards
- Christopher Knight / drums
- Ken Senior / bass, acoustic guitar, vocals

Track List:
1. Part I - First meeting (2:29)
2. Part II - Behind the glances: first look (6:21)
3. Part III - Anguish and betrayal (6:08)
4. Part IV - Fluttering heart (1:47)
5. Part V - Sleepless: episode one (4:56)
6. Part VI - It all starts here (4:53)
7. Part VII - Second meeting (4:47)
8. Part VIII - Sleepless: episode two (3:12)
9. Part IX - In your presence (1:45)
10. Part X - Realisation (2:02)
11. Part XI - Behind the glances: second look (5:13)
12. Part XII - More than goodbye (4:15)

Exact Audio Copy V1.0 beta 4 from 7. December 2014

Отчёт EAC об извлечении, выполненном 22. февраля 2018, 16:06

Elegant Simplicity / The Story Of Our Lives

Дисковод: HL-DT-STDVDRAM GU71N Adapter: 1 ID: 0

Режим чтения : Достоверность
Использование точного потока : Да
Отключение кэша аудио : Да
Использование указателей C2 : Нет

Коррекция смещения при чтении : 6
Способность читать области Lead-in и Lead-out : Нет
Заполнение пропущенных сэмплов тишиной : Да
Удаление блоков с тишиной в начале и конце : Нет
При вычислениях CRC использовались нулевые сэмплы : Да
Интерфейс : Встроенный Win32-интерфейс для Win NT/2000

Выходной формат : Пользовательский кодировщик
Выбранный битрейт : 768 kBit/s
Качество : Высокий
Добавление ID3-тега : Нет
Утилита сжатия : C:\Program Files (x86)\Exact Audio Copy\FLAC\FLAC.EXE
Дополнительные параметры : -V -8 -T "Date=%year%" -T "Genre=%genre%" %source%

TOC извлечённого CD

Трек | Старт | Длительность | Начальный сектор | Конечный сектор
––––––––––––––––––––––––––––––––––-
1 | 0:00.00 | 2:29.35 | 0 | 11209
2 | 2:29.35 | 6:22.64 | 11210 | 39923
3 | 8:52.24 | 6:06.10 | 39924 | 67383
4 | 14:58.34 | 1:47.58 | 67384 | 75466
5 | 16:46.17 | 4:56.34 | 75467 | 97700
6 | 21:42.51 | 4:54.35 | 97701 | 119785
7 | 26:37.11 | 4:47.25 | 119786 | 141335
8 | 31:24.36 | 3:12.05 | 141336 | 155740
9 | 34:36.41 | 1:45.69 | 155741 | 163684
10 | 36:22.35 | 2:02.42 | 163685 | 172876
11 | 38:25.02 | 5:14.30 | 172877 | 196456
12 | 43:39.32 | 4:14.18 | 196457 | 215524

Характеристики диапазона извлечения и сообщения об ошибках

Выбранный диапазон

Имя файла D:\Users\User\Documents\Elegant Simplicity - The Story Of Our Lives.wav

Пиковый уровень 100.0 %
Скорость извлечения 4.5 X
Качество диапазона 100.0 %
CRC теста C6AF4092
CRC копии C6AF4092
Копирование… OK

Ошибок не произошло

AccurateRip: сводка

Трек 1 : извлечено точно (доверие 1) [A5E33F29] (AR v1)
Трек 2 : извлечено точно (доверие 1) [33F5C541] (AR v1)
Трек 3 : извлечено точно (доверие 1) [87963F9A] (AR v1)
Трек 4 : извлечено точно (доверие 1) [72C34D25] (AR v1)
Трек 5 : извлечено точно (доверие 1) [41545AEE] (AR v1)
Трек 6 : извлечено точно (доверие 1) [5636D9B5] (AR v1)
Трек 7 : извлечено точно (доверие 1) [D241495E] (AR v1)
Трек 8 : извлечено точно (доверие 1) [42B5E36C] (AR v1)
Трек 9 : извлечено точно (доверие 1) [C76FC2AB] (AR v1)
Трек 10 : извлечено точно (доверие 1) [1C3A95F3] (AR v1)
Трек 11 : извлечено точно (доверие 1) [F9C87BB8] (AR v1)
Трек 12 : извлечено точно (доверие 1) [57ACA3DA] (AR v1)

Все треки извлечены точно

Конец отчёта

==== Контрольная сумма отчёта 42940DF5D338E27B9FB597F4826BDF05D21CFA5E18005EE262625704948BCDB8 ====

All thanks go to the ringo13

More Music in My Blog
Follow My RSS Channel