Subcategories

Eleni Karaindrou - Mousiki gia tainies (Music for Films) (2001) {5CD Box Set Minos-EMI 724353775223}

Posted By: ruskaval
Eleni Karaindrou - Mousiki gia tainies (Music for Films) (2001) {5CD Box Set Minos-EMI 724353775223}

Eleni Karaindrou - Mousiki gia tainies (Music for Films) (2001) {5CD Box Set Minos-EMI 724353775223}
EAC rip (secure mode) | FLAC (tracks)+CUE+LOG -> 949 Mb | MP3 @320 -> 458 Mb
Full Artwork @ 300 dpi (jpg) -> 38 Mb | 5% repair rar
© 2001 Minos / EMI | 724353775223
Stage & Screen / Classical / Film Music / Jazz / Soundtracks / World Music

Once we are aware that certain music has been written for film, it’s easy to wax poetic about said music’s visual associations. Yet I believe that one needn’t be aware of Greek composer Eleni Karaindrou’s filmic motivations in order to feel it in the same way, for hers imagines, recites, and sings the lament of a zeitgeist in decay.

Karaindrou’s themes are potent yet familiar, even (if not especially) to those who’ve never heard them before. Brimming with tragedy and triumph alike, this is music not only for the fictional, but also for real strangers crossing paths in a world of mist and shadows.

Eleni Karaindrou - Mousiki gia tainies (Music for Films) (2001) {5CD Box Set Minos-EMI 724353775223}


"Karaindrou gives us the change to dream", one critic wrote, a succinct enough summary of "Mousiki gia tainies", as long as one holds in mind that in dreams begin responsibilities. Challenging her own imagination to anchor or spur the images of the directors she had collaborated with, she encourages ours to awaken and probe with her "the landscape, seascape and soulscape of the modern Hellenic world." For Karaindrou there is no escaping it. "Wherever I travel", she says, quoting Seferis once more, "Greece keeps wounding me."

Eleni Karaindrou's scores are never less than beautiful and more than able to stand apart from the films for which they were written. In 2001, MINOS/EMI has re-released in a 5cd boxset the original soundtrack of five of Karaindrou's most delightful scores from the 1980's, with different artwork and rich informative material text by George Haronitis. The five scores which are included in this set, apart of showing the evolutionary progress of Karaindrou as a composer during the '80s, they represent a complete and rich musical cycle. In this 5cd boxset has been contained the Greek edition of "The Suspended Step of the Stork - 1992" which differs from the international version of the ECM because it contains the song with Xaris Alexiou "Panselinos o erotas" ( "Full moon love" ) which was not allowed to be included to the ECM release.
Eleni Karaindrou - Mousiki gia tainies (Music for Films) (2001) {5CD Box Set Minos-EMI 724353775223}


Personnel:
Eleni Karaindrou piano, music
Dimitra Galani vocals
George Dalaras vocals
Jan Garbarek tenor saxophone
Vaggelis Boudounis guitar
Stella Kypraiou guitar
Petros Protopappas flute
Nikos Ginos clarinet
Vaggelis Skouras corno
Dimitris Vraskos violin
Giorgos Despotidis violin
Hristos Sfetsas cello
Tasos Soutis acoustic bass
Vaggelis Christopoulos oboe
Sokratis Anthis trumpet
David Lynch tenor sax
Nikos Antipas drums
Takis Farazis piano
Panos Gekas keyboards
Anta Rouva harp
Andreas Tsekouras accordeon
and others…

Eleni Karaindrou - Mousiki gia tainies (Music for Films) (2001) {5CD Box Set Minos-EMI 724353775223}


tracklist:
CD1 - 1983 | Η τιμή της Αγάπης (The Price of Love)
a film by Tonia Marketaki

1. I timi tis agapis (Dimitra Galani)
2. To perasma tou hronou
3. Taverna 1
4. Kantouni
5. Litrouvio
6. Rini
7. To proto vlemma
8. Monahiki kithara
9. Taverna B
10. Kantada paralias
11. To perasma tou hronou
12. I apofasi
13 Erotiko A
14. Eisagogi ston karnavalo
15. Monahiko violi
16. Lathremporio
17. Kaiki
18. To perasma tou hronou
19. Ta fylla
20. Erotiko B
21. I dini
22. I timi tis agapis (Dimitra Galani)

Eleni Karaindrou - Mousiki gia tainies (Music for Films) (2001) {5CD Box Set Minos-EMI 724353775223}

Eleni Karaindrou - Mousiki gia tainies (Music for Films) (2001) {5CD Box Set Minos-EMI 724353775223}


CD2 - 1984 | Ταξίδι στα Κύθηρα (Voyage to Cythera)
a film by Theo Angelopoulos

1. Oniro - Taxidi
2. Conserto - Alexander's theme
3. Blues - Periplanisi sti poli
4. Thema tou horiou
5. Taxidi - fuge
6. Voyage to Cythera (George Dalaras)
7. To rock tis Mobil
8. Thema tou horiou
9. Concerto - I apofasi

Eleni Karaindrou - Mousiki gia tainies (Music for Films) (2001) {5CD Box Set Minos-EMI 724353775223}

Eleni Karaindrou - Mousiki gia tainies (Music for Films) (2001) {5CD Box Set Minos-EMI 724353775223}


CD3 - 1986 | Ο Μελισσοκόμος (The Beekeeper)
a film by Theo Angelopoulos

1. To petagma - Aftoshediasmos
2. To vals tou gamou
3. Thema tou apoheretismou & vals
4. Thema tou apohererismou
5. To rock tis kadinas
6. Kravgi
7. Thema tou apoheretismou parallagi A
8. Nanourisma
9. Aftoshediasmos sta dio themata
10. Thema tou apoheretismou Parallagi B
11. I'll hit the roads (Julie Massino)
12. Ta vourkomena matia mou (George Dalaras)
13. To Vals
14. Vals Thema tou apoheretismou
15. I siopi Thema tou apoheretismou

Eleni Karaindrou - Mousiki gia tainies (Music for Films) (2001) {5CD Box Set Minos-EMI 724353775223}

Eleni Karaindrou - Mousiki gia tainies (Music for Films) (2001) {5CD Box Set Minos-EMI 724353775223}


CD4 - 1990 | L' Africana
a fim by Margarethe Von Trotta

1. Titli kai oniro tis Annas
2. To tilegrafima, Blues tou Victor
3. Eklar Mir, Liebe, Thema tou parelthontos
4. Teletourgiko
5. I Martha thimate
6. O Victor skeftete ti Martha
7. Thema tou horou - Prodosia
8. Blues tou Victor
9. Ksanavriskontas to pathos
10. Thema tis pigis ke ton Menhira
11. To ksipnima tis Annas
12. Aerodromio, Thema tou parelthontos
13. O Svinarsky ta kseri ola, Blues
14. Thema tou horou - Finale

Eleni Karaindrou - Mousiki gia tainies (Music for Films) (2001) {5CD Box Set Minos-EMI 724353775223}

Eleni Karaindrou - Mousiki gia tainies (Music for Films) (2001) {5CD Box Set Minos-EMI 724353775223}


CD5 - 1991 | Το μετέωρο βήμα του πελαργού (The Suspended Step of the Stork)
a film by Theo Angelopoulos

1. Titles
2. Search - Refugee's theme (Variation I)
3. Ballroom, the blues
4. Train - Car neighbourhood - Refugee's theme
5. Full Moon Love (Haris Alexiou)
6. Refugee's theme
7. Search - Refugee's theme (Variation II)
8. Waltz of the Bride
9. Search - Refugee's theme (Variation III)
10. Hassaposerviko
11. Finale

Eleni Karaindrou - Mousiki gia tainies (Music for Films) (2001) {5CD Box Set Minos-EMI 724353775223}

Eleni Karaindrou - Mousiki gia tainies (Music for Films) (2001) {5CD Box Set Minos-EMI 724353775223}


Exact Audio Copy V1.0 beta 3 from 29. August 2011

EAC extraction logfile from 26. October 2014, 18:58

Eleni Karaindrou / I Timi tis Agapis (The Price of Love)

Used drive : Optiarc DVD RW AD-7240S Adapter: 3 ID: 1

Read mode : Secure
Utilize accurate stream : Yes
Defeat audio cache : Yes
Make use of C2 pointers : No

Read offset correction : 48
Overread into Lead-In and Lead-Out : No
Fill up missing offset samples with silence : Yes
Delete leading and trailing silent blocks : No
Null samples used in CRC calculations : Yes
Used interface : Installed external ASPI interface
Gap handling : Appended to previous track

Used output format : User Defined Encoder
Selected bitrate : 896 kBit/s
Quality : High
Add ID3 tag : No
Command line compressor : C:\Program Files\Exact Audio Copy\Flac\flac.exe
Additional command line options : -8 -V -T "ARTIST=%artist%" -T "TITLE=%title%" -T "ALBUM=%albumtitle%" -T "DATE=%year%" -T "TRACKNUMBER=%tracknr%" -T "TOTALTRACKS=%numtracks%" -T "GENRE=%genre%" -T "ALBUMARTIST=%albumartist%" -T "ALBUM ARTIST=%albumartist%" -T "COMMENT=EAC Secure Mode, Test & Copy, AccurateRip, FLAC -8" %source%


TOC of the extracted CD

Track | Start | Length | Start sector | End sector
––––––––––––––––––––––––––––-
1 | 0:00.00 | 2:53.31 | 0 | 13005
2 | 2:53.31 | 1:07.38 | 13006 | 18068
3 | 4:00.69 | 1:39.69 | 18069 | 25562
4 | 5:40.63 | 1:30.12 | 25563 | 32324
5 | 7:11.00 | 1:43.29 | 32325 | 40078
6 | 8:54.29 | 2:00.11 | 40079 | 49089
7 | 10:54.40 | 1:02.28 | 49090 | 53767
8 | 11:56.68 | 0:57.47 | 53768 | 58089
9 | 12:54.40 | 1:19.69 | 58090 | 64083
10 | 14:14.34 | 2:39.27 | 64084 | 76035
11 | 16:53.61 | 0:51.37 | 76036 | 79897
12 | 17:45.23 | 2:00.36 | 79898 | 88933
13 | 19:45.59 | 3:25.20 | 88934 | 104328
14 | 23:11.04 | 3:34.55 | 104329 | 120433
15 | 26:45.59 | 1:19.64 | 120434 | 126422
16 | 28:05.48 | 1:36.35 | 126423 | 133657
17 | 29:42.08 | 2:34.44 | 133658 | 145251
18 | 32:16.52 | 0:52.30 | 145252 | 149181
19 | 33:09.07 | 2:11.02 | 149182 | 159008
20 | 35:20.09 | 1:00.69 | 159009 | 163577
21 | 36:21.03 | 0:45.60 | 163578 | 167012
22 | 37:06.63 | 2:25.41 | 167013 | 177928


Track 1

Filename F:\AneL\MY RIPS\01 - I timi tis Agapis (Dimitra Galani).wav

Pre-gap length 0:00:02.00

Peak level 90.6 %
Extraction speed 2.3 X
Track quality 100.0 %
Test CRC C280942A
Copy CRC C280942A
Accurately ripped (confidence 1) [5DF2EE68] (AR v1)
Copy OK

Track 2

Filename F:\AneL\MY RIPS\02 - To perasma tou xronou.wav

Peak level 70.8 %
Extraction speed 1.9 X
Track quality 100.0 %
Test CRC 1E3AC83D
Copy CRC 1E3AC83D
Accurately ripped (confidence 1) [2BE933F8] (AR v1)
Copy OK

Track 3

Filename F:\AneL\MY RIPS\03 - Taverna A.wav

Peak level 97.7 %
Extraction speed 1.7 X
Track quality 99.8 %
Test CRC 9AD04B1B
Copy CRC 9AD04B1B
Accurately ripped (confidence 1) [FA16F61E] (AR v1)
Copy OK

Track 4

Filename F:\AneL\MY RIPS\04 - Kantouni.wav

Peak level 60.2 %
Extraction speed 2.2 X
Track quality 100.0 %
Test CRC 9221C431
Copy CRC 9221C431
Accurately ripped (confidence 1) [C7F66ECF] (AR v1)
Copy OK

Track 5

Filename F:\AneL\MY RIPS\05 - Litrouvio.wav

Peak level 97.7 %
Extraction speed 2.4 X
Track quality 100.0 %
Test CRC E416E150
Copy CRC E416E150
Accurately ripped (confidence 1) [E8D15717] (AR v1)
Copy OK

Track 6

Filename F:\AneL\MY RIPS\06 - Rini.wav

Peak level 56.9 %
Extraction speed 2.0 X
Track quality 99.9 %
Test CRC FE825135
Copy CRC FE825135
Accurately ripped (confidence 1) [07690F19] (AR v1)
Copy OK

Track 7

Filename F:\AneL\MY RIPS\07 - To proto vlemma.wav

Peak level 40.6 %
Extraction speed 1.5 X
Track quality 99.8 %
Test CRC 31CCCBEC
Copy CRC 31CCCBEC
Accurately ripped (confidence 1) [F654DCE1] (AR v1)
Copy OK

Track 8

Filename F:\AneL\MY RIPS\08 - Monaxiki kithara.wav

Peak level 75.8 %
Extraction speed 2.1 X
Track quality 100.0 %
Test CRC 5AC44BC7
Copy CRC 5AC44BC7
Accurately ripped (confidence 1) [060EFE68] (AR v1)
Copy OK

Track 9

Filename F:\AneL\MY RIPS\09 - Taverna B.wav

Peak level 77.9 %
Extraction speed 2.4 X
Track quality 100.0 %
Test CRC 121C44A2
Copy CRC 121C44A2
Accurately ripped (confidence 1) [D881AECF] (AR v1)
Copy OK

Track 10

Filename F:\AneL\MY RIPS\10 - Kantada paralias.wav

Peak level 48.6 %
Extraction speed 2.5 X
Track quality 99.9 %
Test CRC A99ADCE8
Copy CRC A99ADCE8
Accurately ripped (confidence 1) [14576A0F] (AR v1)
Copy OK

Track 11

Filename F:\AneL\MY RIPS\11 - To perasma tou xronou.wav

Peak level 71.6 %
Extraction speed 2.1 X
Track quality 100.0 %
Test CRC 0B784882
Copy CRC 0B784882
Accurately ripped (confidence 1) [075E9FDB] (AR v1)
Copy OK

Track 12

Filename F:\AneL\MY RIPS\12 - I apofasi.wav

Peak level 97.7 %
Extraction speed 2.4 X
Track quality 99.9 %
Test CRC BE5880A5
Copy CRC BE5880A5
Accurately ripped (confidence 1) [C4867DB3] (AR v1)
Copy OK

Track 13

Filename F:\AneL\MY RIPS\13 - Erotiko A.wav

Peak level 80.6 %
Extraction speed 3.4 X
Track quality 100.0 %
Test CRC DFD8C826
Copy CRC DFD8C826
Accurately ripped (confidence 1) [815F4C74] (AR v1)
Copy OK

Track 14

Filename F:\AneL\MY RIPS\14 - Eisagogi ston Karnavalo - Karnavalos.wav

Peak level 68.5 %
Extraction speed 3.5 X
Track quality 100.0 %
Test CRC DA992617
Copy CRC DA992617
Accurately ripped (confidence 1) [C25E2E3E] (AR v1)
Copy OK

Track 15

Filename F:\AneL\MY RIPS\15 - Monaxiko violi - I monaxia tis Rinis.wav

Peak level 44.6 %
Extraction speed 3.0 X
Track quality 100.0 %
Test CRC 7614EF30
Copy CRC 7614EF30
Accurately ripped (confidence 1) [66C9A9AF] (AR v1)
Copy OK

Track 16

Filename F:\AneL\MY RIPS\16 - Lathremporio.wav

Peak level 66.8 %
Extraction speed 3.1 X
Track quality 100.0 %
Test CRC 784A6793
Copy CRC 784A6793
Accurately ripped (confidence 1) [860B1E62] (AR v1)
Copy OK

Track 17

Filename F:\AneL\MY RIPS\17 - Kaiki.wav

Peak level 72.7 %
Extraction speed 3.6 X
Track quality 100.0 %
Test CRC C98FB401
Copy CRC C98FB401
Accurately ripped (confidence 1) [6D783DCE] (AR v1)
Copy OK

Track 18

Filename F:\AneL\MY RIPS\18 - To perasma tou xronou.wav

Peak level 50.9 %
Extraction speed 2.6 X
Track quality 100.0 %
Test CRC 3FD1FD65
Copy CRC 3FD1FD65
Accurately ripped (confidence 1) [69036DD6] (AR v1)
Copy OK

Track 19

Filename F:\AneL\MY RIPS\19 - Ta fylla.wav

Peak level 97.7 %
Extraction speed 3.6 X
Track quality 100.0 %
Test CRC 588C6B3D
Copy CRC 588C6B3D
Accurately ripped (confidence 1) [7591786F] (AR v1)
Copy OK

Track 20

Filename F:\AneL\MY RIPS\20 - Erotiko B.wav

Peak level 75.1 %
Extraction speed 2.9 X
Track quality 100.0 %
Test CRC D85738C3
Copy CRC D85738C3
Accurately ripped (confidence 1) [4843A35D] (AR v1)
Copy OK

Track 21

Filename F:\AneL\MY RIPS\21 - I dini.wav

Peak level 60.1 %
Extraction speed 1.8 X
Track quality 99.7 %
Test CRC CC229839
Copy CRC CC229839
Accurately ripped (confidence 1) [369587FF] (AR v1)
Copy OK

Track 22

Filename F:\AneL\MY RIPS\22 - I timi tis Agapis (Dimitra Galani).wav

Peak level 60.8 %
Extraction speed 3.9 X
Track quality 100.0 %
Test CRC DF177071
Copy CRC DF177071
Accurately ripped (confidence 1) [3025CDD6] (AR v1)
Copy OK


All tracks accurately ripped

No errors occurred

End of status report

==== Log checksum 08CEDA3CA473B6B5466812FE95950BABF778DCD1F05FB8D1C8F79550BF083416 ====

Exact Audio Copy V1.0 beta 3 from 29. August 2011

EAC extraction logfile from 27. October 2014, 12:03

Eleni Karaindrou / Voyage To Cythera

Used drive : Optiarc DVD RW AD-7240S Adapter: 3 ID: 1

Read mode : Secure
Utilize accurate stream : Yes
Defeat audio cache : Yes
Make use of C2 pointers : No

Read offset correction : 48
Overread into Lead-In and Lead-Out : No
Fill up missing offset samples with silence : Yes
Delete leading and trailing silent blocks : No
Null samples used in CRC calculations : Yes
Used interface : Installed external ASPI interface
Gap handling : Appended to previous track

Used output format : User Defined Encoder
Selected bitrate : 896 kBit/s
Quality : High
Add ID3 tag : No
Command line compressor : C:\Program Files\Exact Audio Copy\Flac\flac.exe
Additional command line options : -8 -V -T "ARTIST=%artist%" -T "TITLE=%title%" -T "ALBUM=%albumtitle%" -T "DATE=%year%" -T "TRACKNUMBER=%tracknr%" -T "TOTALTRACKS=%numtracks%" -T "GENRE=%genre%" -T "ALBUMARTIST=%albumartist%" -T "ALBUM ARTIST=%albumartist%" -T "COMMENT=EAC Secure Mode, Test & Copy, AccurateRip, FLAC -8" %source%


TOC of the extracted CD

Track | Start | Length | Start sector | End sector
––––––––––––––––––––––––––––-
1 | 0:00.33 | 2:36.37 | 33 | 11769
2 | 2:36.70 | 3:25.08 | 11770 | 27152
3 | 6:02.03 | 6:28.05 | 27153 | 56257
4 | 12:30.08 | 1:43.65 | 56258 | 64047
5 | 14:13.73 | 2:18.32 | 64048 | 74429
6 | 16:32.30 | 2:26.33 | 74430 | 85412
7 | 18:58.63 | 4:12.02 | 85413 | 104314
8 | 23:10.65 | 2:15.03 | 104315 | 114442
9 | 25:25.68 | 7:29.40 | 114443 | 148157


Track 1

Filename F:\AneL\MY RIPS\01 - Oniro - Taxidi.wav

Pre-gap length 0:00:02.33

Peak level 96.4 %
Extraction speed 2.1 X
Track quality 100.0 %
Test CRC 65AF79FB
Copy CRC 65AF79FB
Accurately ripped (confidence 4) [3F45F908] (AR v1)
Copy OK

Track 2

Filename F:\AneL\MY RIPS\02 - Conserto - Alexander's theme.wav

Pre-gap length 0:00:01.57

Peak level 77.6 %
Extraction speed 2.4 X
Track quality 100.0 %
Test CRC 245B8375
Copy CRC 245B8375
Accurately ripped (confidence 4) [75D75129] (AR v1)
Copy OK

Track 3

Filename F:\AneL\MY RIPS\03 - Blues - Periplanisi sti poli.wav

Pre-gap length 0:00:01.60

Peak level 100.0 %
Extraction speed 2.6 X
Track quality 99.9 %
Test CRC 0B3ADA9D
Copy CRC 0B3ADA9D
Accurately ripped (confidence 4) [E2A2DCDB] (AR v1)
Copy OK

Track 4

Filename F:\AneL\MY RIPS\04 - Thema tou horiou.wav

Pre-gap length 0:00:02.34

Peak level 37.6 %
Extraction speed 2.4 X
Track quality 100.0 %
Test CRC 8325495F
Copy CRC 8325495F
Accurately ripped (confidence 4) [506739A5] (AR v1)
Copy OK

Track 5

Filename F:\AneL\MY RIPS\05 - Taxidi - fuge.wav

Pre-gap length 0:00:01.28

Peak level 87.3 %
Extraction speed 2.3 X
Track quality 99.9 %
Test CRC 75775D40
Copy CRC 75775D40
Accurately ripped (confidence 4) [039A99B6] (AR v1)
Copy OK

Track 6

Filename F:\AneL\MY RIPS\06 - Voyage to Cythera (George Ntalaras).wav

Pre-gap length 0:00:02.40

Peak level 99.2 %
Extraction speed 2.4 X
Track quality 99.9 %
Test CRC 1C2DAFDA
Copy CRC 1C2DAFDA
Accurately ripped (confidence 4) [1C8EB025] (AR v1)
Copy OK

Track 7

Filename F:\AneL\MY RIPS\07 - To rock tis Mobil.wav

Pre-gap length 0:00:02.23

Peak level 100.0 %
Extraction speed 3.3 X
Track quality 100.0 %
Test CRC EB02DA3C
Copy CRC EB02DA3C
Accurately ripped (confidence 4) [FCEE0BB3] (AR v1)
Copy OK

Track 8

Filename F:\AneL\MY RIPS\08 - Thema tou horiou.wav

Pre-gap length 0:00:02.27

Peak level 55.1 %
Extraction speed 3.1 X
Track quality 100.0 %
Test CRC D8B280AA
Copy CRC D8B280AA
Accurately ripped (confidence 4) [2CD92757] (AR v1)
Copy OK

Track 9

Filename F:\AneL\MY RIPS\09 - Conserto - I apofasi.wav

Pre-gap length 0:00:02.48

Peak level 91.0 %
Extraction speed 3.6 X
Track quality 99.9 %
Test CRC 2CD0BCE4
Copy CRC 2CD0BCE4
Accurately ripped (confidence 3) [EE8AB83E] (AR v1)
Copy OK


All tracks accurately ripped

No errors occurred

End of status report

==== Log checksum 4C394B2A06A71F4157C57160EFD1DC193708B6C9AE44B72BECBFBADB73BA6ED7 ====

Exact Audio Copy V1.0 beta 3 from 29. August 2011

EAC extraction logfile from 6. August 2015, 19:28

Eleni Karaindrou / O Melissokomos (The Beekeeper)

Used drive : Optiarc DVD RW AD-7240S Adapter: 3 ID: 1

Read mode : Secure
Utilize accurate stream : Yes
Defeat audio cache : Yes
Make use of C2 pointers : No

Read offset correction : 48
Overread into Lead-In and Lead-Out : No
Fill up missing offset samples with silence : Yes
Delete leading and trailing silent blocks : No
Null samples used in CRC calculations : Yes
Used interface : Installed external ASPI interface
Gap handling : Appended to previous track

Used output format : User Defined Encoder
Selected bitrate : 896 kBit/s
Quality : High
Add ID3 tag : No
Command line compressor : C:\Program Files\Exact Audio Copy\Flac\flac.exe
Additional command line options : -8 -V -T "ARTIST=%artist%" -T "TITLE=%title%" -T "ALBUM=%albumtitle%" -T "DATE=%year%" -T "TRACKNUMBER=%tracknr%" -T "TOTALTRACKS=%numtracks%" -T "GENRE=%genre%" -T "ALBUMARTIST=%albumartist%" -T "ALBUM ARTIST=%albumartist%" -T "COMMENT=EAC Secure Mode, Test & Copy, AccurateRip, FLAC -8" %source%


TOC of the extracted CD

Track | Start | Length | Start sector | End sector
––––––––––––––––––––––––––––-
1 | 0:00.00 | 4:27.63 | 0 | 20087
2 | 4:27.63 | 4:14.57 | 20088 | 39194
3 | 8:42.45 | 4:56.48 | 39195 | 61442
4 | 13:39.18 | 4:17.72 | 61443 | 80789
5 | 17:57.15 | 4:35.43 | 80790 | 101457
6 | 22:32.58 | 1:40.05 | 101458 | 108962
7 | 24:12.63 | 6:10.67 | 108963 | 136779
8 | 30:23.55 | 1:36.70 | 136780 | 144049
9 | 32:00.50 | 8:01.58 | 144050 | 180182
10 | 40:02.33 | 5:11.52 | 180183 | 203559
11 | 45:14.10 | 3:25.18 | 203560 | 218952
12 | 48:39.28 | 2:49.65 | 218953 | 231692
13 | 51:29.18 | 2:12.12 | 231693 | 241604
14 | 53:41.30 | 6:08.30 | 241605 | 269234
15 | 59:49.60 | 4:59.15 | 269235 | 291674


Track 1

Filename F:\AneL\MY RIPS\01 - To petagma-Aftoshediasmos sta dio themata.wav

Pre-gap length 0:00:02.00

Peak level 64.4 %
Extraction speed 2.3 X
Track quality 100.0 %
Test CRC 0FA5667A
Copy CRC 0FA5667A
Accurately ripped (confidence 8) [EE07ABCA] (AR v1)
Copy OK

Track 2

Filename F:\AneL\MY RIPS\02 - To vals tou gamou.wav

Peak level 84.5 %
Extraction speed 2.6 X
Track quality 100.0 %
Test CRC 9F4041F7
Copy CRC 9F4041F7
Accurately ripped (confidence 8) [BDD487C0] (AR v1)
Copy OK

Track 3

Filename F:\AneL\MY RIPS\03 - Thema tou apoheretismou kai vals.wav

Peak level 89.6 %
Extraction speed 2.9 X
Track quality 100.0 %
Test CRC 4FF65E15
Copy CRC 4FF65E15
Accurately ripped (confidence 8) [EC3DD656] (AR v1)
Copy OK

Track 4

Filename F:\AneL\MY RIPS\04 - Thema tou apoheretismou.wav

Peak level 64.2 %
Extraction speed 2.8 X
Track quality 99.9 %
Test CRC C3C0D71A
Copy CRC C3C0D71A
Accurately ripped (confidence 4) [682D0EDE] (AR v1)
Copy OK

Track 5

Filename F:\AneL\MY RIPS\05 - To Rock tis kadinas.wav

Pre-gap length 0:00:02.70

Peak level 97.9 %
Extraction speed 1.6 X
Track quality 99.8 %
Test CRC ED15A444
Copy CRC ED15A444
Accurately ripped (confidence 3) [29294A42] (AR v1)
Copy OK

Track 6

Filename F:\AneL\MY RIPS\06 - Kravgi.wav

Peak level 53.2 %
Extraction speed 2.9 X
Track quality 100.0 %
Test CRC 2BA6776E
Copy CRC 2BA6776E
Accurately ripped (confidence 8) [72FEF306] (AR v1)
Copy OK

Track 7

Filename F:\AneL\MY RIPS\07 - Thema tou apoheretismou - Parallagi A.wav

Pre-gap length 0:00:01.18

Peak level 65.4 %
Extraction speed 3.8 X
Track quality 100.0 %
Test CRC C8E3C264
Copy CRC C8E3C264
Accurately ripped (confidence 8) [9FEEDD04] (AR v1)
Copy OK

Track 8

Filename F:\AneL\MY RIPS\08 - Nanourisma.wav

Peak level 48.0 %
Extraction speed 2.5 X
Track quality 99.8 %
Test CRC 724EAF3E
Copy CRC 724EAF3E
Accurately ripped (confidence 8) [7C2BAF62] (AR v1)
Copy OK

Track 9

Filename F:\AneL\MY RIPS\09 - Aftoshediasmos sta dio themata.wav

Pre-gap length 0:00:01.37

Peak level 85.1 %
Extraction speed 4.3 X
Track quality 100.0 %
Test CRC FC23F7D7
Copy CRC FC23F7D7
Accurately ripped (confidence 8) [73AD75ED] (AR v1)
Copy OK

Track 10

Filename F:\AneL\MY RIPS\10 - Thema tou apoheretismou - Parallagi B.wav

Peak level 62.0 %
Extraction speed 4.3 X
Track quality 100.0 %
Test CRC D1B1404B
Copy CRC D1B1404B
Accurately ripped (confidence 8) [DD3E3685] (AR v1)
Copy OK

Track 11

Filename F:\AneL\MY RIPS\11 - I'll hit the roads (Julie Massino).wav

Peak level 95.2 %
Extraction speed 4.3 X
Track quality 100.0 %
Test CRC 35BB093E
Copy CRC 35BB093E
Accurately ripped (confidence 8) [9A7895E5] (AR v1)
Copy OK

Track 12

Filename F:\AneL\MY RIPS\12 - Ta vourkomena matia mou (George Dalaras).wav

Pre-gap length 0:00:02.55

Peak level 95.1 %
Extraction speed 4.2 X
Track quality 100.0 %
Test CRC F8666B42
Copy CRC F8666B42
Accurately ripped (confidence 8) [1DF09BDE] (AR v1)
Copy OK

Track 13

Filename F:\AneL\MY RIPS\13 - To Vals.wav

Pre-gap length 0:00:01.20

Peak level 39.1 %
Extraction speed 3.4 X
Track quality 99.9 %
Test CRC 0396894C
Copy CRC 0396894C
Accurately ripped (confidence 8) [B8D3DEE6] (AR v1)
Copy OK

Track 14

Filename F:\AneL\MY RIPS\14 - Vals Thema tou apoheretismou.wav

Peak level 70.1 %
Extraction speed 4.9 X
Track quality 100.0 %
Test CRC 92C69C87
Copy CRC 92C69C87
Accurately ripped (confidence 8) [5ECA91E1] (AR v1)
Copy OK

Track 15

Filename F:\AneL\MY RIPS\15 - I siopi Thema tou apoheretismou.wav

Pre-gap length 0:00:01.72

Peak level 61.6 %
Extraction speed 2.7 X
Track quality 99.8 %
Test CRC 2B2E0287
Copy CRC 2B2E0287
Cannot be verified as accurate (confidence 8) [05577D7D], AccurateRip returned [D0D2FC81] (AR v2)
Copy OK


14 track(s) accurately ripped
1 track(s) could not be verified as accurate

Some tracks could not be verified as accurate

No errors occurred

End of status report

==== Log checksum 81C55E9F73710BEF6952C3A237C734F07BCF65A53189FB93E3DA4CDA767716C8 ====

Exact Audio Copy V1.0 beta 3 from 29. August 2011

EAC extraction logfile from 22. April 2016, 10:19

Eleni Karaindrou / L' Africana

Used drive : Optiarc DVD RW AD-7240S Adapter: 3 ID: 1

Read mode : Secure
Utilize accurate stream : Yes
Defeat audio cache : Yes
Make use of C2 pointers : No

Read offset correction : 48
Overread into Lead-In and Lead-Out : No
Fill up missing offset samples with silence : Yes
Delete leading and trailing silent blocks : No
Null samples used in CRC calculations : Yes
Used interface : Installed external ASPI interface
Gap handling : Appended to previous track

Used output format : User Defined Encoder
Selected bitrate : 896 kBit/s
Quality : High
Add ID3 tag : No
Command line compressor : C:\Program Files\Exact Audio Copy\Flac\flac.exe
Additional command line options : -8 -V -T "ARTIST=%artist%" -T "TITLE=%title%" -T "ALBUM=%albumtitle%" -T "DATE=%year%" -T "TRACKNUMBER=%tracknr%" -T "TOTALTRACKS=%numtracks%" -T "GENRE=%genre%" -T "ALBUMARTIST=%albumartist%" -T "ALBUM ARTIST=%albumartist%" -T "COMMENT=EAC Secure Mode, Test & Copy, AccurateRip, FLAC -8" %source%


TOC of the extracted CD

Track | Start | Length | Start sector | End sector
––––––––––––––––––––––––––––-
1 | 0:00.00 | 3:12.73 | 0 | 14472
2 | 3:12.73 | 1:41.60 | 14473 | 22107
3 | 4:54.58 | 0:42.32 | 22108 | 25289
4 | 5:37.15 | 1:26.58 | 25290 | 31797
5 | 7:03.73 | 1:18.15 | 31798 | 37662
6 | 8:22.13 | 1:17.47 | 37663 | 43484
7 | 9:39.60 | 4:04.38 | 43485 | 61822
8 | 13:44.23 | 3:01.57 | 61823 | 75454
9 | 16:46.05 | 1:13.58 | 75455 | 80987
10 | 17:59.63 | 3:17.47 | 80988 | 95809
11 | 21:17.35 | 0:36.55 | 95810 | 98564
12 | 21:54.15 | 0:38.35 | 98565 | 101449
13 | 22:32.50 | 0:37.73 | 101450 | 104297
14 | 23:10.48 | 3:48.32 | 104298 | 121429


Track 1

Filename F:\AneL\MY RIPS\01 - Titli kai oniro tis Annas.wav

Pre-gap length 0:00:02.00

Peak level 50.8 %
Extraction speed 2.2 X
Track quality 100.0 %
Test CRC C2C5F734
Copy CRC C2C5F734
Accurately ripped (confidence 2) [4440F38E] (AR v2)
Copy OK

Track 2

Filename F:\AneL\MY RIPS\02 - To tilegrafima, Blues tou Victor.wav

Pre-gap length 0:00:02.40

Peak level 56.3 %
Extraction speed 2.0 X
Track quality 100.0 %
Test CRC 801DDA3F
Copy CRC 801DDA3F
Accurately ripped (confidence 2) [4F045A36] (AR v2)
Copy OK

Track 3

Filename F:\AneL\MY RIPS\03 - Eklar Mir, Liebe, Thema tou parelthontos.wav

Peak level 55.1 %
Extraction speed 1.5 X
Track quality 100.0 %
Test CRC 24137752
Copy CRC 24137752
Accurately ripped (confidence 2) [ACD98E66] (AR v2)
Copy OK

Track 4

Filename F:\AneL\MY RIPS\04 - Teletourgiko.wav

Peak level 52.4 %
Extraction speed 2.1 X
Track quality 100.0 %
Test CRC A7D5BC21
Copy CRC A7D5BC21
Accurately ripped (confidence 2) [EAD242ED] (AR v2)
Copy OK

Track 5

Filename F:\AneL\MY RIPS\05 - I Martha thimate, Thema tou parelthontos, Var. B.wav

Pre-gap length 0:00:01.68

Peak level 48.4 %
Extraction speed 2.1 X
Track quality 100.0 %
Test CRC F28E9B4A
Copy CRC F28E9B4A
Accurately ripped (confidence 2) [D7DD04FD] (AR v2)
Copy OK

Track 6

Filename F:\AneL\MY RIPS\06 - O Victor skeftete ti Martha, Blues.wav

Pre-gap length 0:00:01.33

Peak level 56.8 %
Extraction speed 2.1 X
Track quality 100.0 %
Test CRC A5F8D264
Copy CRC A5F8D264
Accurately ripped (confidence 2) [F0BCB453] (AR v2)
Copy OK

Track 7

Filename F:\AneL\MY RIPS\07 - Thema tou horou - Prodosia.wav

Peak level 97.8 %
Extraction speed 2.9 X
Track quality 100.0 %
Test CRC 6F55D6CA
Copy CRC 6F55D6CA
Accurately ripped (confidence 2) [6D34F6A4] (AR v2)
Copy OK

Track 8

Filename F:\AneL\MY RIPS\08 - Blues tou Victor.wav

Pre-gap length 0:00:02.60

Peak level 59.0 %
Extraction speed 2.9 X
Track quality 100.0 %
Test CRC 5F0FEDAC
Copy CRC 5F0FEDAC
Accurately ripped (confidence 2) [325560DF] (AR v2)
Copy OK

Track 9

Filename F:\AneL\MY RIPS\09 - Ksanavriskontas to pathos, Thema tou parelthontos Var. A.wav

Peak level 50.4 %
Extraction speed 2.4 X
Track quality 100.0 %
Test CRC AF5FDC2C
Copy CRC AF5FDC2C
Accurately ripped (confidence 2) [1420C417] (AR v2)
Copy OK

Track 10

Filename F:\AneL\MY RIPS\10 - Thema tis pigis ke ton Menhira.wav

Pre-gap length 0:00:04.05

Peak level 47.4 %
Extraction speed 3.2 X
Track quality 100.0 %
Test CRC 215F0DAA
Copy CRC 215F0DAA
Accurately ripped (confidence 2) [7098AFE0] (AR v2)
Copy OK

Track 11

Filename F:\AneL\MY RIPS\11 - To ksipnima tis Annas.wav

Pre-gap length 0:00:01.40

Peak level 41.8 %
Extraction speed 1.8 X
Track quality 100.0 %
Test CRC 5577A9B2
Copy CRC 5577A9B2
Accurately ripped (confidence 2) [5486BD7F] (AR v2)
Copy OK

Track 12

Filename F:\AneL\MY RIPS\12 - Aerodromio, Thema tou parelthontos Var. B.wav

Peak level 51.1 %
Extraction speed 1.9 X
Track quality 100.0 %
Test CRC 27E318D9
Copy CRC 27E318D9
Accurately ripped (confidence 2) [3C2CA1BD] (AR v2)
Copy OK

Track 13

Filename F:\AneL\MY RIPS\13 - O Svinarsky ta kseri ola, Blues.wav

Peak level 46.1 %
Extraction speed 2.0 X
Track quality 100.0 %
Test CRC 78A2A624
Copy CRC 78A2A624
Accurately ripped (confidence 2) [209C381E] (AR v2)
Copy OK

Track 14

Filename F:\AneL\MY RIPS\14 - Thema tou horou - Finale.wav

Pre-gap length 0:00:01.40

Peak level 83.1 %
Extraction speed 3.1 X
Track quality 99.9 %
Test CRC 8884EF05
Copy CRC 8884EF05
Accurately ripped (confidence 2) [A1C57102] (AR v2)
Copy OK


All tracks accurately ripped

No errors occurred

End of status report

==== Log checksum 2B6F4D535279B9FB0F2083260786DBBBDCD5414815361F581CD180FFA6E7D8EA ====

Exact Audio Copy V1.0 beta 3 from 29. August 2011

EAC extraction logfile from 22. April 2016, 12:41

Eleni Karaindrou / The Suspended Step of the Stork

Used drive : Optiarc DVD RW AD-7240S Adapter: 3 ID: 1

Read mode : Secure
Utilize accurate stream : Yes
Defeat audio cache : Yes
Make use of C2 pointers : No

Read offset correction : 48
Overread into Lead-In and Lead-Out : No
Fill up missing offset samples with silence : Yes
Delete leading and trailing silent blocks : No
Null samples used in CRC calculations : Yes
Used interface : Installed external ASPI interface
Gap handling : Appended to previous track

Used output format : User Defined Encoder
Selected bitrate : 896 kBit/s
Quality : High
Add ID3 tag : No
Command line compressor : C:\Program Files\Exact Audio Copy\Flac\flac.exe
Additional command line options : -8 -V -T "ARTIST=%artist%" -T "TITLE=%title%" -T "ALBUM=%albumtitle%" -T "DATE=%year%" -T "TRACKNUMBER=%tracknr%" -T "TOTALTRACKS=%numtracks%" -T "GENRE=%genre%" -T "ALBUMARTIST=%albumartist%" -T "ALBUM ARTIST=%albumartist%" -T "COMMENT=EAC Secure Mode, Test & Copy, AccurateRip, FLAC -8" %source%


TOC of the extracted CD

Track | Start | Length | Start sector | End sector
––––––––––––––––––––––––––––-
1 | 0:00.00 | 2:29.53 | 0 | 11227
2 | 2:29.53 | 1:23.65 | 11228 | 17517
3 | 3:53.43 | 3:42.05 | 17518 | 34172
4 | 7:35.48 | 1:07.67 | 34173 | 39264
5 | 8:43.40 | 4:24.00 | 39265 | 59064
6 | 13:07.40 | 2:03.30 | 59065 | 68319
7 | 15:10.70 | 1:16.35 | 68320 | 74054
8 | 16:27.30 | 2:36.20 | 74055 | 85774
9 | 19:03.50 | 1:36.15 | 85775 | 92989
10 | 20:39.65 | 1:46.50 | 92990 | 100989
11 | 22:26.40 | 4:15.68 | 100990 | 120182


Track 1

Filename F:\AneL\MY RIPS\01 - Titles.wav

Pre-gap length 0:00:02.00

Peak level 94.3 %
Extraction speed 1.7 X
Track quality 99.9 %
Test CRC 95D36B99
Copy CRC 95D36B99
Accurately ripped (confidence 4) [A9958B90] (AR v1)
Copy OK

Track 2

Filename F:\AneL\MY RIPS\02 - Search - Refugee's theme (Variation I).wav

Pre-gap length 0:00:02.18

Peak level 29.7 %
Extraction speed 1.8 X
Track quality 100.0 %
Test CRC D06A20BA
Copy CRC D06A20BA
Accurately ripped (confidence 4) [D5129ED2] (AR v1)
Copy OK

Track 3

Filename F:\AneL\MY RIPS\03 - Ballroom, The blues.wav

Pre-gap length 0:00:03.45

Peak level 90.0 %
Extraction speed 2.2 X
Track quality 99.9 %
Test CRC C938D1FD
Copy CRC C938D1FD
Accurately ripped (confidence 4) [97ED32E4] (AR v1)
Copy OK

Track 4

Filename F:\AneL\MY RIPS\04 - Train - Car neighbourhood - Refugee's theme.wav

Pre-gap length 0:00:03.33

Peak level 32.0 %
Extraction speed 2.0 X
Track quality 100.0 %
Test CRC 75AB05B9
Copy CRC 75AB05B9
Accurately ripped (confidence 4) [E778C488] (AR v1)
Copy OK

Track 5

Filename F:\AneL\MY RIPS\05 - Full Moon Love (Haris Alexiou).wav

Pre-gap length 0:00:01.67

Peak level 95.9 %
Extraction speed 2.9 X
Track quality 100.0 %
Test CRC 61E5E6A5
Copy CRC 61E5E6A5
Accurately ripped (confidence 4) [9AB59953] (AR v1)
Copy OK

Track 6

Filename F:\AneL\MY RIPS\06 - Refugee's theme.wav

Pre-gap length 0:00:02.62

Peak level 99.3 %
Extraction speed 2.6 X
Track quality 100.0 %
Test CRC 48FDBDEB
Copy CRC 48FDBDEB
Accurately ripped (confidence 4) [61D88FBD] (AR v1)
Copy OK

Track 7

Filename F:\AneL\MY RIPS\07 - Search - Refugee's theme (Variation II).wav

Pre-gap length 0:00:01.55

Peak level 60.4 %
Extraction speed 2.4 X
Track quality 100.0 %
Test CRC 874FB72E
Copy CRC 874FB72E
Accurately ripped (confidence 4) [3FA1077B] (AR v1)
Copy OK

Track 8

Filename F:\AneL\MY RIPS\08 - Waltz of the Bride.wav

Pre-gap length 0:00:02.42

Peak level 100.0 %
Extraction speed 2.9 X
Track quality 100.0 %
Test CRC A9E1580B
Copy CRC A9E1580B
Accurately ripped (confidence 4) [A1766622] (AR v1)
Copy OK

Track 9

Filename F:\AneL\MY RIPS\09 - Search - Refugee's theme (Variation III).wav

Pre-gap length 0:00:02.35

Peak level 85.2 %
Extraction speed 2.6 X
Track quality 100.0 %
Test CRC ED580F22
Copy CRC ED580F22
Accurately ripped (confidence 4) [9C0D2F39] (AR v1)
Copy OK

Track 10

Filename F:\AneL\MY RIPS\10 - Hassaposerviko.wav

Pre-gap length 0:00:01.42

Peak level 82.8 %
Extraction speed 2.8 X
Track quality 100.0 %
Test CRC 4C2FEFF1
Copy CRC 4C2FEFF1
Accurately ripped (confidence 4) [CDE67575] (AR v1)
Copy OK

Track 11

Filename F:\AneL\MY RIPS\11 - Finale.wav

Pre-gap length 0:00:03.20

Peak level 100.0 %
Extraction speed 3.5 X
Track quality 100.0 %
Test CRC 4B4131B4
Copy CRC 4B4131B4
Accurately ripped (confidence 4) [25CB3F21] (AR v1)
Copy OK


All tracks accurately ripped

No errors occurred

End of status report

==== Log checksum 6ADB61B7D4EA54611E8DDD1B79D14233D37FF936AE561B879455E843F982339E ====


Eleni Karaindrou - Mousiki gia tainies (Music for Films) (2001) {5CD Box Set Minos-EMI 724353775223}



===