Subcategories

Elvin Jones "Special Quartet" - Tribute To John Coltrane (1994) Repost

Posted By: SuniR
Elvin Jones "Special Quartet" - Tribute To John Coltrane (1994) Repost

Elvin Jones "Special Quartet" - Tribute To John Coltrane (1994)
EAC | WavPack (log,image+cue) -> 443 Mb (5% Rec.)
Mp3 CBR320 Kbps -> 176 Mb (5% Rec.) | Scans included
Jazz, Post-Bop | Label: Sony Music / Columbia, #: 487899 2 | 01:16:18

Recorded live at a Tokyo nightclub, the "special" in special quartet is trumpeter Wynton Marsalis. Functioning as the lone horn in the ensemble and supported by two of his former sidemen, pianist Marcus Roberts and bassist Reginald Veal, in a group led by one of jazz's greatest drummers, Marsalis' improvisational abilities are displayed prominently on this program of two John Coltrane compositions, one by Marsalis, and a swinging rendition of "Happy Birthday" for a member of the audience. The highlight of this recording is a 47-minute version of the first three movements of Coltrane's "A Love Supreme." Whether ripping off fast runs or blaring held high notes, Marsalis shows himself as a player deserving of his notoriety. Jones is his usual powerful polyrhythmic self, while Roberts and Veal offer solid support. The rest of the program includes Coltrane's ballad "Dear Lord" and Marsalis' tribute to Jones, "Blues for Veen." An essential recording for Jones and Marsalis completists. –Greg Turner, AllMusic

Tracklist:

1. A Love Supreme: Pt. 1 Acknowledgement/Pt. 2 Resolution/Pt. 3 Persuance (Coltrane) 47:16
2. Dear Lord (Coltrane) 06:32
3. Happy Birthday For "Yuka" (Traditional) 07:24
4. Blues To Veen (Marsalis) 15:04

Musicians:
Bass – Reginald Veal
Drums – Elvin Jones
Piano – Marcus Roberts
Trumpet – Wynton Marsalis

Recording: Live At "Pit Inn" Tokio, Japan, December, 3rd & 4th, 1992.


EAC extraction logfile from 10. December 2006, 14:06 for CD
Elvin Jones "Special Quartet" / Tribute to John Coltrane Live at "Pit Inn" Tokyo

Used drive : HL-DT-STDVDRAM GSA-4165B Adapter: 0 ID: 0
Read mode : Secure with NO C2, accurate stream, disable cache
Read offset correction : 667
Overread into Lead-In and Lead-Out : No

Used output format : Internal WAV Routines
44.100 Hz; 16 Bit; Stereo
Use compression offset : 30

Other options :
Fill up missing offset samples with silence : Yes
Delete leading and trailing silent blocks : No
Installed external ASPI interface


Range status and errors
Selected range
Filename C:\Elvin Jones Special Quartet - Tribute to John Coltrane Live at Pit Inn Tokyo.wav

Peak level 100.0 %
Range quality 100.0 %
CRC BF728097
Copy OK

No errors occured

End of status report

foobar2000 1.3.6 / Dynamic Range Meter 1.1.1
log date: 2017-07-22 16:38:21

––––––––––––––––––––––––––––––––––––––––
Analyzed: Elvin Jones 'Special Quartet' / Tribute to John Coltrane Live at 'Pit Inn' Tokyo
––––––––––––––––––––––––––––––––––––––––

DR Peak RMS Duration Track
––––––––––––––––––––––––––––––––––––––––
DR17 0.00 dB -20.47 dB 47:16 01-A Love Supreme
DR15 0.00 dB -20.13 dB 6:32 02-Dear Lord
DR18 -0.60 dB -22.37 dB 7:25 03-Happy Birthday for 'Yuka'
DR17 -0.68 dB -22.71 dB 15:04 04-Blues to Veen
––––––––––––––––––––––––––––––––––––––––

Number of tracks: 4
Official DR value: DR17

Samplerate: 44100 Hz
Channels: 2
Bits per sample: 16
Bitrate: 770 kbps
Codec: WavPack
================================================================================

Thanks to the original releaser