Subcategories

Elvin Jones - Live At The Lighthouse Vol.1 (1972) {2013 Japanese BNLA Series 24-bit Remaster}

Posted By: ruskaval
Elvin Jones - Live At The Lighthouse Vol.1 (1972) {2013 Japanese BNLA Series 24-bit Remaster}

Elvin Jones - Live At The Lighthouse Vol.1 (1972) {2013 Japanese BNLA Series 24-bit Remaster}
EAC rip (secure mode) | FLAC (tracks)+CUE+LOG -> 484 Mb | MP3 @320 -> 179 Mb
Full Artwork @ 600 dpi (png) -> 193 Mb | 5% repair rar | 24-bit remaster
© 2013 Blue Note / EMI Music Japan | TOCJ-50536
Jazz / Hard Bop / Post Bop / Avant-Garde Jazz / Drums

Easily the most hard-hitting of Blue Note's 2LP Lighthouse Live series from the early 70s – and a record that really lets Elvin Jones and his group stretch out and play! The setting is a perfect one for Jones – given the boundless energy already present on his studio sessions for Blue Note at the time – really fierce work that goes beyond even his classic Coltrane performances – pushing the limits in a sweet blend of rhythm and reeds! The group here is Elvin's razor-edge combo from the early 70s – the one that features Gene Perla on fat funky bass, and both Steve Grossman and Dave Liebman playing choppy reeds along with the grooves – really amazing hornmen at this point in their career, blowing here with interplay that's simply fantastic!

Jones' leadership both draws from his years with Coltrane, yet also takes the music to key new levels – increasing the energy without blowing the top off, and creating a vivid new groove that so many others would try to cop later in the 70s – but never do this well. Titles on this first volume include "Fancy Free", "Sambra".
Elvin Jones - Live At The Lighthouse Vol.1 (1972) {2013 Japanese BNLA Series 24-bit Remaster}


Personnel:
Elvin Jones - drums
Steve Grossman - tenor saxophone, soprano saxophone
Dave Liebman - tenor saxophone, soprano saxophone, flute
Gene Perla - bass

Elvin Jones - Live At The Lighthouse Vol.1 (1972) {2013 Japanese BNLA Series 24-bit Remaster}


tracklist:
01 - Introduction - Bill Chappell - Announcer - Rick Holmes
02 - Fancy Free
03 - New Breed
04 - Small One
05 - Sambra
06 - My Ship
07 - Taurus People
08 - For All Those Other Times - Announcement

Exact Audio Copy V1.1 from 23. June 2015

EAC extraction logfile from 11. October 2015, 16:38

Elvin Jones / Live At The Lighthouse Vol.1

Used drive : TSSTcorpCDDVDW SE-208DB Adapter: 7 ID: 0

Read mode : Secure
Utilize accurate stream : Yes
Defeat audio cache : Yes
Make use of C2 pointers : No

Read offset correction : 6
Overread into Lead-In and Lead-Out : No
Fill up missing offset samples with silence : Yes
Delete leading and trailing silent blocks : No
Null samples used in CRC calculations : Yes
Used interface : Installed external ASPI interface
Gap handling : Appended to previous track

Used output format : User Defined Encoder
Selected bitrate : 1024 kBit/s
Quality : High
Add ID3 tag : No
Command line compressor : C:\Program Files (x86)\FLAC Frontend\tools\flac.exe
Additional command line options : -8 -V -T "ARTIST=%artist%" -T "TITLE=%title%" -T "ALBUM=%albumtitle%" -T "DATE=%year%" -T "TRACKNUMBER=%tracknr%" -T "TOTALTRACKS=%numtracks%" -T "GENRE=%genre%" -T "ALBUMARTIST=%albumartist%" -T "ALBUM ARTIST=%albumartist%" -T "COMMENT=EAC Secure Mode, Test & Copy, AccurateRip, FLAC -8" %source%


TOC of the extracted CD

Track | Start | Length | Start sector | End sector
––––––––––––––––––––––––––––-
1 | 0:00.00 | 1:42.65 | 0 | 7714
2 | 1:42.65 | 21:06.66 | 7715 | 102730
3 | 22:49.56 | 12:06.02 | 102731 | 157182
4 | 34:55.58 | 7:10.01 | 157183 | 189433
5 | 42:05.59 | 13:12.54 | 189434 | 248887
6 | 55:18.38 | 8:52.12 | 248888 | 288799
7 | 64:10.50 | 6:17.04 | 288800 | 317078
8 | 70:27.54 | 4:43.42 | 317079 | 338345


Track 1

Filename M:\_EAC\Elvin Jones - Live At The Lighthouse Vol.1 (1972) [FLAC] {2013 Japanese BNLA Series 24-bit Remaster}\01 - Introduction - Bill Chappell - Announcer - Rick Holmes.wav

Pre-gap length 0:00:02.00

Peak level 98.8 %
Extraction speed 0.9 X
Track quality 100.0 %
Test CRC 5F53D553
Copy CRC 5F53D553
Accurately ripped (confidence 4) [1DB5CDC7] (AR v2)
Copy OK

Track 2

Filename M:\_EAC\Elvin Jones - Live At The Lighthouse Vol.1 (1972) [FLAC] {2013 Japanese BNLA Series 24-bit Remaster}\02 - Fancy Free.wav

Peak level 98.9 %
Extraction speed 1.5 X
Track quality 99.9 %
Test CRC E111130E
Copy CRC E111130E
Accurately ripped (confidence 4) [FA7F8FFC] (AR v2)
Copy OK

Track 3

Filename M:\_EAC\Elvin Jones - Live At The Lighthouse Vol.1 (1972) [FLAC] {2013 Japanese BNLA Series 24-bit Remaster}\03 - New Breed.wav

Pre-gap length 0:00:01.46

Peak level 98.9 %
Extraction speed 1.8 X
Track quality 100.0 %
Test CRC 6DF16A37
Copy CRC 6DF16A37
Accurately ripped (confidence 4) [5206ED8C] (AR v2)
Copy OK

Track 4

Filename M:\_EAC\Elvin Jones - Live At The Lighthouse Vol.1 (1972) [FLAC] {2013 Japanese BNLA Series 24-bit Remaster}\04 - Small One.wav

Pre-gap length 0:00:01.56

Peak level 98.9 %
Extraction speed 1.8 X
Track quality 100.0 %
Test CRC 5146B84A
Copy CRC 5146B84A
Accurately ripped (confidence 4) [7A473C2C] (AR v2)
Copy OK

Track 5

Filename M:\_EAC\Elvin Jones - Live At The Lighthouse Vol.1 (1972) [FLAC] {2013 Japanese BNLA Series 24-bit Remaster}\05 - Sambra.wav

Pre-gap length 0:00:01.36

Peak level 98.9 %
Extraction speed 2.0 X
Track quality 100.0 %
Test CRC 2EE85D60
Copy CRC 2EE85D60
Accurately ripped (confidence 4) [3A60CFB8] (AR v2)
Copy OK

Track 6

Filename M:\_EAC\Elvin Jones - Live At The Lighthouse Vol.1 (1972) [FLAC] {2013 Japanese BNLA Series 24-bit Remaster}\06 - My Ship.wav

Pre-gap length 0:00:01.64

Peak level 98.9 %
Extraction speed 1.9 X
Track quality 99.9 %
Test CRC C8DAE529
Copy CRC C8DAE529
Accurately ripped (confidence 4) [F0033973] (AR v2)
Copy OK

Track 7

Filename M:\_EAC\Elvin Jones - Live At The Lighthouse Vol.1 (1972) [FLAC] {2013 Japanese BNLA Series 24-bit Remaster}\07 - Taurus People.wav

Pre-gap length 0:00:01.12

Peak level 98.9 %
Extraction speed 2.1 X
Track quality 100.0 %
Test CRC 5FEBE05F
Copy CRC 5FEBE05F
Accurately ripped (confidence 4) [D286EE17] (AR v2)
Copy OK

Track 8

Filename M:\_EAC\Elvin Jones - Live At The Lighthouse Vol.1 (1972) [FLAC] {2013 Japanese BNLA Series 24-bit Remaster}\08 - For All Those Other Times - Announcement.wav

Pre-gap length 0:00:01.25

Peak level 98.9 %
Extraction speed 1.8 X
Track quality 99.9 %
Test CRC 6A23D4D6
Copy CRC 6A23D4D6
Accurately ripped (confidence 4) [D170B253] (AR v2)
Copy OK


All tracks accurately ripped

No errors occurred

End of status report

==== Log checksum 95320514A06F093915A440960EE4ED8E142287FA3C03579A3365153B400CE8A9 ====


Elvin Jones - Live At The Lighthouse Vol.1 (1972) {2013 Japanese BNLA Series 24-bit Remaster}

Elvin Jones - Live At The Lighthouse Vol.1 (1972) {2013 Japanese BNLA Series 24-bit Remaster}




NEXT -> More Japanese BNLA Series 24-bit Remaster…