Subcategories

Elvin Jones - Live At The Lighthouse Vol.2 (1972) {2013 Japanese BNLA Series 24-bit Remaster}

Posted By: ruskaval
Elvin Jones - Live At The Lighthouse Vol.2 (1972) {2013 Japanese BNLA Series 24-bit Remaster}

Elvin Jones - Live At The Lighthouse Vol.2 (1972) {2013 Japanese BNLA Series 24-bit Remaster}
EAC rip (secure mode) | FLAC (tracks)+CUE+LOG -> 505 Mb | MP3 @320 -> 185 Mb
Full Artwork @ 600 dpi (png) -> 187 Mb | 5% repair rar | 24-bit remaster
© 2013 Blue Note / EMI Music Japan | TOCJ-50537
Jazz / Post Bop / Avant-Garde Jazz / Drums

Easily the most hard-hitting of Blue Note's 2LP Lighthouse Live series from the early 70s – and a record that really lets Elvin Jones and his group stretch out and play! The setting is a perfect one for Jones – given the boundless energy already present on his studio sessions for Blue Note at the time – really fierce work that goes beyond even his classic Coltrane performances – pushing the limits in a sweet blend of rhythm and reeds! The group here is Elvin's razor-edge combo from the early 70s – the one that features Gene Perla on fat funky bass, and both Steve Grossman and Dave Liebman playing choppy reeds along with the grooves – really amazing hornmen at this point in their career, blowing here with interplay that's simply fantastic!

Jones' leadership both draws from his years with Coltrane, yet also takes the music to key new levels – increasing the energy without blowing the top off, and creating a vivid new groove that so many others would try to cop later in the 70s – but never do this well. Titles on this second volume include "Children's Merry-Go-Round March", "Sweet Mama".
Elvin Jones - Live At The Lighthouse Vol.2 (1972) {2013 Japanese BNLA Series 24-bit Remaster}


Personnel:
Elvin Jones - drums
Steve Grossman - tenor saxophone, soprano saxophone
Dave Liebman - tenor saxophone, soprano saxophone, flute
Gene Perla - bass

Elvin Jones - Live At The Lighthouse Vol.2 (1972) {2013 Japanese BNLA Series 24-bit Remaster}


tracklist:
01 - Introduction - Happy Birthday Greeting
02 - Sweet Mama
03 - I'm A Fool To Want You
04 - The Children, Save The Children
05 - Brite Piece
06 - Children's Merry-Go-Round March

Exact Audio Copy V1.1 from 23. June 2015

EAC extraction logfile from 11. October 2015, 14:39

Elvin Jones / Live At The Lighthouse Vol.2

Used drive : TSSTcorpCDDVDW SE-208DB Adapter: 7 ID: 0

Read mode : Secure
Utilize accurate stream : Yes
Defeat audio cache : Yes
Make use of C2 pointers : No

Read offset correction : 6
Overread into Lead-In and Lead-Out : No
Fill up missing offset samples with silence : Yes
Delete leading and trailing silent blocks : No
Null samples used in CRC calculations : Yes
Used interface : Installed external ASPI interface
Gap handling : Appended to previous track

Used output format : User Defined Encoder
Selected bitrate : 1024 kBit/s
Quality : High
Add ID3 tag : No
Command line compressor : C:\Program Files (x86)\FLAC Frontend\tools\flac.exe
Additional command line options : -8 -V -T "ARTIST=%artist%" -T "TITLE=%title%" -T "ALBUM=%albumtitle%" -T "DATE=%year%" -T "TRACKNUMBER=%tracknr%" -T "TOTALTRACKS=%numtracks%" -T "GENRE=%genre%" -T "ALBUMARTIST=%albumartist%" -T "ALBUM ARTIST=%albumartist%" -T "COMMENT=EAC Secure Mode, Test & Copy, AccurateRip, FLAC -8" %source%


TOC of the extracted CD

Track | Start | Length | Start sector | End sector
––––––––––––––––––––––––––––-
1 | 0:00.00 | 0:53.55 | 0 | 4029
2 | 0:53.55 | 15:31.10 | 4030 | 73864
3 | 16:24.65 | 11:34.47 | 73865 | 125961
4 | 27:59.37 | 8:00.65 | 125962 | 162026
5 | 36:00.27 | 13:18.53 | 162027 | 221929
6 | 49:19.05 | 28:28.07 | 221930 | 350036


Track 1

Filename M:\_EAC\Elvin Jones - Live At The Lighthouse Vol.2 (1972) [FLAC] {2013 Japanese BNLA Series 24-bit Remaster}\01 - Introduction - Happy Birthday Greeting.wav

Pre-gap length 0:00:02.00

Peak level 98.8 %
Extraction speed 1.1 X
Track quality 99.8 %
Test CRC 1BFD1841
Copy CRC 1BFD1841
Accurately ripped (confidence 3) [E88FA5E6] (AR v2)
Copy OK

Track 2

Filename M:\_EAC\Elvin Jones - Live At The Lighthouse Vol.2 (1972) [FLAC] {2013 Japanese BNLA Series 24-bit Remaster}\02 - Sweet Mama.wav

Pre-gap length 0:00:01.22

Peak level 98.9 %
Extraction speed 3.7 X
Track quality 100.0 %
Test CRC DCB208CC
Copy CRC DCB208CC
Accurately ripped (confidence 3) [0AE819BA] (AR v2)
Copy OK

Track 3

Filename M:\_EAC\Elvin Jones - Live At The Lighthouse Vol.2 (1972) [FLAC] {2013 Japanese BNLA Series 24-bit Remaster}\03 - I'm A Fool To Want You.wav

Pre-gap length 0:00:01.30

Peak level 98.9 %
Extraction speed 4.5 X
Track quality 100.0 %
Test CRC 8C00D246
Copy CRC 8C00D246
Accurately ripped (confidence 3) [056F20BD] (AR v2)
Copy OK

Track 4

Filename M:\_EAC\Elvin Jones - Live At The Lighthouse Vol.2 (1972) [FLAC] {2013 Japanese BNLA Series 24-bit Remaster}\04 - The Children, Save The Children.wav

Pre-gap length 0:00:01.22

Peak level 98.9 %
Extraction speed 4.8 X
Track quality 100.0 %
Test CRC 1ECB91B1
Copy CRC 1ECB91B1
Accurately ripped (confidence 3) [F7489DD4] (AR v2)
Copy OK

Track 5

Filename M:\_EAC\Elvin Jones - Live At The Lighthouse Vol.2 (1972) [FLAC] {2013 Japanese BNLA Series 24-bit Remaster}\05 - Brite Piece.wav

Pre-gap length 0:00:01.19

Peak level 98.9 %
Extraction speed 5.5 X
Track quality 100.0 %
Test CRC 4176C616
Copy CRC 4176C616
Accurately ripped (confidence 3) [F940507C] (AR v2)
Copy OK

Track 6

Filename M:\_EAC\Elvin Jones - Live At The Lighthouse Vol.2 (1972) [FLAC] {2013 Japanese BNLA Series 24-bit Remaster}\06 - Children's Merry-Go-Round March.wav

Pre-gap length 0:00:00.70

Peak level 98.9 %
Extraction speed 6.4 X
Track quality 100.0 %
Test CRC 73031EEA
Copy CRC 73031EEA
Accurately ripped (confidence 3) [726033B9] (AR v2)
Copy OK


All tracks accurately ripped

No errors occurred

End of status report

==== Log checksum A5A64EE8E0456341CA189E74D7BF9934495C1FDE649DFAA3CE6EB179D453D18B ====


Elvin Jones - Live At The Lighthouse Vol.2 (1972) {2013 Japanese BNLA Series 24-bit Remaster}

Elvin Jones - Live At The Lighthouse Vol.2 (1972) {2013 Japanese BNLA Series 24-bit Remaster}




NEXT -> More Japanese BNLA Series 24-bit Remaster…