Subcategories

Epic45 - Sun Memory (EP) (2019)

Posted By: delpotro
Epic45 - Sun Memory (EP) (2019)

Epic45 - Sun Memory (EP) (2019)
EAC Rip | FLAC (tracks+log+.cue) - 153 Mb | MP3 CBR 320 kbps - 70 Mb | 00:30:07
Post-Rock, Progressive Rock | Label: Wayside & Woodland Recordings

The songs on this collection are a paean to youthful summers spent in deep countryside or on the Welsh coast, early tape recording experiments on quiet afternoons, memories of Grandparents’ houses and daydreaming on long car journeys.

"The track ‘Penarth’, originally intended to be featured on Through Broken Summer, is featured twice; the second, a dreamlike reinterpretation by Antony Harding aka July Skies. Antony also contributed organ and synth layers to ‘Carnival ‘88’. ‘Sun Memory II’ is an alternate edit of the Through Broken Summer song and features another collaboration with Spc Eco vocalist, Rose Berlin with bonus synth texture from Dean Garcia (Curve). This ep acts as both a consolidation of previous concerns and a partial signifier to the next phase."
Tracklist:
1. Sun Memory I I (feat. Rose Berlin) (03:50)
2. Kaleidoscope Days (05:34)
3. Afternoon Sun Dissolves (03:38)
4. Penarth (05:40)
5. Carnival '88 (03:30)
6. Penarth (with July Skies) (07:51)

Exact Audio Copy V1.1 from 23. June 2015

EAC extraction logfile from 3. June 2019, 21:57

epic45 / Sun Memory

Used drive : ASUS DRW-24D5MT Adapter: 1 ID: 0

Read mode : Secure
Utilize accurate stream : Yes
Defeat audio cache : Yes
Make use of C2 pointers : No

Read offset correction : 6
Overread into Lead-In and Lead-Out : No
Fill up missing offset samples with silence : Yes
Delete leading and trailing silent blocks : No
Null samples used in CRC calculations : Yes
Used interface : Native Win32 interface for Win NT & 2000
Gap handling : Appended to previous track

Used output format : User Defined Encoder
Selected bitrate : 1024 kBit/s
Quality : High
Add ID3 tag : No
Command line compressor : C:\Program Files (x86)\Exact Audio Copy\FLAC\FLAC.EXE
Additional command line options : -8 -e -V -T "ARTIST=%artist%" -T "TITLE=%title%" -T "ALBUM=%albumtitle%" -T "DATE=%year%" -T "TRACKNUMBER=%tracknr%" -T "GENRE=%genre%" -T "PERFORMER=%albuminterpret%" -T "COMPOSER=%composer%" %haslyrics%–tag-from-file=LYRICS="%lyricsfile%"%haslyrics% -T "ALBUMARTIST=%albumartist%" -T "DISCNUMBER=%cdnumber%" -T "TOTALDISCS=%totalcds%" -T "TOTALTRACKS=%numtracks%" -T "COMMENT=%comment%" %source% -o %dest%


TOC of the extracted CD

Track | Start | Length | Start sector | End sector
––––––––––––––––––––––––––––-
1 | 0:00.00 | 3:50.63 | 0 | 17312
2 | 3:50.63 | 5:34.02 | 17313 | 42364
3 | 9:24.65 | 3:38.70 | 42365 | 58784
4 | 13:03.60 | 5:40.21 | 58785 | 84305
5 | 18:44.06 | 3:30.04 | 84306 | 100059
6 | 22:14.10 | 7:52.71 | 100060 | 135530


Track 1

Filename F:\CD Rips\01 - Sun Memory II feat. Rose Berlin.wav

Pre-gap length 0:00:02.00

Peak level 93.6 %
Extraction speed 1.0 X
Track quality 100.0 %
Test CRC 465FF495
Copy CRC 465FF495
Track not present in AccurateRip database
Copy OK

Track 2

Filename F:\CD Rips\02 - Kaleidoscope Days.wav

Peak level 94.3 %
Extraction speed 1.2 X
Track quality 100.0 %
Test CRC 11E70B37
Copy CRC 11E70B37
Track not present in AccurateRip database
Copy OK

Track 3

Filename F:\CD Rips\03 - Afternoon Sun Dissolves.wav

Peak level 93.4 %
Extraction speed 1.2 X
Track quality 100.0 %
Test CRC 2FD2AAB0
Copy CRC 2FD2AAB0
Track not present in AccurateRip database
Copy OK

Track 4

Filename F:\CD Rips\04 - Penarth.wav

Peak level 93.5 %
Extraction speed 1.3 X
Track quality 99.9 %
Test CRC AA21F3ED
Copy CRC AA21F3ED
Track not present in AccurateRip database
Copy OK

Track 5

Filename F:\CD Rips\05 - Carnival '88.wav

Peak level 93.3 %
Extraction speed 1.4 X
Track quality 100.0 %
Test CRC C60C1B37
Copy CRC C60C1B37
Track not present in AccurateRip database
Copy OK

Track 6

Filename F:\CD Rips\06 - Penarth (July Skies Revisit).wav

Peak level 93.5 %
Extraction speed 1.7 X
Track quality 100.0 %
Test CRC DDA077D8
Copy CRC DDA077D8
Track not present in AccurateRip database
Copy OK


None of the tracks are present in the AccurateRip database

No errors occurred

End of status report

–– CUETools DB Plugin V2.1.6

[CTDB TOCID: pptQWS7518LFJY0TPaItnhQqdEA-] found
Submit result: pptQWS7518LFJY0TPaItnhQqdEA- has been confirmed
Track | CTDB Status
1 | (2/2) Accurately ripped
2 | (2/2) Accurately ripped
3 | (2/2) Accurately ripped
4 | (2/2) Accurately ripped
5 | (2/2) Accurately ripped
6 | (2/2) Accurately ripped


==== Log checksum A5AD94CD766704CECBFCDB270C8F2A45BE683534735B8C565A07E46C4D56879D ====

Thanks to the Original ripper Rampandit !