Subcategories

Ernie Henry - Last Chorus (1957) {Riverside OJCCD-1906-2 rel 1998} (featuring Lee Morgan)

Posted By: ruskaval
Ernie Henry - Last Chorus (1957) {Riverside OJCCD-1906-2 rel 1998} (featuring Lee Morgan)

Ernie Henry - Last Chorus (1957) {Riverside OJCCD-1906-2 rel 1998} (featuring Lee Morgan)
EAC rip (secure mode) | FLAC (tracks)+CUE+LOG -> 228 Mb | MP3 @320 -> 107 Mb
Full Artwork @ 300 dpi (jpg) -> 6 Mb | 5% repair rar
© 1956-57, 1998 Riverside / OJC / Fantasy | OJCCD-1906-2
Jazz / Hard Bop / Saxophone

Ernie Henry was one of Riverside's earliest "discoveries." He recorded for the label, as a leader and as a sideman with Thelonious Monk and Kenny Dorham, for little more than a year before his sudden death at the end of 1957. The brilliant and unrealized promise of the young alto saxophonist, which was just beginning to be recognized (he was with Dizzy Gillespie's big band when he died), was dramatically exhibited on this final collection, one side of which is from an unfinished album featuring good friends and colleagues like Lee Morgan, Benny Golson, Wynton Kelly, Paul Chambers, and Philly Joe Jones.
Ernie Henry - Last Chorus (1957) {Riverside OJCCD-1906-2 rel 1998} (featuring Lee Morgan)

Ernie Henry was a promising alto saxophonist who passed away prematurely on December 29, 1957, when he was only 31. He had recorded his album Seven Standards and a Blues on September 30, and four songs for an uncompleted octet date on September 23. This CD reissue has the latter tunes (which feature trumpeter Lee Morgan; trombonist Melba Liston, who contributed "Melba's Tune"; tenor saxophonist Benny Golson; and pianist Wynton Kelly), an alternate take from the Seven Standards set ("Like Someone in Love"), a leftover track from the preceding year ("Cleo's Chant"), the solos of Thelonious Monk and Henry (from the lengthy "Ba-Lue Bolivar Ba-Lues-Are"), and an alternate version of "S'posin'" taken from the altoist's final recording (a quartet outing with trumpeter Kenny Dorham). Overall, the music is fine and, surprisingly, does not have an unfinished air about it. It does make one wish that Ernie Henry had taken better care of his health, as he was just beginning to develop a sound of his own.

Personnel:
Ernie Henry - alto saxophone
Kenny Dorham (tracks 5 & 8), Lee Morgan (tracks 1-4) - trumpet
Melba Liston - trombone (tracks 1, 2 & 4)
Benny Golson (tracks 1-4), Sonny Rollins (track 6) - tenor saxophone
Cecil Payne - baritone saxophone (tracks 1, 2 & 4)
Kenny Drew (track 8), Wynton Kelly (tracks 1-4 & 7), Thelonious Monk (track 6) - piano
Paul Chambers (tracks 1-4), Eddie Mathias (track 5), Oscar Pettiford (track 6), Wilbur Ware (tracks 7 & 8) - bass
G. T. Hogan (track 5), Philly Joe Jones (tracks 1-4 & 7), Max Roach (track 6), Art Taylor (track 8) - drums

tracklist:
01 - Autumn Leaves
02 - Beauty And The Blues
03 - All The Things You Are
04 - Melba's Tune
05 - S'Posin' (alternate take)
06 - Ba-Lue Bolivar Ba-Lues-Are (excerpt)
07 - Like Someone In Love (alternate take)
08 - Cleo's Chant

Exact Audio Copy V0.99 prebeta 5 from 4. May 2009

EAC extraction logfile from 25. September 2013, 20:32

Ernie Henry / Last Chorus

Used drive : PLEXTOR DVDR PX-L890SA Adapter: 6 ID: 0

Read mode : Secure
Utilize accurate stream : Yes
Defeat audio cache : Yes
Make use of C2 pointers : No

Read offset correction : 6
Overread into Lead-In and Lead-Out : No
Fill up missing offset samples with silence : Yes
Delete leading and trailing silent blocks : No
Null samples used in CRC calculations : Yes
Used interface : Native Win32 interface for Win NT & 2000
Gap handling : Appended to previous track

Used output format : User Defined Encoder
Selected bitrate : 1024 kBit/s
Quality : High
Add ID3 tag : No
Command line compressor : C:\Program Files (x86)\FLAC Frontend\tools\flac.exe
Additional command line options : -8 -V -T "ARTIST=%a" -T "TITLE=%t" -T "ALBUM=%g" -T "DATE=%y" -T "TRACKNUMBER=%n" -T "GENRE=%m" -T "COMMENT=EAC FLAC -8" %s


TOC of the extracted CD

Track | Start | Length | Start sector | End sector
––––––––––––––––––––––––––––-
1 | 0:00.00 | 3:15.42 | 0 | 14666
2 | 3:15.42 | 6:28.60 | 14667 | 43826
3 | 9:44.27 | 7:49.00 | 43827 | 79001
4 | 17:33.27 | 2:41.65 | 79002 | 91141
5 | 20:15.17 | 4:54.60 | 91142 | 113251
6 | 25:10.02 | 6:58.45 | 113252 | 144646
7 | 32:08.47 | 4:40.28 | 144647 | 165674
8 | 36:49.00 | 8:31.25 | 165675 | 204024


Track 1

Filename D:\Lossless 400\Ernie Henry - Last Chorus (1957) {Riverside OJCCD-1906-2 (RLP-2669} [ft. Lee Morgan]\01 - Autumn Leaves.wav

Pre-gap length 0:00:02.00

Peak level 100.0 %
Track quality 100.0 %
Test CRC 8AB09DF2
Copy CRC 8AB09DF2
Accurately ripped (confidence 2) [6D4984EF]
Copy OK

Track 2

Filename D:\Lossless 400\Ernie Henry - Last Chorus (1957) {Riverside OJCCD-1906-2 (RLP-2669} [ft. Lee Morgan]\02 - Beauty And The Blues.wav

Pre-gap length 0:00:02.56

Peak level 100.0 %
Track quality 100.0 %
Test CRC 36D72B79
Copy CRC 36D72B79
Accurately ripped (confidence 2) [7E846087]
Copy OK

Track 3

Filename D:\Lossless 400\Ernie Henry - Last Chorus (1957) {Riverside OJCCD-1906-2 (RLP-2669} [ft. Lee Morgan]\03 - All The Things You Are.wav

Pre-gap length 0:00:02.16

Peak level 100.0 %
Track quality 100.0 %
Test CRC 44F04EC2
Copy CRC 44F04EC2
Accurately ripped (confidence 2) [C7C092CB]
Copy OK

Track 4

Filename D:\Lossless 400\Ernie Henry - Last Chorus (1957) {Riverside OJCCD-1906-2 (RLP-2669} [ft. Lee Morgan]\04 - Melba's Tune.wav

Pre-gap length 0:00:02.71

Peak level 99.9 %
Track quality 100.0 %
Test CRC F9BD5EDF
Copy CRC F9BD5EDF
Accurately ripped (confidence 2) [9418D109]
Copy OK

Track 5

Filename D:\Lossless 400\Ernie Henry - Last Chorus (1957) {Riverside OJCCD-1906-2 (RLP-2669} [ft. Lee Morgan]\05 - S'Posin' (alternate take).wav

Pre-gap length 0:00:02.23

Peak level 100.0 %
Track quality 100.0 %
Test CRC 1B2BB1FE
Copy CRC 1B2BB1FE
Accurately ripped (confidence 2) [686E0E5D]
Copy OK

Track 6

Filename D:\Lossless 400\Ernie Henry - Last Chorus (1957) {Riverside OJCCD-1906-2 (RLP-2669} [ft. Lee Morgan]\06 - Ba-Lue Bolivar Ba-Lues-Are (excerpt).wav

Pre-gap length 0:00:02.32

Peak level 100.0 %
Track quality 100.0 %
Test CRC 6EF16E01
Copy CRC 6EF16E01
Accurately ripped (confidence 2) [4A2268D0]
Copy OK

Track 7

Filename D:\Lossless 400\Ernie Henry - Last Chorus (1957) {Riverside OJCCD-1906-2 (RLP-2669} [ft. Lee Morgan]\07 - Like Someone In Love (alternate take).wav

Pre-gap length 0:00:02.51

Peak level 87.7 %
Track quality 100.0 %
Test CRC F99C320E
Copy CRC F99C320E
Accurately ripped (confidence 2) [3A883F3C]
Copy OK

Track 8

Filename D:\Lossless 400\Ernie Henry - Last Chorus (1957) {Riverside OJCCD-1906-2 (RLP-2669} [ft. Lee Morgan]\08 - Cleo's Chant.wav

Pre-gap length 0:00:02.49

Peak level 100.0 %
Track quality 100.0 %
Test CRC 5B820D75
Copy CRC 5B820D75
Accurately ripped (confidence 2) [6EB0D4C1]
Copy OK


All tracks accurately ripped

No errors occurred

End of status report


Ernie Henry - Last Chorus (1957) {Riverside OJCCD-1906-2 rel 1998} (featuring Lee Morgan)



===