Subcategories

Erroll Garner - Now Playing: A Night At The Movies & Up In Erroll's Room

Posted By: odoacer
Erroll Garner - Now Playing: A Night At The Movies & Up In Erroll's Room

Erroll Garner - Now Playing: A Night At The Movies & Up In Erroll's Room
JAZZ | EAC rip | APE(IMAGE+CUE+LOG) | COVERS | 380Mb
2 LPs on 1 CD, Recording Time 71 minutes


Erroll Garner - Now Playing: A Night At The Movies & Up In Erroll's Room


About This Album
Many of Erroll Garner's sessions from the 1960s have been reissued by Telarc. This single CD brings back all of the music from two former LPs. Garner and his quartet (bassist Ike Isaacs, drummer Jimmie Smith and percussionist Jose Mangual) romp through 13 songs taken from movies (including "You Made Me Love You," "I Found a Million Dollar Baby," "It's Only a Paper Moon" and even "Sonny Boy") during the first half of the set while the later session finds the group backed by seven horns arranged by Don Sebesky on nine diverse tunes ranging from swing standards to "The Girl from Ipanema," "Groovin' High" and Garner's lone original "Up in Erroll's Room." All of the Telarc Erroll Garner CDs are easily recommended (the pianist never seems to have made an uninspired record) and this one is no exception. ~ Scott Yanow, All Music Guide

Exact Audio Copy V0.99 prebeta 4 from 23. January 2008

EAC extraction logfile from 12. May 2009, 12:16

Erroll Garner / Closeup In Swing & A New Kind Of Love

Used drive : TEAC DV-W518GM Adapter: 3 ID: 1

Read mode : Secure
Utilize accurate stream : Yes
Defeat audio cache : Yes
Make use of C2 pointers : No

Read offset correction : 6
Overread into Lead-In and Lead-Out : No
Fill up missing offset samples with silence : Yes
Delete leading and trailing silent blocks : No
Null samples used in CRC calculations : Yes
Used interface : Installed external ASPI interface

Used output format : Monkey's Audio Lossless Encoder
Selected bitrate : Normal Lossless Compression
Quality : High
Add ID3 tag : No
Command line compressor : C:\Program Files\Monkey's Audio\MAC.exe
Additional command line options : -v


TOC of the extracted CD

Track | Start | Length | Start sector | End sector
––––––––––––––––––––––––––––-
1 | 0:00.00 | 3:14.40 | 0 | 14589
2 | 3:14.40 | 4:05.20 | 14590 | 32984
3 | 7:19.60 | 2:20.72 | 32985 | 43556
4 | 9:40.57 | 4:07.07 | 43557 | 62088
5 | 13:47.64 | 6:27.16 | 62089 | 91129
6 | 20:15.05 | 3:11.60 | 91130 | 105514
7 | 23:26.65 | 4:24.70 | 105515 | 125384
8 | 27:51.60 | 4:10.55 | 125385 | 144189
9 | 32:02.40 | 3:27.52 | 144190 | 159766
10 | 35:30.17 | 3:50.55 | 159767 | 177071
11 | 39:20.72 | 3:27.55 | 177072 | 192651
12 | 42:48.52 | 3:17.33 | 192652 | 207459
13 | 46:06.10 | 4:08.15 | 207460 | 226074
14 | 50:14.25 | 3:54.40 | 226075 | 243664
15 | 54:08.65 | 3:54.05 | 243665 | 261219
16 | 58:02.70 | 3:34.47 | 261220 | 277316
17 | 61:37.42 | 3:12.35 | 277317 | 291751
18 | 64:50.02 | 3:12.43 | 291752 | 306194
19 | 68:02.45 | 4:19.30 | 306195 | 325649
20 | 72:22.00 | 3:35.40 | 325650 | 341814


Range status and errors

Selected range

Filename C:\Documents and Settings\User\My Documents\My Music\ОБРАЗЫ\Erroll Garner - Closeup In Swing & A New Kind Of Love.wav

Peak level 98.8 %
Range quality 100.0 %
Test CRC 1B9A8A37
Copy CRC 1B9A8A37
Copy OK

No errors occurred


AccurateRip summary

Track 1 not present in database
Track 2 not present in database
Track 3 not present in database
Track 4 not present in database
Track 5 not present in database
Track 6 not present in database
Track 7 not present in database
Track 8 not present in database
Track 9 not present in database
Track 10 not present in database
Track 11 not present in database
Track 12 not present in database
Track 13 not present in database
Track 14 not present in database
Track 15 not present in database
Track 16 not present in database
Track 17 not present in database
Track 18 not present in database
Track 19 not present in database
Track 20 not present in database

None of the tracks are present in the AccurateRip database

End of status report


http://narod.ru/disk/8565287000/EGnpanatmauier.part1.rar.html
http://narod.ru/disk/8585076000/EGnpanatmauier.part2.rar.html
http://narod.ru/disk/8586316000/EGnpanatmauier.part3.rar.html
http://narod.ru/disk/8587084000/EGnpanatmauier.part4.rar.html
http://narod.ru/disk/8587143000/ScansEGnpanatmauier.rar.html


http://rapidshare.com/files/231899457/EGnpanatmauier.part1.rar
http://rapidshare.com/files/231899620/EGnpanatmauier.part2.rar
http://rapidshare.com/files/231899625/EGnpanatmauier.part3.rar
http://rapidshare.com/files/231899488/EGnpanatmauier.part4.rar
http://rapidshare.com/files/231896264/ScansEGnpanatmauier.rar