Subcategories

Peter Erskine Trio, John Taylor, Palle Danielson - As It Was (2016) {4CD Old and New Masters Series ECM 2490-93}

Posted By: ruskaval
Peter Erskine Trio, John Taylor, Palle Danielson - As It Was (2016) {4CD Old and New Masters Series ECM 2490-93}

Peter Erskine Trio, John Taylor, Palle Danielson - As It Was (2016) {4CD Old and New Masters Series ECM 2490-93}
EAC rip (secure mode) | FLAC (tracks)+CUE+LOG -> 1.08 Gb | MP3 @320 -> 538 Mb
Full Artwork @ 600 dpi (jpg) -> 274 Mb | 5% repair rar
© 2016 ECM Records | Old and New Masters Series | ECM 2490-93
Jazz / Post Bop / Contemporary Jazz / Progressive Jazz / Drums

The newest addition to ECM’s popular Old and New Masters Series is a box set reprising the four albums made by Peter Erskine’s American-British-Swedish trio with John Taylor and Palle Danielsson between 1992 and 1997: You Never Know, As It Is, Time Being and Juni. If its core concept – a piano led by a drummer – was unorthodox, the group was nonetheless influential, and the recordings provide an excellent environment for appreciating the distinctive writing and playing of John Taylor.

The British pianist was the Erskine Trio’s primary composer, with the drummer-leader and bassist Danielsson also contributing pieces and the repertoire topped up with tunes by Vince Mendoza and Kenny Wheeler. Of his trio mates Erskine says, "We drew out our most explorative and interesting playing from each other. Without trying to be, we were a truly unique group. I’ve heard nothing like it before or since.”
Peter Erskine Trio, John Taylor, Palle Danielson - As It Was (2016) {4CD Old and New Masters Series ECM 2490-93}


ECM INFO
AAJ INFO


Personnel:
Peter Erskine - Drums
John Taylor - Piano
Palle Danielsson - Double Bass

Peter Erskine Trio, John Taylor, Palle Danielson - As It Was (2016) {4CD Old and New Masters Series ECM 2490-93}


tracklist:
CD 1 - YOU NEVER KNOW (1993)

1. NEW OLD AGE (John Taylor) 09:25
2. CLAPPERCLOWE (John Taylor) 04:51
3. ON THE LAKE (Peter Erskine Trio) 05:03
4. AMBER WAVES (Vince Mendoza) 05:42
5. SHE NEVER HAS A WINDOW (Vince Mendoza) 07:18
6. EVANS ABOVE (John Taylor) 06:16
7. PURE & SIMPLE (John Taylor) 06:35
8. HEART GAME (Vince Mendoza) 05:13
9. EVERYTHING I LOVE (Cole Porter) 07:45

Peter Erskine Trio, John Taylor, Palle Danielson - As It Was (2016) {4CD Old and New Masters Series ECM 2490-93}


CD 2 - TIME BEING (1994)
01. TERRACES (John Taylor, Palle Danielsson, Peter Erskine) 07:09
02. FOR THE TIME BEING (Peter Erskine) 05:10
03. IF ONLY I HAD KNOWN (Peter Erskine) 06:02
04. EVANSONG (John Taylor) 08:03
05. PAGE 172 (John Taylor) 05:58
06. LITEN VISA TILL KARIN (Staffan Linton) 04:54
07. BULGARIA (Peter Erskine) 04:44
08. AMBLESIDE (John Taylor) 06:34
09. PHRASE ONE (Kenny Wheeler) 05:17
10. PALLE’S HEADACHE (Palle Danielsson) 05:25
11. PIEDS-EN-L’AIR (Peter Warlock) 04:38

Peter Erskine Trio, John Taylor, Palle Danielson - As It Was (2016) {4CD Old and New Masters Series ECM 2490-93}


CD 3 - AS IT IS (1996)
1. GLEBE ASCENDING (John Taylor) 07:00
2. THE LADY IN THE LAKE (Peter Erskine) 07:59
3. EPISODE (John Taylor) 04:30
4. WOODCOCKS (John Taylor) 07:15
5. ESPERANÇA (Vince Mendoza) 03:59
6. TOUCH HER SOFT LIPS AND PART (William Walton) 04:52
7. AU CONTRAIRE (John Taylor) 10:20
8. FOR RUTH (John Taylor) 06:44
9. ROMEO & JULIET (Peter Erskine) 04:30

Peter Erskine Trio, John Taylor, Palle Danielson - As It Was (2016) {4CD Old and New Masters Series ECM 2490-93}


CD 4 - JUNI (1999)
1.PRELUDE NO. 2 (John Taylor) 05:34
2.WINDFALL (John Taylor) 06:14
3.FOR JAN (Kenny Wheeler) 06:44
4.THE ANT & THE ELK (Peter Erskine) 07:08
5.SIRI (Palle Danielsson) 06:31
6.FABLE (John Taylor) 05:28
7.TWELVE (Peter Erskine) 07:18
8.NAMASTI (Diane Taylor) 05:28

Peter Erskine Trio, John Taylor, Palle Danielson - As It Was (2016) {4CD Old and New Masters Series ECM 2490-93}


Exact Audio Copy V1.1 from 23. June 2015

EAC extraction logfile from 4. August 2016, 1:52

Peter Erskine, Palle Danielson, John Taylor / You Never Know [2016 Reissue - ECM 2490]

Used drive : PLEXTOR DVDR PX-L890SA Adapter: 1 ID: 2

Read mode : Secure
Utilize accurate stream : Yes
Defeat audio cache : Yes
Make use of C2 pointers : No

Read offset correction : 6
Overread into Lead-In and Lead-Out : No
Fill up missing offset samples with silence : Yes
Delete leading and trailing silent blocks : No
Null samples used in CRC calculations : Yes
Used interface : Native Win32 interface for Win NT & 2000
Gap handling : Appended to previous track

Used output format : User Defined Encoder
Selected bitrate : 128 kBit/s
Quality : High
Add ID3 tag : No
Command line compressor : C:\Program Files (x86)\Exact Audio Copy\FLAC\FLAC.EXE
Additional command line options : -8 -V -T "ARTIST=%artist%" -T "TITLE=%title%" -T "ALBUM=%albumtitle%" -T "DATE=%year%" -T "TRACKNUMBER=%tracknr%" -T "TOTALTRACKS=%numtracks%" -T "GENRE=%genre%" -T "ALBUMARTIST=%albumartist%" -T "ALBUM ARTIST=%albumartist%" -T "COMMENT=EAC Secure Mode, Test & Copy, AccurateRip, FLAC -8" %source%


TOC of the extracted CD

Track | Start | Length | Start sector | End sector
––––––––––––––––––––––––––––-
1 | 0:00.00 | 9:30.55 | 0 | 42804
2 | 9:30.55 | 4:55.10 | 42805 | 64939
3 | 14:25.65 | 5:07.45 | 64940 | 88009
4 | 19:33.35 | 5:45.20 | 88010 | 113904
5 | 25:18.55 | 7:20.68 | 113905 | 146972
6 | 32:39.48 | 6:19.62 | 146973 | 175459
7 | 38:59.35 | 6:38.18 | 175460 | 205327
8 | 45:37.53 | 5:16.52 | 205328 | 229079
9 | 50:54.30 | 7:45.10 | 229080 | 263964


Track 1

Filename D:\Flac Rips\01 - New Old Age.wav

Pre-gap length 0:00:02.00

Peak level 100.0 %
Extraction speed 3.6 X
Track quality 99.9 %
Test CRC 5D8F67BB
Copy CRC 5D8F67BB
Accurately ripped (confidence 1) [B38CFA60] (AR v2)
Copy OK

Track 2

Filename D:\Flac Rips\02 - Clapperclowe.wav

Pre-gap length 0:00:04.32

Peak level 100.0 %
Extraction speed 3.6 X
Track quality 99.9 %
Test CRC 44370433
Copy CRC 44370433
Accurately ripped (confidence 1) [13E33619] (AR v2)
Copy OK

Track 3

Filename D:\Flac Rips\03 - On the Lake.wav

Pre-gap length 0:00:03.35

Peak level 79.1 %
Extraction speed 4.7 X
Track quality 100.0 %
Test CRC E53C03AF
Copy CRC E53C03AF
Accurately ripped (confidence 1) [C991A679] (AR v2)
Copy OK

Track 4

Filename D:\Flac Rips\04 - Amber Waves.wav

Pre-gap length 0:00:03.65

Peak level 68.1 %
Extraction speed 4.4 X
Track quality 99.9 %
Test CRC EDA75EDB
Copy CRC EDA75EDB
Accurately ripped (confidence 1) [14298BBA] (AR v2)
Copy OK

Track 5

Filename D:\Flac Rips\05 - She Never Has a Window.wav

Pre-gap length 0:00:02.70

Peak level 78.8 %
Extraction speed 5.0 X
Track quality 99.9 %
Test CRC 87BA1159
Copy CRC 87BA1159
Accurately ripped (confidence 1) [67BA1C2B] (AR v2)
Copy OK

Track 6

Filename D:\Flac Rips\06 - Evans Above.wav

Pre-gap length 0:00:02.33

Peak level 92.5 %
Extraction speed 5.9 X
Track quality 100.0 %
Test CRC B3D47E59
Copy CRC B3D47E59
Accurately ripped (confidence 1) [30D05B6F] (AR v2)
Copy OK

Track 7

Filename D:\Flac Rips\07 - Pure and Simple.wav

Pre-gap length 0:00:03.20

Peak level 100.0 %
Extraction speed 6.4 X
Track quality 100.0 %
Test CRC D3924769
Copy CRC D3924769
Accurately ripped (confidence 1) [184D926C] (AR v2)
Copy OK

Track 8

Filename D:\Flac Rips\08 - Heart Game.wav

Pre-gap length 0:00:02.68

Peak level 71.5 %
Extraction speed 5.4 X
Track quality 99.9 %
Test CRC AB8E7C05
Copy CRC AB8E7C05
Accurately ripped (confidence 1) [50316CAD] (AR v2)
Copy OK

Track 9

Filename D:\Flac Rips\09 - Everything I Love.wav

Pre-gap length 0:00:03.02

Peak level 94.5 %
Extraction speed 6.2 X
Track quality 99.9 %
Test CRC B2DFCD04
Copy CRC B2DFCD04
Accurately ripped (confidence 1) [DBD64033] (AR v2)
Copy OK


All tracks accurately ripped

No errors occurred

End of status report

–– CUETools DB Plugin V2.1.6

[CTDB TOCID: P7qeZKb0KnQdRqRXLW53zCkfSPM-] found
Submit result: P7qeZKb0KnQdRqRXLW53zCkfSPM- has been confirmed
Track | CTDB Status
1 | (3/3) Accurately ripped
2 | (3/3) Accurately ripped
3 | (3/3) Accurately ripped
4 | (3/3) Accurately ripped
5 | (3/3) Accurately ripped
6 | (3/3) Accurately ripped
7 | (3/3) Accurately ripped
8 | (3/3) Accurately ripped
9 | (3/3) Accurately ripped


==== Log checksum BCB4B1765A881A75EBDA22137CB36E0C8EA0BC9BD15207D101065B7ACA124742 ====

Exact Audio Copy V1.1 from 23. June 2015

EAC extraction logfile from 4. August 2016, 21:33

Peter Erskine, Palle Danielson, John Taylor / Time Being [2016 Reissue - ECM 2491]

Used drive : PLEXTOR DVDR PX-L890SA Adapter: 1 ID: 2

Read mode : Secure
Utilize accurate stream : Yes
Defeat audio cache : Yes
Make use of C2 pointers : No

Read offset correction : 6
Overread into Lead-In and Lead-Out : No
Fill up missing offset samples with silence : Yes
Delete leading and trailing silent blocks : No
Null samples used in CRC calculations : Yes
Used interface : Native Win32 interface for Win NT & 2000
Gap handling : Appended to previous track

Used output format : User Defined Encoder
Selected bitrate : 128 kBit/s
Quality : High
Add ID3 tag : No
Command line compressor : C:\Program Files (x86)\Exact Audio Copy\FLAC\FLAC.EXE
Additional command line options : -8 -V -T "ARTIST=%artist%" -T "TITLE=%title%" -T "ALBUM=%albumtitle%" -T "DATE=%year%" -T "TRACKNUMBER=%tracknr%" -T "TOTALTRACKS=%numtracks%" -T "GENRE=%genre%" -T "ALBUMARTIST=%albumartist%" -T "ALBUM ARTIST=%albumartist%" -T "COMMENT=EAC Secure Mode, Test & Copy, AccurateRip, FLAC -8" %source%


TOC of the extracted CD

Track | Start | Length | Start sector | End sector
––––––––––––––––––––––––––––-
1 | 0:00.00 | 7:11.63 | 0 | 32387
2 | 7:11.63 | 5:13.12 | 32388 | 55874
3 | 12:25.00 | 6:05.50 | 55875 | 83299
4 | 18:30.50 | 8:06.55 | 83300 | 119804
5 | 26:37.30 | 6:02.15 | 119805 | 146969
6 | 32:39.45 | 4:57.43 | 146970 | 169287
7 | 37:37.13 | 4:48.00 | 169288 | 190887
8 | 42:25.13 | 6:36.55 | 190888 | 220642
9 | 49:01.68 | 5:19.70 | 220643 | 244637
10 | 54:21.63 | 5:26.50 | 244638 | 269137
11 | 59:48.38 | 4:38.37 | 269138 | 290024


Track 1

Filename D:\Flac Rips\01 - Terraces.wav

Pre-gap length 0:00:02.00

Peak level 77.9 %
Extraction speed 3.7 X
Track quality 100.0 %
Test CRC 70BCF295
Copy CRC 70BCF295
Cannot be verified as accurate (confidence 4) [763B6217], AccurateRip returned [4A92DA15] (AR v2)
Copy OK

Track 2

Filename D:\Flac Rips\02 - For the Time Being.wav

Pre-gap length 0:00:02.08

Peak level 80.8 %
Extraction speed 4.2 X
Track quality 100.0 %
Test CRC 55F8B9A7
Copy CRC 55F8B9A7
Cannot be verified as accurate (confidence 4) [F1469DD0], AccurateRip returned [08DC7C89] (AR v2)
Copy OK

Track 3

Filename D:\Flac Rips\03 - If Only I Had Known.wav

Pre-gap length 0:00:02.55

Peak level 79.6 %
Extraction speed 4.7 X
Track quality 100.0 %
Test CRC CC89EF29
Copy CRC CC89EF29
Cannot be verified as accurate (confidence 4) [4EF09ECC], AccurateRip returned [81FE4254] (AR v2)
Copy OK

Track 4

Filename D:\Flac Rips\04 - Evansong.wav

Pre-gap length 0:00:03.28

Peak level 80.9 %
Extraction speed 5.3 X
Track quality 100.0 %
Test CRC 03F044C6
Copy CRC 03F044C6
Cannot be verified as accurate (confidence 4) [BCE6B88A], AccurateRip returned [891636BB] (AR v2)
Copy OK

Track 5

Filename D:\Flac Rips\05 - Page 172.wav

Pre-gap length 0:00:02.68

Peak level 68.0 %
Extraction speed 4.8 X
Track quality 99.9 %
Test CRC E7CE98FB
Copy CRC E7CE98FB
Cannot be verified as accurate (confidence 4) [3633E6A6], AccurateRip returned [96F47748] (AR v2)
Copy OK

Track 6

Filename D:\Flac Rips\06 - Liten Visa Till Karim.wav

Pre-gap length 0:00:04.05

Peak level 59.9 %
Extraction speed 5.8 X
Track quality 100.0 %
Test CRC 1D01456B
Copy CRC 1D01456B
Cannot be verified as accurate (confidence 4) [1002A5C9], AccurateRip returned [0AA86B79] (AR v2)
Copy OK

Track 7

Filename D:\Flac Rips\07 - Bulgaria.wav

Pre-gap length 0:00:03.28

Peak level 91.5 %
Extraction speed 6.0 X
Track quality 100.0 %
Test CRC DB7DE8DF
Copy CRC DB7DE8DF
Cannot be verified as accurate (confidence 4) [61D151CE], AccurateRip returned [299A6BEE] (AR v2)
Copy OK

Track 8

Filename D:\Flac Rips\08 - Ambleside.wav

Pre-gap length 0:00:03.70

Peak level 93.7 %
Extraction speed 5.6 X
Track quality 99.9 %
Test CRC B9A44276
Copy CRC B9A44276
Cannot be verified as accurate (confidence 4) [5DE0F6E8], AccurateRip returned [D66658F9] (AR v2)
Copy OK

Track 9

Filename D:\Flac Rips\09 - Phrase One.wav

Pre-gap length 0:00:01.68

Peak level 77.1 %
Extraction speed 6.7 X
Track quality 100.0 %
Test CRC D98D8805
Copy CRC D98D8805
Cannot be verified as accurate (confidence 4) [E715952B], AccurateRip returned [34A7A8EF] (AR v2)
Copy OK

Track 10

Filename D:\Flac Rips\10 - Palle's Headache.wav

Pre-gap length 0:00:02.00

Peak level 94.9 %
Extraction speed 5.8 X
Track quality 99.9 %
Test CRC 188220E1
Copy CRC 188220E1
Cannot be verified as accurate (confidence 4) [6C809CF2], AccurateRip returned [79EC1A47] (AR v2)
Copy OK

Track 11

Filename D:\Flac Rips\11 - Pieds-En-L'Air.wav

Pre-gap length 0:00:01.05

Peak level 86.5 %
Extraction speed 7.1 X
Track quality 100.0 %
Test CRC 6CF4E0E3
Copy CRC 6CF4E0E3
Cannot be verified as accurate (confidence 4) [0D042BAD], AccurateRip returned [817A8713] (AR v2)
Copy OK


No tracks could be verified as accurate
You may have a different pressing from the one(s) in the database

No errors occurred

End of status report

–– CUETools DB Plugin V2.1.6

[CTDB TOCID: HBx1zy0FxJMcE9oBN4jQRVmX2z0-] found
Submit result: HBx1zy0FxJMcE9oBN4jQRVmX2z0- has been confirmed
Track | CTDB Status
1 | (7/7) Accurately ripped
2 | (7/7) Accurately ripped
3 | (7/7) Accurately ripped
4 | (7/7) Accurately ripped
5 | (7/7) Accurately ripped
6 | (6/7) Accurately ripped
7 | (7/7) Accurately ripped
8 | (7/7) Accurately ripped
9 | (7/7) Accurately ripped
10 | (7/7) Accurately ripped
11 | (7/7) Accurately ripped


==== Log checksum 28BDFA88CC9D39CDC0108D9609C46BDC5C9377C2250E97E12D20C99D6D47FB0A ====

Exact Audio Copy V1.1 from 23. June 2015

EAC extraction logfile from 4. August 2016, 22:22

Peter Erskine, Palle Danielson, John Taylor / As It Is [2016 Reissue - ECM 2492]

Used drive : PLEXTOR DVDR PX-L890SA Adapter: 1 ID: 2

Read mode : Secure
Utilize accurate stream : Yes
Defeat audio cache : Yes
Make use of C2 pointers : No

Read offset correction : 6
Overread into Lead-In and Lead-Out : No
Fill up missing offset samples with silence : Yes
Delete leading and trailing silent blocks : No
Null samples used in CRC calculations : Yes
Used interface : Native Win32 interface for Win NT & 2000
Gap handling : Appended to previous track

Used output format : User Defined Encoder
Selected bitrate : 128 kBit/s
Quality : High
Add ID3 tag : No
Command line compressor : C:\Program Files (x86)\Exact Audio Copy\FLAC\FLAC.EXE
Additional command line options : -8 -V -T "ARTIST=%artist%" -T "TITLE=%title%" -T "ALBUM=%albumtitle%" -T "DATE=%year%" -T "TRACKNUMBER=%tracknr%" -T "TOTALTRACKS=%numtracks%" -T "GENRE=%genre%" -T "ALBUMARTIST=%albumartist%" -T "ALBUM ARTIST=%albumartist%" -T "COMMENT=EAC Secure Mode, Test & Copy, AccurateRip, FLAC -8" %source%


TOC of the extracted CD

Track | Start | Length | Start sector | End sector
––––––––––––––––––––––––––––-
1 | 0:00.00 | 7:04.63 | 0 | 31862
2 | 7:04.63 | 8:00.32 | 31863 | 67894
3 | 15:05.20 | 4:30.38 | 67895 | 88182
4 | 19:35.58 | 7:15.65 | 88183 | 120872
5 | 26:51.48 | 3:58.35 | 120873 | 138757
6 | 30:50.08 | 4:54.67 | 138758 | 160874
7 | 35:45.00 | 10:18.38 | 160875 | 207262
8 | 46:03.38 | 6:44.37 | 207263 | 237599
9 | 52:48.00 | 4:30.00 | 237600 | 257849


Track 1

Filename D:\Flac Rips\01 - Glebe Ascending.wav

Pre-gap length 0:00:02.00

Peak level 92.6 %
Extraction speed 3.7 X
Track quality 100.0 %
Test CRC 94FCFBC4
Copy CRC 94FCFBC4
Cannot be verified as accurate (confidence 2) [28EBBD59], AccurateRip returned [3BD09C5F] (AR v2)
Copy OK

Track 2

Filename D:\Flac Rips\02 - The Lady In The Lake.wav

Pre-gap length 0:00:01.38

Peak level 86.2 %
Extraction speed 4.5 X
Track quality 100.0 %
Test CRC B1EDC7E2
Copy CRC B1EDC7E2
Cannot be verified as accurate (confidence 2) [9F7F6953], AccurateRip returned [F9BB913F] (AR v2)
Copy OK

Track 3

Filename D:\Flac Rips\03 - Episode.wav

Pre-gap length 0:00:02.18

Peak level 93.6 %
Extraction speed 4.7 X
Track quality 100.0 %
Test CRC 6017B630
Copy CRC 6017B630
Accurately ripped (confidence 1) [FD65ACA9] (AR v2)
Copy OK

Track 4

Filename D:\Flac Rips\04 - Woodcocks.wav

Pre-gap length 0:00:01.55

Peak level 89.8 %
Extraction speed 5.3 X
Track quality 100.0 %
Test CRC 06D0A5E5
Copy CRC 06D0A5E5
Accurately ripped (confidence 1) [33D16D04] (AR v2)
Copy OK

Track 5

Filename D:\Flac Rips\05 - Esperanca.wav

Pre-gap length 0:00:03.08

Peak level 95.3 %
Extraction speed 5.3 X
Track quality 100.0 %
Test CRC E4AAC078
Copy CRC E4AAC078
Accurately ripped (confidence 1) [13491FCF] (AR v2)
Copy OK

Track 6

Filename D:\Flac Rips\06 - Touch Her Soft Lips And Part.wav

Pre-gap length 0:00:01.13

Peak level 56.9 %
Extraction speed 5.7 X
Track quality 100.0 %
Test CRC EDD543C6
Copy CRC EDD543C6
Cannot be verified as accurate (confidence 2) [4C6F524B], AccurateRip returned [B6629D33] (AR v2)
Copy OK

Track 7

Filename D:\Flac Rips\07 - Au Contraire.wav

Pre-gap length 0:00:02.08

Peak level 100.0 %
Extraction speed 5.9 X
Track quality 99.9 %
Test CRC 4CCD18ED
Copy CRC 4CCD18ED
Cannot be verified as accurate (confidence 2) [E5DB7DF6], AccurateRip returned [22E98C2E] (AR v2)
Copy OK

Track 8

Filename D:\Flac Rips\08 - For Ruth.wav

Pre-gap length 0:00:00.63

Peak level 76.3 %
Extraction speed 6.7 X
Track quality 100.0 %
Test CRC 653B0E08
Copy CRC 653B0E08
Cannot be verified as accurate (confidence 2) [C74DE4CD], AccurateRip returned [0FB174DA] (AR v2)
Copy OK

Track 9

Filename D:\Flac Rips\09 - Romeo & Juliet.wav

Pre-gap length 0:00:00.63

Peak level 92.7 %
Extraction speed 6.7 X
Track quality 100.0 %
Test CRC C35B8BA2
Copy CRC C35B8BA2
Cannot be verified as accurate (confidence 2) [FE72B7AF], AccurateRip returned [4C8B2338] (AR v2)
Copy OK


3 track(s) accurately ripped
6 track(s) could not be verified as accurate

Some tracks could not be verified as accurate

No errors occurred

End of status report

–– CUETools DB Plugin V2.1.6

[CTDB TOCID: _zreLrqZwC5AO2eC618wj5kmnt8-] found
Submit result: _zreLrqZwC5AO2eC618wj5kmnt8- has been confirmed
Track | CTDB Status
1 | (5/5) Accurately ripped
2 | (5/5) Accurately ripped
3 | (5/5) Accurately ripped
4 | (5/5) Accurately ripped
5 | (5/5) Accurately ripped
6 | (5/5) Accurately ripped
7 | (5/5) Accurately ripped
8 | (5/5) Accurately ripped
9 | (5/5) Accurately ripped


==== Log checksum 0BBECD10293CDCCC7C768ED3432E91155D01DEF443E70E69E0245C92029D1C4D ====

Exact Audio Copy V1.1 from 23. June 2015

EAC extraction logfile from 4. August 2016, 22:58

Peter Erskine, Palle Danielson, John Taylor / Juni [2016 Reissue - ECM 2493]

Used drive : PLEXTOR DVDR PX-L890SA Adapter: 1 ID: 2

Read mode : Secure
Utilize accurate stream : Yes
Defeat audio cache : Yes
Make use of C2 pointers : No

Read offset correction : 6
Overread into Lead-In and Lead-Out : No
Fill up missing offset samples with silence : Yes
Delete leading and trailing silent blocks : No
Null samples used in CRC calculations : Yes
Used interface : Native Win32 interface for Win NT & 2000
Gap handling : Appended to previous track

Used output format : User Defined Encoder
Selected bitrate : 128 kBit/s
Quality : High
Add ID3 tag : No
Command line compressor : C:\Program Files (x86)\Exact Audio Copy\FLAC\FLAC.EXE
Additional command line options : -8 -V -T "ARTIST=%artist%" -T "TITLE=%title%" -T "ALBUM=%albumtitle%" -T "DATE=%year%" -T "TRACKNUMBER=%tracknr%" -T "TOTALTRACKS=%numtracks%" -T "GENRE=%genre%" -T "ALBUMARTIST=%albumartist%" -T "ALBUM ARTIST=%albumartist%" -T "COMMENT=EAC Secure Mode, Test & Copy, AccurateRip, FLAC -8" %source%


TOC of the extracted CD

Track | Start | Length | Start sector | End sector
––––––––––––––––––––––––––––-
1 | 0:00.00 | 5:37.35 | 0 | 25309
2 | 5:37.35 | 6:17.60 | 25310 | 53644
3 | 11:55.20 | 6:45.27 | 53645 | 84046
4 | 18:40.47 | 7:08.45 | 84047 | 116191
5 | 25:49.17 | 6:33.73 | 116192 | 145739
6 | 32:23.15 | 5:32.12 | 145740 | 170651
7 | 37:55.27 | 7:20.25 | 170652 | 203676
8 | 45:15.52 | 5:28.55 | 203677 | 228331


Track 1

Filename D:\Flac Rips\01 - Prelude No. 2.wav

Pre-gap length 0:00:02.00

Peak level 78.1 %
Extraction speed 3.6 X
Track quality 100.0 %
Test CRC 61FF04D6
Copy CRC 61FF04D6
Cannot be verified as accurate (confidence 18) [004DBB51], AccurateRip returned [0B4ED4F7] (AR v2)
Copy OK

Track 2

Filename D:\Flac Rips\02 - Windfall.wav

Pre-gap length 0:00:03.30

Peak level 99.9 %
Extraction speed 3.6 X
Track quality 99.9 %
Test CRC A32EC66B
Copy CRC A32EC66B
Cannot be verified as accurate (confidence 18) [750AA640], AccurateRip returned [0A09D13D] (AR v2)
Copy OK

Track 3

Filename D:\Flac Rips\03 - For Jan.wav

Pre-gap length 0:00:03.60

Peak level 99.9 %
Extraction speed 4.1 X
Track quality 99.9 %
Test CRC 3ABF818A
Copy CRC 3ABF818A
Cannot be verified as accurate (confidence 19) [D1F09E28], AccurateRip returned [D6C33DE0] (AR v2)
Copy OK

Track 4

Filename D:\Flac Rips\04 - The Ant & The Elk.wav

Pre-gap length 0:00:01.15

Peak level 99.9 %
Extraction speed 4.6 X
Track quality 99.9 %
Test CRC 29F96EE2
Copy CRC 29F96EE2
Cannot be verified as accurate (confidence 19) [425562B5], AccurateRip returned [FFDFD28C] (AR v2)
Copy OK

Track 5

Filename D:\Flac Rips\05 - Siri.wav

Pre-gap length 0:00:01.67

Peak level 87.4 %
Extraction speed 5.6 X
Track quality 100.0 %
Test CRC AB7ED65E
Copy CRC AB7ED65E
Cannot be verified as accurate (confidence 19) [45E2473B], AccurateRip returned [4D2520A8] (AR v2)
Copy OK

Track 6

Filename D:\Flac Rips\06 - Fable.wav

Pre-gap length 0:00:02.20

Peak level 69.6 %
Extraction speed 5.9 X
Track quality 100.0 %
Test CRC DF981FF6
Copy CRC DF981FF6
Cannot be verified as accurate (confidence 19) [674C06BE], AccurateRip returned [0388D06B] (AR v2)
Copy OK

Track 7

Filename D:\Flac Rips\07 - Twelve.wav

Pre-gap length 0:00:03.60

Peak level 99.9 %
Extraction speed 6.4 X
Track quality 100.0 %
Test CRC E9050498
Copy CRC E9050498
Cannot be verified as accurate (confidence 18) [FA2CA099], AccurateRip returned [158FB319] (AR v2)
Copy OK

Track 8

Filename D:\Flac Rips\08 - Namasti.wav

Pre-gap length 0:00:02.25

Peak level 94.3 %
Extraction speed 6.5 X
Track quality 100.0 %
Test CRC 28854136
Copy CRC 28854136
Cannot be verified as accurate (confidence 18) [60226184], AccurateRip returned [04881691] (AR v2)
Copy OK


No tracks could be verified as accurate
You may have a different pressing from the one(s) in the database

No errors occurred

End of status report

–– CUETools DB Plugin V2.1.6

[CTDB TOCID: NnRobHlPp6XZK.nslTpBX9yKJAk-] found
Submit result: NnRobHlPp6XZK.nslTpBX9yKJAk- has been confirmed
Track | CTDB Status
1 | (28/29) Accurately ripped
2 | (28/29) Accurately ripped
3 | (28/29) Accurately ripped
4 | (27/29) Accurately ripped
5 | (27/29) Accurately ripped
6 | (27/29) Accurately ripped
7 | (27/29) Accurately ripped
8 | (27/29) Accurately ripped


==== Log checksum 9AE13CCDF891FC57E5A6C879872FC281C7D29634FA225DC5D74095FAB05DA479 ====


Peter Erskine Trio, John Taylor, Palle Danielson - As It Was (2016) {4CD Old and New Masters Series ECM 2490-93}


All thanks goes to the original releaser!