Subcategories

Etta Jones - Hollar! (1962) [Remastered 2001]

Posted By: Bezz
Etta Jones - Hollar! (1962) [Remastered 2001]

Etta Jones - Hollar! (1962) [Remastered 2001]
EAC rip | FLAC+CUE+LOG | Scans | 200 Mb (Incl. Recovery)
Genre ~ Vocal Jazz | Label ~ Prestige Records

Etta Jones had the spark that made each of her vocals special, though she was never acknowledged properly during a long career. Following her hit "Don't Go to Strangers," she continued to record first-rate songs. Many of her albums were unjustly out of print for decades, though Hollar! was finally reissued by Fantasy as part of their Original Jazz Classics series in 2001. Jones is backed by three separate groups on this release. Guitarist Wally Richardson provides the driving rhythm to back her swinging take of "And the Angels Sing," while vibraphonist Lem Winchester and pianist Richard Wyands support Jones in her emotional rendition of "I Got It Bad (And That Ain't Good)." Jones would eventually return to the brisk bop gem "Reverse the Charges" decades after this recording, but this early version is preferable, with a nice interlude by pianist Jimmy Neely. There's a bit of friendly conversation in the studio as Jones gets underway with another swinger, "Our Love Is Here to Stay," adding a boisterous tenor sax solo by Oliver Nelson. This is easily one of Etta Jones' best recordings. ~ AllMusic
Tracklist

1. And The Angels Sing [2:34]
2. I Got It Bad (And That Ain't Good) [4:09]
3. Give Me The Simple Life [2:51]
4. The More I See You [4:11]
5. Our Love Is Here To Stay [3:46]
6. Reverse The Charges [2:56]
7. They Can't Take That Away From Me [2:50]
8. Answer Me My Love [3:18]
9. Looking Back [3:42]
10. Nature Boy [2:55]

Personnel

Etta Jones (vocals)
Oliver Nelson, Jerome Richardson (tenor saxophone)
Lem Winchester (vibraphone)
Jimmy Neeley, Richard Wyands, Sam Bruno (piano)
Wally Richardson, Kenny Burrell, Bucky Pizzarelli (guitar)
Michael Mulia, George Duvivier, Ernest Hayes (bass)
Rudy Lawless, Roy Haynes, Bobby Donaldson (drums)

EAC extraction logfile from 24. December 2007, 15:25 for CD
Etta Jones / Hollar!

Used drive : ASUS DRW-1608P2S Adapter: 0 ID: 3
Read mode : Secure with NO C2, accurate stream, disable cache
Read offset correction : 48
Overread into Lead-In and Lead-Out : Yes

Used output format : C:\Program Files\Exact Audio Copy\Plugins\flac.exe (User Defined Encoder)
320 kBit/s
Additional command line options : -V -8 -T "artist=%a" -T "title=%t" -T "album=%g" -T "date=%y" -T "tracknumber=%n" -T "genre=%m" -T "comment=EAC 095pb5 / Flac 1.1.2 -8" %s

Other options :
Fill up missing offset samples with silence : Yes
Delete leading and trailing silent blocks : No
Native Win32 interface for Win NT & 2000

Track 1
Filename D:\Audio\lossless\Etta Jones - Hollar! (1962) [FLAC]\01 - And The Angels Sing.wav

Pre-gap length 0:00:02.00

Peak level 100.0 %
Track quality 99.9 %
Test CRC 2FF0123E
Copy CRC 2FF0123E
Copy OK

Track 2
Filename D:\Audio\lossless\Etta Jones - Hollar! (1962) [FLAC]\02 - I Got It Bad And That Ain't Good.wav

Peak level 99.8 %
Track quality 100.0 %
Test CRC 6BA73646
Copy CRC 6BA73646
Copy OK

Track 3
Filename D:\Audio\lossless\Etta Jones - Hollar! (1962) [FLAC]\03 - Give Me The Simple Life.wav

Peak level 100.0 %
Track quality 99.9 %
Test CRC EE90B4D9
Copy CRC EE90B4D9
Copy OK

Track 4
Filename D:\Audio\lossless\Etta Jones - Hollar! (1962) [FLAC]\04 - The More I See You.wav

Peak level 100.0 %
Track quality 100.0 %
Test CRC 4727BA4D
Copy CRC 4727BA4D
Copy OK

Track 5
Filename D:\Audio\lossless\Etta Jones - Hollar! (1962) [FLAC]\05 - Our Love Is Here To Stay.wav

Peak level 100.0 %
Track quality 100.0 %
Test CRC C6CC6B63
Copy CRC C6CC6B63
Copy OK

Track 6
Filename D:\Audio\lossless\Etta Jones - Hollar! (1962) [FLAC]\06 - Reverse The Charges.wav

Peak level 99.7 %
Track quality 100.0 %
Test CRC 8AC99E3A
Copy CRC 8AC99E3A
Copy OK

Track 7
Filename D:\Audio\lossless\Etta Jones - Hollar! (1962) [FLAC]\07 - They Can't Take That Away From Me.wav

Peak level 100.0 %
Track quality 100.0 %
Test CRC 26C3164E
Copy CRC 26C3164E
Copy OK

Track 8
Filename D:\Audio\lossless\Etta Jones - Hollar! (1962) [FLAC]\08 - Answer Me, My Love.wav

Peak level 99.4 %
Track quality 100.0 %
Test CRC 1C1C0AFC
Copy CRC 1C1C0AFC
Copy OK

Track 9
Filename D:\Audio\lossless\Etta Jones - Hollar! (1962) [FLAC]\09 - Looking Back.wav

Peak level 99.7 %
Track quality 100.0 %
Test CRC B9020BF9
Copy CRC B9020BF9
Copy OK

Track 10
Filename D:\Audio\lossless\Etta Jones - Hollar! (1962) [FLAC]\10 - Nature Boy.wav

Peak level 100.0 %
Track quality 100.0 %
Test CRC 779E674F
Copy CRC 779E674F
Copy OK

No errors occured

End of status report

Etta Jones - Hollar! (1962) [Remastered 2001]

Special thanks to dema73!

Welcome to my blog for more wonderful music

PLEASE DO NOT PROVIDE MIRROR LINKS!