Subcategories

Etta Jones - Don't Go To Strangers (1960) {2006 Prestige RVG Remasters Series} [repost]

Posted By: ruskaval
Etta Jones - Don't Go To Strangers (1960) {2006 Prestige RVG Remasters Series} [repost]

Etta Jones - Don't Go To Strangers (1960) {2006 Prestige RVG Remasters Series}
EAC rip (secure mode) | FLAC (tracks)+CUE+LOG -> 224 Mb | MP3 @320 -> 98 Mb
Full Artwork @ 300 dpi (jpg) -> 18 Mb | 5% repair rar
© 2006 Concord / Prestige | PRCD-30007-2 | Prestige RVG Remasters Series | 24-bit remaster | PRLP 7186
Jazz / Vocal Jazz

Don't Go to Strangers was Etta Jones' first album for the independent jazz label Prestige when it was released in 1960 (having been recorded in a single session on June 21 of that year), and although Jones had been releasing records since 1944, including a dozen sides for RCA in 1946 and an album for King Records in 1957, she was treated as an overnight sensation when the title tune from the album went gold, hitting the Top 40 on the pop charts and reaching number five on the R&B charts.

An elegant ballad on an album that had several of them, including the masterful "If I Had You" and a marvelous reading of "All the Way," a song usually identified with Frank Sinatra, "Don't Go to Strangers" featured Jones' airy, bluesy phrasing and uncanny sense of spacing, and was very much a jazz performance, making its success on the pop charts all the more amazing. Listen to Jones' restructuring of the melody to the opening track, the old chestnut "Yes Sir, That's My Baby," to hear a gifted jazz singer sliding and shifting the tone center of a song like a veteran horn player, all the while leaving the melody still recognizable, but refreshing it until it stands revealed anew. Apparently there were no additional tracks cut at the session, since bonus material has never surfaced on any of the album's subsequent reissues, although that's hardly a problem, because as is, Don't Go to Strangers is a perfect gem of a recording.
Etta Jones - Don't Go To Strangers (1960) {2006 Prestige RVG Remasters Series} [repost]


Personnel: Etta Jones: vocals; Frank Wess: flute, tenor saxophone; Richard Wyands: piano; Skeeter Best: guitar; George Duvivier: bass; Roy Haynes: drums.

tracklist:
01 - Yes Sir, That's My Baby
02 - Don't Go To Strangers
03 - I Love Paris
04 - Fine And Mellow
05 - Where Or When
06 - If I Had You
07 - On The Street Where You Live
08 - Something To Remember You By
09 - Bye Bye Blackbird
10 - All The Way

Exact Audio Copy V0.99 prebeta 5 from 4. May 2009

EAC extraction logfile from 2. July 2014, 2:13

Etta Jones / Don't Go To Strangers

Used drive : PLEXTOR DVDR PX-L890SA Adapter: 6 ID: 0

Read mode : Secure
Utilize accurate stream : Yes
Defeat audio cache : Yes
Make use of C2 pointers : No

Read offset correction : 6
Overread into Lead-In and Lead-Out : No
Fill up missing offset samples with silence : Yes
Delete leading and trailing silent blocks : No
Null samples used in CRC calculations : Yes
Used interface : Native Win32 interface for Win NT & 2000
Gap handling : Appended to previous track

Used output format : User Defined Encoder
Selected bitrate : 1024 kBit/s
Quality : High
Add ID3 tag : No
Command line compressor : C:\Program Files (x86)\FLAC Frontend\tools\flac.exe
Additional command line options : -8 -V -T "ARTIST=%a" -T "TITLE=%t" -T "ALBUM=%g" -T "DATE=%y" -T "TRACKNUMBER=%n" -T "GENRE=%m" -T "COMMENT=EAC FLAC -8" %s


TOC of the extracted CD

Track | Start | Length | Start sector | End sector
––––––––––––––––––––––––––––-
1 | 0:00.00 | 4:23.22 | 0 | 19746
2 | 4:23.22 | 3:51.40 | 19747 | 37111
3 | 8:14.62 | 4:01.24 | 37112 | 55210
4 | 12:16.11 | 5:52.55 | 55211 | 81665
5 | 18:08.66 | 3:41.47 | 81666 | 98287
6 | 21:50.38 | 3:51.73 | 98288 | 115685
7 | 25:42.36 | 3:45.59 | 115686 | 132619
8 | 29:28.20 | 3:45.66 | 132620 | 149560
9 | 33:14.11 | 3:16.65 | 149561 | 164325
10 | 36:31.01 | 4:39.61 | 164326 | 185311


Track 1

Filename D:\_EAC\Etta Jones - Don't Go To Strangers (1960) [FLAC] {Prestige RVG}\01 - Yes Sir, That's My Baby.wav

Pre-gap length 0:00:02.00

Peak level 97.9 %
Track quality 100.0 %
Test CRC 15C1AD70
Copy CRC 15C1AD70
Accurately ripped (confidence 9) [60148C7D]
Copy OK

Track 2

Filename D:\_EAC\Etta Jones - Don't Go To Strangers (1960) [FLAC] {Prestige RVG}\02 - Don't Go To Strangers.wav

Pre-gap length 0:00:02.64

Peak level 97.3 %
Track quality 100.0 %
Test CRC 1AA6D741
Copy CRC 1AA6D741
Accurately ripped (confidence 9) [88C57EE7]
Copy OK

Track 3

Filename D:\_EAC\Etta Jones - Don't Go To Strangers (1960) [FLAC] {Prestige RVG}\03 - I Love Paris.wav

Pre-gap length 0:00:02.25

Peak level 97.9 %
Track quality 100.0 %
Test CRC 81B0E182
Copy CRC 81B0E182
Accurately ripped (confidence 9) [7A7EB88B]
Copy OK

Track 4

Filename D:\_EAC\Etta Jones - Don't Go To Strangers (1960) [FLAC] {Prestige RVG}\04 - Fine And Mellow.wav

Peak level 97.9 %
Track quality 100.0 %
Test CRC 224AEC19
Copy CRC 224AEC19
Accurately ripped (confidence 9) [645C35F4]
Copy OK

Track 5

Filename D:\_EAC\Etta Jones - Don't Go To Strangers (1960) [FLAC] {Prestige RVG}\05 - Where Or When.wav

Pre-gap length 0:00:01.39

Peak level 97.9 %
Track quality 100.0 %
Test CRC 7F6807D1
Copy CRC 7F6807D1
Accurately ripped (confidence 9) [469293C7]
Copy OK

Track 6

Filename D:\_EAC\Etta Jones - Don't Go To Strangers (1960) [FLAC] {Prestige RVG}\06 - If I Had You.wav

Peak level 97.9 %
Track quality 100.0 %
Test CRC FC535B8E
Copy CRC FC535B8E
Accurately ripped (confidence 9) [F8F6731D]
Copy OK

Track 7

Filename D:\_EAC\Etta Jones - Don't Go To Strangers (1960) [FLAC] {Prestige RVG}\07 - On The Street Where You Live.wav

Pre-gap length 0:00:01.48

Peak level 97.9 %
Track quality 99.9 %
Test CRC 001D4716
Copy CRC 001D4716
Accurately ripped (confidence 9) [93CAD93D]
Copy OK

Track 8

Filename D:\_EAC\Etta Jones - Don't Go To Strangers (1960) [FLAC] {Prestige RVG}\08 - Something To Remember You By.wav

Pre-gap length 0:00:01.67

Peak level 97.9 %
Track quality 100.0 %
Test CRC B9AA9AD7
Copy CRC B9AA9AD7
Accurately ripped (confidence 9) [58AF5B8F]
Copy OK

Track 9

Filename D:\_EAC\Etta Jones - Don't Go To Strangers (1960) [FLAC] {Prestige RVG}\09 - Bye Bye Blackbird.wav

Pre-gap length 0:00:01.00

Peak level 97.9 %
Track quality 100.0 %
Test CRC E832A704
Copy CRC E832A704
Accurately ripped (confidence 9) [F1A0F876]
Copy OK

Track 10

Filename D:\_EAC\Etta Jones - Don't Go To Strangers (1960) [FLAC] {Prestige RVG}\10 - All The Way.wav

Pre-gap length 0:00:01.32

Peak level 96.7 %
Track quality 100.0 %
Test CRC E2A1D386
Copy CRC E2A1D386
Accurately ripped (confidence 9) [C69C0562]
Copy OK


All tracks accurately ripped

No errors occurred

End of status report


Etta Jones - Don't Go To Strangers (1960) {2006 Prestige RVG Remasters Series} [repost]

Etta Jones - Don't Go To Strangers (1960) {2006 Prestige RVG Remasters Series} [repost]


Thanks to 0xxa…



NEXT -> More Prestige RVG Remasters…….