Subcategories

Eugen Jochum - Anton Bruckner: Geistliche Chorwerke (Sacred Work for Chorus) (1987) (4CD Box Set)

Posted By: shamanicus
Eugen Jochum - Anton Bruckner: Geistliche Chorwerke (Sacred Work for Chorus) (1987) (4CD Box Set)

Eugen Jochum - Anton Bruckner: Geistliche Chorwerke (Sacred Work for Chorus) (1987) (4CD Box Set)
EAC Rip | FLAC (tracks+.cue, log) | Artwork | 958 mb | MP3 CBR 320kbps | RAR | 546 mb
Classical, Romantic | Label: Deutsche Grammophon / 423 127-2

These three masses are early works but Bruckner had already gestated into Bruckner by the time of their composition. His symphonies regularly quote motifs from these works; they resonated in his mind down the years (and in fact, the F Minor Mass was written as a palliative gesture when the poor bugger was madder than usual).

While it's fashionable to uphold the stringless, neo-Palestrinian Mass in E Minor as Bruckner's greatest exposé in this field, I prefer the splendour and sheer oomph of the D Minor Mass: its supernovic treatment of "Deum de Deo, lumen de lumine, Deum verum de Deo vero" is enough to make one fall to one's knees - and the remainder of the Credo is no less a miracle; some would say that Bruckner saves the best for last with the Agnus Dei where he beholds the Lamb "slain from the foundation of the world", followed in turn by his prayer for "inner and outer peace", not least inside the recesses of his skull. Speaking of which, I rank this work with the likes of the Missa Solemnis, the Mass in C Minor and the Mass in Time of War.

I am no fan of Jochum in Bruckner - say no to Furtwangler Lite - but here is one instance where he is sovereign and rightly so - in fact the excellence of this set has acted as Round-Up on the wider field. Celibidache in the F Minor Mass aside, I cannot think of a serious challenger (those Anglicised performances on Hyperion are to be avoided). Could one suggest that being a practising Catholic himself did much to underwrite Jochum's success in this venture? It certainly did not hurt: it's evident in the nuances that he instinctively brings to the liturgy, accompanied by elation and stillness. Much the same could be said of the Motets which are evocatively performed. The one relative failure here is the dour performance of the Te Deum where Jochum is outdone by Mister Slick Brilliance (Verdi: Requiem).
Bernard Michael O'Hanlon


Eugen Jochum - Anton Bruckner: Geistliche Chorwerke (Sacred Work for Chorus) (1987) (4CD Box Set)



Tracklist:

CD 1: Bruckner: Mass No.1 In D Minor, WAB 26 ; Virga Jesse, WAB 52; Ave Maria, WAB 6

Anton Bruckner (1824 - 1896)

Mass No.1 In D Minor, WAB 26


1. 1. Kyrie 7:40
2. 2. Gloria 6:24
3. 3. Credo 13:22
4. 4. Sanctus 1:56
5. 5. Benedictus 7:31
6. 6. Agnus Dei 9:19
Edith Mathis, Marga Schiml, Wieslaw Ochman, Karl Ridderbusch, Elmar Schloter, Symphonieorchester des Bayerischen Rundfunks, Eugen Jochum, Bavarian Radio Chorus
7. Virga Jesse (Motet) 4:31
Bavarian Radio Chorus, Eugen Jochum
8. Ave Maria (Motet)4:07
Eugen Jochum, Bavarian Radio Chorus

Total Playing Time 54:50

CD 2: Bruckner: Mass. No.2 In E Minor, WAB 27; Os Justi Meditabitur Sapientiam, WAB 30; Christus Factus Est, WAB 11; Afferentur Regi Virgines, WAB 1

Anton Bruckner (1824 - 1896)

Mass No.2 In E Minor, WAB 27


1. 1. Kyrie (Feierlich) 9:00
2. 2. Gloria (Allegro) 6:26
3. 3. Credo (Allegro moderato) 10:57
4. 4. Sanctus (Ruhig; mehr langsam) 3:52
5. 5. Benedictus (Moderato) 6:58
6. 6. Agnus Dei (Andante) 6:05
Symphonieorchester des Bayerischen Rundfunks, Eugen Jochum, Bavarian Radio Chorus
7. Os justi meditabitur sapientiam, WAB30 5:03
8. Christus factus est, WAB11 5:56
Bavarian Radio Chorus, Eugen Jochum
9. Afferentur regi virgines, WAB1 2:02
Symphonieorchester des Bayerischen Rundfunks, Eugen Jochum, Bavarian Radio Chorus

Total Playing Time 56:19

CD 3: Bruckner: Mass. No.3 In F Minor, WAB 28; Locus Iste, WAB 23; Tota Pulchra Es Maria, WAB 46

Anton Bruckner (1824 - 1896)

Mass No.3 In F Minor, WAB 28


1. 1. Kyrie 9:16
2. 2. Gloria 11:45
3. 3. Credo 8:52
4. 3. Credo (Cont.) 10:19
5. 4. Sanctus 2:13
Maria Stader, Claudia Hellmann, Ernst Haefliger, Kim Borg, Symphonieorchester des Bayerischen Rundfunks, Eugen Jochum, Bavarian Radio Chorus
6. 5. Benedictus 7:17
Maria Stader, Claudia Hellmann, Ernst Haefliger, Kim Borg, Symphonieorchester des Bayerischen Rundfunks, Eugen Jochum, Bavarian Radio Chorus, Kurt Prestel
7. 6. Agnus Dei 8:09
Maria Stader, Claudia Hellmann, Ernst Haefliger, Kim Borg, Symphonieorchester des Bayerischen Rundfunks, Eugen Jochum, Bavarian Radio Chorus
8. Locus iste, WAB 23 3:42
Eugen Jochum, Bavarian Radio Chorus
9. Tota pulchra es, Maria, WAB 46 5:18
Richard Holm, Hedwig Bilgram, Eugen Jochum, Bavarian Radio Chorus

Total Playing Time 1:06:51

CD 4: Bruckner: Te Deum For Soloists, WAB 45; Panga Lingua, Gloriosi, WAB 31; Hymnus "Vexilla regis", WAB 51; Ecce Sacerdos Magnus, WAB 13; Psalm 150, For Soprano, Chorus And Orchestra, WAB 38

Anton Bruckner (1824 - 1896)

Te Deum For Soloists, Chorus And Orchestra, WAB 45


1. 1. Te Deum laudamus 5:57
2. 2. Te ergo 2:46
3. 3. Aeterna fac 1:26
4. 4. Salvum fac 5:59
5. 5. In te, Domine, speravi 5:44
Maria Stader, Sieglinde Wagner, Ernst Haefliger, Peter Lagger, Wolfgang Meyer, Berliner Philharmoniker, Eugen Jochum, Chor der Deutschen Oper Berlin
6. Pange Lingua, Gloriosi, WAB33 4:27
7. Hymnus "Vexilla regis" 6:08
Eugen Jochum, Bavarian Radio Chorus
8. Ecce Sacerdos Magnus, WAB13 6:14
Hedwig Bilgram, Symphonieorchester des Bayerischen Rundfunks, Eugen Jochum, Bavarian Radio Chorus
9. Psalm 150, for Soprano, Chorus and Orchestra 8:50
Maria Stader, Berliner Philharmoniker, Eugen Jochum, Chor der Deutschen Oper Berlin

Total Playing Time 47:31

Eugen Jochum - Anton Bruckner: Geistliche Chorwerke (Sacred Work for Chorus) (1987) (4CD Box Set)


Choir - Chor Des Bayerischen Rundfunks
Composed By - Anton Bruckner
Conductor - Eugen Jochum
Orchestra - Berliner Philharmoniker


Exact Audio Copy V1.3 from 2. September 2016

EAC extraction logfile from 11. November 2016, 16:44

- / DG - Jochum conducts Bruckner; Sacred Works for Chorus.1

Used drive : PLEXTOR PX-891SAF Adapter: 1 ID: 1

Read mode : Secure
Utilize accurate stream : Yes
Defeat audio cache : Yes
Make use of C2 pointers : No

Read offset correction : 6
Overread into Lead-In and Lead-Out : No
Fill up missing offset samples with silence : Yes
Delete leading and trailing silent blocks : No
Null samples used in CRC calculations : Yes
Used interface : Native Win32 interface for Win NT & 2000
Gap handling : Appended to previous track

Used output format : User Defined Encoder
Selected bitrate : 896 kBit/s
Quality : High
Add ID3 tag : No
Command line compressor : C:\Program Files\FLAC\flac.exe
Additional command line options : -8 -V %source%


TOC of the extracted CD

Track | Start | Length | Start sector | End sector
––––––––––––––––––––––––––––-
1 | 0:00.33 | 7:42.00 | 33 | 34682
2 | 7:42.33 | 6:27.00 | 34683 | 63707
3 | 14:09.33 | 13:26.00 | 63708 | 124157
4 | 27:35.33 | 1:56.25 | 124158 | 132882
5 | 29:31.58 | 7:34.50 | 132883 | 166982
6 | 37:06.33 | 9:29.25 | 166983 | 209682
7 | 46:35.58 | 4:35.50 | 209683 | 230357
8 | 51:11.33 | 4:07.25 | 230358 | 248907


Track 1

Filename C:\C\DG - Jochum conducts Bruckner; Sacred Works for Chorus.1\01.wav

Pre-gap length 0:00:02.33

Peak level 56.4 %
Extraction speed 5.6 X
Track quality 100.0 %
Test CRC 300CDCBC
Copy CRC 300CDCBC
Accurately ripped (confidence 20) [95349A14] (AR v2)
Copy OK

Track 2

Filename C:\C\DG - Jochum conducts Bruckner; Sacred Works for Chorus.1\02.wav

Pre-gap length 0:00:01.45

Peak level 89.1 %
Extraction speed 6.5 X
Track quality 100.0 %
Test CRC 415CE3A4
Copy CRC 415CE3A4
Accurately ripped (confidence 20) [CBBF0CE6] (AR v2)
Copy OK

Track 3

Filename C:\C\DG - Jochum conducts Bruckner; Sacred Works for Chorus.1\03.wav

Pre-gap length 0:00:03.25

Peak level 77.3 %
Extraction speed 7.9 X
Track quality 100.0 %
Test CRC D82DFEC3
Copy CRC D82DFEC3
Accurately ripped (confidence 20) [85B8939D] (AR v2)
Copy OK

Track 4

Filename C:\C\DG - Jochum conducts Bruckner; Sacred Works for Chorus.1\04.wav

Pre-gap length 0:00:04.00

Peak level 55.3 %
Extraction speed 6.9 X
Track quality 100.0 %
Test CRC 7548DFFE
Copy CRC 7548DFFE
Accurately ripped (confidence 21) [C94E4200] (AR v2)
Copy OK

Track 5

Filename C:\C\DG - Jochum conducts Bruckner; Sacred Works for Chorus.1\05.wav

Pre-gap length 0:00:00.15

Peak level 52.9 %
Extraction speed 8.8 X
Track quality 100.0 %
Test CRC 78DD0851
Copy CRC 78DD0851
Accurately ripped (confidence 20) [B8F22D87] (AR v2)
Copy OK

Track 6

Filename C:\C\DG - Jochum conducts Bruckner; Sacred Works for Chorus.1\06.wav

Pre-gap length 0:00:04.08

Peak level 82.1 %
Extraction speed 9.6 X
Track quality 100.0 %
Test CRC 314C36C3
Copy CRC 314C36C3
Accurately ripped (confidence 20) [3B778A83] (AR v2)
Copy OK

Track 7

Filename C:\C\DG - Jochum conducts Bruckner; Sacred Works for Chorus.1\07.wav

Pre-gap length 0:00:10.25

Peak level 38.8 %
Extraction speed 9.5 X
Track quality 100.0 %
Test CRC 7DC3C084
Copy CRC 7DC3C084
Accurately ripped (confidence 20) [46B10BAE] (AR v2)
Copy OK

Track 8

Filename C:\C\DG - Jochum conducts Bruckner; Sacred Works for Chorus.1\08.wav

Pre-gap length 0:00:05.00

Peak level 26.5 %
Extraction speed 8.1 X
Track quality 99.9 %
Test CRC 3BE75CB6
Copy CRC 3BE75CB6
Accurately ripped (confidence 20) [26FA9717] (AR v2)
Copy OK


All tracks accurately ripped

No errors occurred

End of status report

–– CUETools DB Plugin V2.1.6

[CTDB TOCID: HhVZAIvjCcGNUJP5PRu4wEiJYcw-] found
Submit result: HhVZAIvjCcGNUJP5PRu4wEiJYcw- has been confirmed
Track | CTDB Status
1 | (25/26) Accurately ripped
2 | (26/26) Accurately ripped
3 | (26/26) Accurately ripped
4 | (26/26) Accurately ripped
5 | (26/26) Accurately ripped
6 | (26/26) Accurately ripped
7 | (25/26) Accurately ripped, or (1/26) differs in 470 samples @01:27:43,01:29:32-01:29:33,01:30:62,01:31:04-01:31:05,01:44:60-01:44:61,01:54:28,01:57:13-01:57:14,01:58:08-01:58:09,03:10:31,03:10:66,03:11:09,03:12:57-03:12:58,03:14:49-03:14:50,03:17:01,03:17:19,03:17:36-03:17:37
8 | (26/26) Accurately ripped


==== Log checksum A4D2D5F8BC6CA631434325893BFB6D86368E3786BDD1D4E7ED172D928066FA67 ====

Exact Audio Copy V1.3 from 2. September 2016

EAC extraction logfile from 4. November 2016, 15:36

- / DG - Jochum conducts Bruckner; Sacred Works for Chorus.2

Used drive : PLEXTOR PX-891SAF Adapter: 1 ID: 2

Read mode : Secure
Utilize accurate stream : Yes
Defeat audio cache : Yes
Make use of C2 pointers : No

Read offset correction : 6
Overread into Lead-In and Lead-Out : No
Fill up missing offset samples with silence : Yes
Delete leading and trailing silent blocks : No
Null samples used in CRC calculations : Yes
Used interface : Native Win32 interface for Win NT & 2000
Gap handling : Appended to previous track

Used output format : User Defined Encoder
Selected bitrate : 896 kBit/s
Quality : High
Add ID3 tag : No
Command line compressor : C:\Program Files\FLAC\flac.exe
Additional command line options : -8 -V %source%


TOC of the extracted CD

Track | Start | Length | Start sector | End sector
––––––––––––––––––––––––––––-
1 | 0:00.33 | 9:02.27 | 33 | 40709
2 | 9:02.60 | 6:29.45 | 40710 | 69929
3 | 15:32.30 | 10:58.73 | 69930 | 119352
4 | 26:31.28 | 3:57.02 | 119353 | 137129
5 | 30:28.30 | 7:01.73 | 137130 | 168777
6 | 37:30.28 | 6:12.57 | 168778 | 196734
7 | 43:43.10 | 5:08.15 | 196735 | 219849
8 | 48:51.25 | 6:00.73 | 219850 | 246922
9 | 54:52.23 | 2:02.10 | 246923 | 256082


Track 1

Filename C:\C\DG - Jochum conducts Bruckner; Sacred Works for Chorus.2\01.wav

Pre-gap length 0:00:02.33

Peak level 75.8 %
Extraction speed 2.1 X
Track quality 100.0 %
Test CRC 2E15763F
Copy CRC 2E15763F
Accurately ripped (confidence 19) [29724497] (AR v2)
Copy OK

Track 2

Filename C:\C\DG - Jochum conducts Bruckner; Sacred Works for Chorus.2\02.wav

Pre-gap length 0:00:02.20

Peak level 62.6 %
Extraction speed 2.4 X
Track quality 100.0 %
Test CRC 2D34B24A
Copy CRC 2D34B24A
Accurately ripped (confidence 20) [7EB970E3] (AR v2)
Copy OK

Track 3

Filename C:\C\DG - Jochum conducts Bruckner; Sacred Works for Chorus.2\03.wav

Pre-gap length 0:00:03.67

Peak level 75.7 %
Extraction speed 2.8 X
Track quality 99.9 %
Test CRC 9D11D502
Copy CRC 9D11D502
Accurately ripped (confidence 20) [A1FFAFC5] (AR v2)
Copy OK

Track 4

Filename C:\C\DG - Jochum conducts Bruckner; Sacred Works for Chorus.2\04.wav

Pre-gap length 0:00:01.38

Peak level 65.4 %
Extraction speed 2.6 X
Track quality 99.9 %
Test CRC BBDDE65E
Copy CRC BBDDE65E
Accurately ripped (confidence 20) [E76926CF] (AR v2)
Copy OK

Track 5

Filename C:\C\DG - Jochum conducts Bruckner; Sacred Works for Chorus.2\05.wav

Pre-gap length 0:00:05.02

Peak level 62.3 %
Extraction speed 3.0 X
Track quality 99.9 %
Test CRC AA49D393
Copy CRC AA49D393
Accurately ripped (confidence 20) [F5B66990] (AR v2)
Copy OK

Track 6

Filename C:\C\DG - Jochum conducts Bruckner; Sacred Works for Chorus.2\06.wav

Pre-gap length 0:00:04.33

Peak level 59.8 %
Extraction speed 3.4 X
Track quality 100.0 %
Test CRC 182A7759
Copy CRC 182A7759
Accurately ripped (confidence 19) [D06451C5] (AR v2)
Copy OK

Track 7

Filename C:\C\DG - Jochum conducts Bruckner; Sacred Works for Chorus.2\07.wav

Pre-gap length 0:00:08.05

Peak level 58.8 %
Extraction speed 3.6 X
Track quality 100.0 %
Test CRC 6D3B2D91
Copy CRC 6D3B2D91
Accurately ripped (confidence 19) [5722B908] (AR v2)
Copy OK

Track 8

Filename C:\C\DG - Jochum conducts Bruckner; Sacred Works for Chorus.2\08.wav

Pre-gap length 0:00:05.45

Peak level 46.7 %
Extraction speed 3.8 X
Track quality 100.0 %
Test CRC 518CE98F
Copy CRC 518CE98F
Accurately ripped (confidence 19) [308D05A1] (AR v2)
Copy OK

Track 9

Filename C:\C\DG - Jochum conducts Bruckner; Sacred Works for Chorus.2\09.wav

Pre-gap length 0:00:04.65

Peak level 40.0 %
Extraction speed 3.2 X
Track quality 100.0 %
Test CRC 6259D529
Copy CRC 6259D529
Accurately ripped (confidence 20) [6CC40A3D] (AR v2)
Copy OK


All tracks accurately ripped

No errors occurred

End of status report

–– CUETools DB Plugin V2.1.6

[CTDB TOCID: P5NIg.LTF9OtvoPRBW3S3AQGqg0-] found
Submit result: P5NIg.LTF9OtvoPRBW3S3AQGqg0- has been confirmed
Track | CTDB Status
1 | (22/23) Accurately ripped
2 | (22/23) Accurately ripped
3 | (22/23) Accurately ripped
4 | (22/23) Accurately ripped
5 | (23/23) Accurately ripped
6 | (20/23) Accurately ripped
7 | (22/23) Accurately ripped
8 | (21/23) Accurately ripped, or (1/23) differs in 439 samples @01:14:54-01:14:55,01:16:28-01:16:29,01:50:03,01:50:74,01:51:52-01:51:53,01:52:13,01:52:67,01:53:63,01:54:06,01:54:23,01:54:41,01:54:59,01:55:38,01:56:16,02:18:27,02:53:54,02:53:72,02:58:38-02:58:39,03:05:34,03:13:10,03:14:61,03:15:40,03:16:37,03:17:52,03:18:49-03:18:50,03:19:64,03:21:58-03:21:59,03:23:17,03:24:14,03:24:32,03:24:50
9 | (22/23) Accurately ripped


==== Log checksum AD00ED968066ACF73344A0128DE7E7BFC2FA2CCBC18BE1C2EA7CCC2FA2CC8E8B ====

Exact Audio Copy V1.3 from 2. September 2016

EAC extraction logfile from 4. November 2016, 15:36

- / DG - Jochum conducts Bruckner; Sacred Works for Chorus.3

Used drive : PLEXTOR PX-891SAF Adapter: 1 ID: 1

Read mode : Secure
Utilize accurate stream : Yes
Defeat audio cache : Yes
Make use of C2 pointers : No

Read offset correction : 6
Overread into Lead-In and Lead-Out : No
Fill up missing offset samples with silence : Yes
Delete leading and trailing silent blocks : No
Null samples used in CRC calculations : Yes
Used interface : Native Win32 interface for Win NT & 2000
Gap handling : Appended to previous track

Used output format : User Defined Encoder
Selected bitrate : 896 kBit/s
Quality : High
Add ID3 tag : No
Command line compressor : C:\Program Files\FLAC\flac.exe
Additional command line options : -8 -V %source%


TOC of the extracted CD

Track | Start | Length | Start sector | End sector
––––––––––––––––––––––––––––-
1 | 0:00.33 | 9:20.00 | 33 | 42032
2 | 9:20.33 | 11:45.25 | 42033 | 94932
3 | 21:05.58 | 8:51.50 | 94933 | 134807
4 | 29:57.33 | 10:21.50 | 134808 | 181432
5 | 40:19.08 | 2:14.25 | 181433 | 191507
6 | 42:33.33 | 7:20.00 | 191508 | 224507
7 | 49:53.33 | 8:12.50 | 224508 | 261457
8 | 58:06.08 | 3:46.60 | 261458 | 278467
9 | 61:52.68 | 5:18.02 | 278468 | 302319


Track 1

Filename C:\C\DG - Jochum conducts Bruckner; Sacred Works for Chorus.3\01.wav

Pre-gap length 0:00:02.33

Peak level 68.3 %
Extraction speed 6.3 X
Track quality 100.0 %
Test CRC 8FC8B44B
Copy CRC 8FC8B44B
Accurately ripped (confidence 21) [F18920BD] (AR v2)
Copy OK

Track 2

Filename C:\C\DG - Jochum conducts Bruckner; Sacred Works for Chorus.3\02.wav

Pre-gap length 0:00:04.20

Peak level 89.6 %
Extraction speed 3.0 X
Track quality 99.7 %
Test CRC B04D5013
Copy CRC B04D5013
Accurately ripped (confidence 21) [93645E76] (AR v2)
Copy OK

Track 3

Filename C:\C\DG - Jochum conducts Bruckner; Sacred Works for Chorus.3\03.wav

Peak level 79.4 %
Extraction speed 3.6 X
Track quality 99.7 %
Test CRC 8AEECFBE
Copy CRC 8AEECFBE
Accurately ripped (confidence 21) [68A30033] (AR v2)
Copy OK

Track 4

Filename C:\C\DG - Jochum conducts Bruckner; Sacred Works for Chorus.3\04.wav

Peak level 91.6 %
Extraction speed 2.8 X
Track quality 99.6 %
Test CRC 0ECE16C9
Copy CRC 0ECE16C9
Accurately ripped (confidence 21) [05CE6F20] (AR v2)
Copy OK

Track 5

Filename C:\C\DG - Jochum conducts Bruckner; Sacred Works for Chorus.3\05.wav

Pre-gap length 0:00:02.67

Peak level 81.4 %
Extraction speed 3.4 X
Track quality 99.7 %
Test CRC 4F230E9D
Copy CRC 4F230E9D
Accurately ripped (confidence 22) [F4EAB073] (AR v2)
Copy OK

Track 6

Filename C:\C\DG - Jochum conducts Bruckner; Sacred Works for Chorus.3\06.wav

Pre-gap length 0:00:01.58

Peak level 71.6 %
Extraction speed 2.9 X
Track quality 99.6 %
Test CRC A9520C98
Copy CRC A9520C98
Accurately ripped (confidence 21) [42B9F3A1] (AR v2)
Copy OK

Track 7

Filename C:\C\DG - Jochum conducts Bruckner; Sacred Works for Chorus.3\07.wav

Pre-gap length 0:00:02.45

Peak level 79.8 %
Extraction speed 3.1 X
Track quality 99.7 %
Test CRC 960CE01C
Copy CRC 960CE01C
Accurately ripped (confidence 21) [03529DDB] (AR v2)
Copy OK

Track 8

Filename C:\C\DG - Jochum conducts Bruckner; Sacred Works for Chorus.3\08.wav

Pre-gap length 0:00:04.00

Peak level 66.3 %
Extraction speed 2.1 X
Track quality 99.6 %
Test CRC 63E8C63C
Copy CRC 63E8C63C
Accurately ripped (confidence 22) [072582A8] (AR v2)
Copy OK

Track 9

Filename C:\C\DG - Jochum conducts Bruckner; Sacred Works for Chorus.3\09.wav

Pre-gap length 0:00:04.60

Peak level 80.9 %
Extraction speed 6.0 X
Track quality 99.9 %
Test CRC 00E5A450
Copy CRC 00E5A450
Accurately ripped (confidence 21) [F1F43CCC] (AR v2)
Copy OK


All tracks accurately ripped

No errors occurred

End of status report

–– CUETools DB Plugin V2.1.6

[CTDB TOCID: PUmHSz1H27.3qAMMWdf9wcQyUHc-] found
Submit result: PUmHSz1H27.3qAMMWdf9wcQyUHc- has been confirmed
Track | CTDB Status
1 | (18/19) Accurately ripped
2 | (17/19) Accurately ripped
3 | (17/19) Accurately ripped
4 | (17/19) Accurately ripped
5 | (17/19) Accurately ripped
6 | (17/19) Accurately ripped
7 | (17/19) Accurately ripped
8 | (18/19) Accurately ripped
9 | (17/19) Accurately ripped


==== Log checksum C9F652074CD32B629F8C455375E69160AEC44136D018845FCA833D854617422D ====

Exact Audio Copy V1.3 from 2. September 2016

EAC extraction logfile from 4. November 2016, 15:51

- / DG - Jochum conducts Bruckner; Sacred Works for Chorus.4

Used drive : PLEXTOR PX-891SAF Adapter: 1 ID: 1

Read mode : Secure
Utilize accurate stream : Yes
Defeat audio cache : Yes
Make use of C2 pointers : No

Read offset correction : 6
Overread into Lead-In and Lead-Out : No
Fill up missing offset samples with silence : Yes
Delete leading and trailing silent blocks : No
Null samples used in CRC calculations : Yes
Used interface : Native Win32 interface for Win NT & 2000
Gap handling : Appended to previous track

Used output format : User Defined Encoder
Selected bitrate : 896 kBit/s
Quality : High
Add ID3 tag : No
Command line compressor : C:\Program Files\FLAC\flac.exe
Additional command line options : -8 -V %source%


TOC of the extracted CD

Track | Start | Length | Start sector | End sector
––––––––––––––––––––––––––––-
1 | 0:00.33 | 5:58.00 | 33 | 26882
2 | 5:58.33 | 2:47.00 | 26883 | 39407
3 | 8:45.33 | 1:26.00 | 39408 | 45857
4 | 10:11.33 | 6:00.00 | 45858 | 72857
5 | 16:11.33 | 5:52.50 | 72858 | 99307
6 | 22:04.08 | 4:31.25 | 99308 | 119657
7 | 26:35.33 | 6:12.00 | 119658 | 147557
8 | 32:47.33 | 6:18.25 | 147558 | 175932
9 | 39:05.58 | 8:49.50 | 175933 | 215657


Track 1

Filename C:\C\DG - Jochum conducts Bruckner; Sacred Works for Chorus.4\01.wav

Pre-gap length 0:00:02.33

Peak level 88.3 %
Extraction speed 5.4 X
Track quality 100.0 %
Test CRC D5D4ACD7
Copy CRC D5D4ACD7
Accurately ripped (confidence 22) [444032AB] (AR v2)
Copy OK

Track 2

Filename C:\C\DG - Jochum conducts Bruckner; Sacred Works for Chorus.4\02.wav

Pre-gap length 0:00:01.00

Peak level 33.8 %
Extraction speed 4.3 X
Track quality 99.9 %
Test CRC B6C0FEAD
Copy CRC B6C0FEAD
Accurately ripped (confidence 22) [F3C7CD46] (AR v2)
Copy OK

Track 3

Filename C:\C\DG - Jochum conducts Bruckner; Sacred Works for Chorus.4\03.wav

Pre-gap length 0:00:01.25

Peak level 85.7 %
Extraction speed 3.4 X
Track quality 99.8 %
Test CRC DA92C51B
Copy CRC DA92C51B
Accurately ripped (confidence 22) [9EB43B17] (AR v2)
Copy OK

Track 4

Filename C:\C\DG - Jochum conducts Bruckner; Sacred Works for Chorus.4\04.wav

Peak level 83.6 %
Extraction speed 6.7 X
Track quality 100.0 %
Test CRC 5CB68469
Copy CRC 5CB68469
Accurately ripped (confidence 20) [C4F7C4C5] (AR v2)
Copy OK

Track 5

Filename C:\C\DG - Jochum conducts Bruckner; Sacred Works for Chorus.4\05.wav

Pre-gap length 0:00:01.00

Peak level 84.6 %
Extraction speed 7.3 X
Track quality 100.0 %
Test CRC 0C498548
Copy CRC 0C498548
Accurately ripped (confidence 21) [01ACD01B] (AR v2)
Copy OK

Track 6

Filename C:\C\DG - Jochum conducts Bruckner; Sacred Works for Chorus.4\06.wav

Pre-gap length 0:00:08.50

Peak level 52.3 %
Extraction speed 7.7 X
Track quality 100.0 %
Test CRC 188585A0
Copy CRC 188585A0
Accurately ripped (confidence 22) [952D759E] (AR v2)
Copy OK

Track 7

Filename C:\C\DG - Jochum conducts Bruckner; Sacred Works for Chorus.4\07.wav

Pre-gap length 0:00:04.38

Peak level 80.9 %
Extraction speed 8.4 X
Track quality 100.0 %
Test CRC 414C9A7D
Copy CRC 414C9A7D
Accurately ripped (confidence 20) [3554FE7C] (AR v2)
Copy OK

Track 8

Filename C:\C\DG - Jochum conducts Bruckner; Sacred Works for Chorus.4\08.wav

Pre-gap length 0:00:04.00

Peak level 92.9 %
Extraction speed 8.9 X
Track quality 100.0 %
Test CRC CF622F56
Copy CRC CF622F56
Accurately ripped (confidence 22) [21C0DE0F] (AR v2)
Copy OK

Track 9

Filename C:\C\DG - Jochum conducts Bruckner; Sacred Works for Chorus.4\09.wav

Pre-gap length 0:00:04.25

Peak level 82.7 %
Extraction speed 9.7 X
Track quality 100.0 %
Test CRC D2F83982
Copy CRC D2F83982
Accurately ripped (confidence 21) [8531BD10] (AR v2)
Copy OK


All tracks accurately ripped

No errors occurred

End of status report

–– CUETools DB Plugin V2.1.6

[CTDB TOCID: _PZNcWA8PwneKcDoPF5lZm3Jfvw-] found
Submit result: _PZNcWA8PwneKcDoPF5lZm3Jfvw- has been confirmed
Track | CTDB Status
1 | (22/23) Accurately ripped
2 | (23/23) Accurately ripped
3 | (23/23) Accurately ripped
4 | (21/23) Accurately ripped
5 | (22/23) Accurately ripped
6 | (22/23) Accurately ripped
7 | (21/23) Accurately ripped
8 | (21/23) Accurately ripped
9 | (22/23) Accurately ripped


==== Log checksum 17BFC863C829FB36076D2152E28F51873A2BE47BF1530A51A426DFEFA9D01B33 ====



Thanks to the Original customer.