Subcategories

Evanescence - Synthesis (Japanese Edition) (2017)

Posted By: delpotro
Evanescence - Synthesis (Japanese Edition) (2017)

Evanescence - Synthesis (Japanese Edition) (2017)
EAC Rip | FLAC (image+log+.cue) - 416 Mb | Scans - 38 Mb | 01:02:25
Alternative Rock, Symphonic, Female Vocal | Label: Sony Music Entertainment, BMG Rights Management

Synthesis is the upcoming fourth studio album by American rock band Evanescence. It is set to be released on November 10, 2017, by BMG Rights Management. The album includes reworked versions of the band's previous material with an orchestral arrangement and electronica music elements, in addition to two new songs. David Campbell was responsible for the arrangement, along with Amy Lee and producer William B. "Science" Hunt (no relation to the band's drummer). In order to promote the new material, Evanescence embarked on the Synthesis Tour, which opened on October 14, 2017, in Las Vegas and will visit cities across the US and Canada until December.

“This is a total passion project for me. There are so many layers in our music, underneath the huge drums and guitars,” explains Amy Lee of Evanescence. “I’ve always wanted to shine a light on some of the gorgeous David Campbell arrangements and programming elements in our songs, and that idea snowballed into completely re-doing them with full orchestra, not just strings, elaborate programming and experimentation. This will be our first time touring with orchestra and I’m so excited to perform this way-really focus on the vocals, and the emotion and the story we’ve built over the years. I’m also really excited about the new material on the album. Besides the two new songs, there are some really beautiful instrumental in-between moments. The whole thing flows like a big, dynamic soundtrack.”
Tracklist:
1. Overture
2. Never Go Back
3. Hi-Lo
4. My Heart Is Broken
5. Lacrymosa
6. The End of the Dream
7. Bring Me to Life (Synthesis)
8. Unraveling (Interlude)
9. Imaginary
10. Secret Door
11. Lithium
12. Lost in Paradise
13. Your Star
14. My Immortal
15. The In-Between (Piano Solo)
16. Imperfection

Exact Audio Copy V1.1 from 23. June 2015

EAC extraction logfile from 16. November 2017, 1:52

Evanescence / Synthesis (UICN-9034)

Used drive : TSSTcorpDVDWBD SH-B123L Adapter: 0 ID: 4

Read mode : Secure
Utilize accurate stream : Yes
Defeat audio cache : Yes
Make use of C2 pointers : No

Read offset correction : 6
Overread into Lead-In and Lead-Out : No
Fill up missing offset samples with silence : Yes
Delete leading and trailing silent blocks : No
Null samples used in CRC calculations : Yes
Used interface : Installed external ASPI interface

Used output format : User Defined Encoder
Selected bitrate : 768 kBit/s
Quality : High
Add ID3 tag : No
Command line compressor : C:\Program Files (x86)\Exact Audio Copy\FLAC\FLAC.EXE
Additional command line options : -6 -V -T "ARTIST=%artist%" -T "TITLE=%title%" -T "ALBUM=%albumtitle%" -T "DATE=%year%" -T "TRACKNUMBER=%tracknr%" -T "GENRE=%genre%" -T "COMMENT=%comment%" -T "BAND=%albuminterpret%" -T "ALBUMARTIST=%albuminterpret%" -T "COMPOSER=%composer%" %haslyrics%–tag-from-file=LYRICS="%lyricsfile%"%haslyrics% -T "DISCNUMBER=%cdnumber%" -T "TOTALDISCS=%totalcds%" -T "TOTALTRACKS=%numtracks%" %hascover%–picture="%coverfile%"%hascover% %source% -o %dest%


TOC of the extracted CD

Track | Start | Length | Start sector | End sector
––––––––––––––––––––––––––––-
1 | 0:00.00 | 0:57.42 | 0 | 4316
2 | 0:57.42 | 4:50.41 | 4317 | 26107
3 | 5:48.08 | 5:07.54 | 26108 | 49186
4 | 10:55.62 | 4:34.47 | 49187 | 69783
5 | 15:30.34 | 3:42.38 | 69784 | 86471
6 | 19:12.72 | 4:54.52 | 86472 | 108573
7 | 24:07.49 | 4:17.24 | 108574 | 127872
8 | 28:24.73 | 1:40.51 | 127873 | 135423
9 | 30:05.49 | 4:03.46 | 135424 | 153694
10 | 34:09.20 | 3:48.42 | 153695 | 170836
11 | 37:57.62 | 4:05.35 | 170837 | 189246
12 | 42:03.22 | 4:43.70 | 189247 | 210541
13 | 46:47.17 | 4:38.20 | 210542 | 231411
14 | 51:25.37 | 4:25.50 | 231412 | 251336
15 | 55:51.12 | 2:11.67 | 251337 | 261228
16 | 58:03.04 | 4:22.67 | 261229 | 280945


Range status and errors

Selected range

Filename E:\MUSIC\Evanescence - Synthesis (UICN-9034).wav

Peak level 100.0 %
Extraction speed 3.7 X
Range quality 99.9 %
Test CRC 5E8A85D9
Copy CRC 5E8A85D9
Copy OK

No errors occurred


AccurateRip summary

Track 1 not present in database
Track 2 not present in database
Track 3 not present in database
Track 4 not present in database
Track 5 not present in database
Track 6 not present in database
Track 7 not present in database
Track 8 not present in database
Track 9 not present in database
Track 10 not present in database
Track 11 not present in database
Track 12 not present in database
Track 13 not present in database
Track 14 not present in database
Track 15 not present in database
Track 16 not present in database

None of the tracks are present in the AccurateRip database

End of status report

==== Log checksum A6DFB602FCED6AC2445BBD236E6AABF36D42D48721A962ECB1AB05C844998BC9 ====

Thanks to the Original ripper HaRD !