Fernando Gentile - Johann Sebastian Bach: Suites A Violoncello Solo Senza Basso BWV 1010, 1011 & 1012 - Vol. II (2013)

Posted By: Domestos
Fernando Gentile - Johann Sebastian Bach: Suites A Violoncello Solo Senza Basso BWV 1010, 1011 & 1012 - Vol. II (2013)

Fernando Gentile - Johann Sebastian Bach: Suites A Violoncello Solo Senza Basso BWV 1010, 1011 & 1012 - Vol. II (2013)
EAC Rip | FLAC (image+.cue, log) ~ 330.65 Mb | 01:13:29 | Scans included
Classical | Label: SonoAr (ECD3015)

Fernando Gentile has established himself as one of the best cellists of his generation and country. Born in Santa Fe (Argentina), he studied with Professor Alberto Canto and Nicolas Finoli in Buenos Aires. Later he received his diplomas at the Hochschule fiir Musik und Theather Hamburg (Germany) with the professors Wolfgang Mehlhorn, Niklas Schmidt, Volker Banfield, Siegfried Palm and Boris Pergamenschikov.

Winner of international competitions such as Alfred Toepfer Stiftung, Elise Meyer Wettbewerb, Segundo Concurso Latinoamericano de Violoncello "Carlos Prieto“ and prize “Nicolés Finoli". He develops a wide work in chamber music and as a soloist.

Track List:
Suite No. 4 en Mi bemol mayor BWV 1010
01 - I. Prelude
02 - II. Allemande
03 - III. Courante
04 - IV. Sarabande
05 - V. Bourrée I\II
06 - VI. Gigue

Suite No. 5 en Do menor BWV 1011
07 - I. Prelude
08 - II. Allemande
09 - III. Courante
10 - IV. Sarabande
11 - V. Gavotte I\II
12 - VI. Gigue

Suite No. 6 en Re mayor 1012
08 - I. Prelude
09 - II. Allemande
10 - III. Courante
11 - IV. Sarabande
12 - V. Gavotte I\II
13 - VI. Gigue

Fernando Gentile - Johann Sebastian Bach: Suites A Violoncello Solo Senza Basso BWV 1010, 1011 & 1012 - Vol. II (2013)

Exact Audio Copy V1.3 from 2. September 2016

EAC extraction logfile from 25. September 2017, 9:23

Fernando Gentile / Suites a Violoncello Solo Senza Basso BWV 1010, 1011 & 1012

Used drive : HL-DT-STDVDRAM GH22NS70 Adapter: 1 ID: 0

Read mode : Secure
Utilize accurate stream : Yes
Defeat audio cache : Yes
Make use of C2 pointers : No

Read offset correction : 667
Overread into Lead-In and Lead-Out : No
Fill up missing offset samples with silence : Yes
Delete leading and trailing silent blocks : No
Null samples used in CRC calculations : Yes
Used interface : Native Win32 interface for Win NT & 2000

Used output format : Internal WAV Routines
Sample format : 44.100 Hz; 16 Bit; Stereo


TOC of the extracted CD

Track | Start | Length | Start sector | End sector
––––––––––––––––––––––––––––-
1 | 0:00.00 | 3:32.74 | 0 | 15973
2 | 3:32.74 | 3:34.16 | 15974 | 32039
3 | 7:07.15 | 3:24.57 | 32040 | 47396
4 | 10:31.72 | 4:01.14 | 47397 | 65485
5 | 14:33.11 | 4:55.02 | 65486 | 87612
6 | 19:28.13 | 2:58.64 | 87613 | 101026
7 | 22:27.02 | 5:28.23 | 101027 | 125649
8 | 27:55.25 | 4:33.21 | 125650 | 146145
9 | 32:28.46 | 2:19.53 | 146146 | 156623
10 | 34:48.24 | 2:56.35 | 156624 | 169858
11 | 37:44.59 | 4:51.40 | 169859 | 191723
12 | 42:36.24 | 2:31.55 | 191724 | 203103
13 | 45:08.04 | 4:19.72 | 203104 | 222600
14 | 49:28.01 | 6:40.54 | 222601 | 252654
15 | 56:08.55 | 3:52.13 | 252655 | 270067
16 | 60:00.68 | 4:36.59 | 270068 | 290826
17 | 64:37.52 | 4:37.07 | 290827 | 311608
18 | 69:14.59 | 4:14.44 | 311609 | 330702


Range status and errors

Selected range

Filename D:\Temp\Fernando Gentile - Suites a Violoncello Solo Senza Basso BWV 1010, 1011 & 1012.wav

Peak level 76.3 %
Extraction speed 2.5 X
Range quality 100.0 %
Copy CRC AF8B39F9
Copy OK

No errors occurred


AccurateRip summary

Track 1 not present in database
Track 2 not present in database
Track 3 not present in database
Track 4 not present in database
Track 5 not present in database
Track 6 not present in database
Track 7 not present in database
Track 8 not present in database
Track 9 not present in database
Track 10 not present in database
Track 11 not present in database
Track 12 not present in database
Track 13 not present in database
Track 14 not present in database
Track 15 not present in database
Track 16 not present in database
Track 17 not present in database
Track 18 not present in database

None of the tracks are present in the AccurateRip database

End of status report

–– CUETools DB Plugin V2.1.6

[CTDB TOCID: 6tW5E_miVBooMZ4cbR2wTeMdXAs-] found
Submit result: already submitted
Track | CTDB Status
1 | (1/1) Accurately ripped
2 | (1/1) Accurately ripped
3 | (1/1) Accurately ripped
4 | (1/1) Accurately ripped
5 | (1/1) Accurately ripped
6 | (1/1) Accurately ripped
7 | (1/1) Accurately ripped
8 | (1/1) Accurately ripped
9 | (1/1) Accurately ripped
10 | (1/1) Accurately ripped
11 | (1/1) Accurately ripped
12 | (1/1) Accurately ripped
13 | (1/1) Accurately ripped
14 | (1/1) Accurately ripped
15 | (1/1) Accurately ripped
16 | (1/1) Accurately ripped
17 | (1/1) Accurately ripped
18 | (1/1) Accurately ripped


==== Log checksum FA37C58FB6E4A35AC6B5AEED28911D4EFAE67D91C21C4508548EBB1F529A4C9D ====

All thanks go to the mosaiques

More Music in My Blog
Follow My RSS Channel