[YES] Peter Banks' FLASH - Japanese Reissue '2010 (4x 2CD Set: 1972-1973) RE-UP

Posted By: perfecta
[YES] Peter Banks' FLASH - Japanese Reissue '2010 (4x 2CD Set: 1972-1973) RE-UP

Peter Banks' FLASH - Japanese Reissue '2010 (4x 2CD Set: 1972-1973)
8x EAC-FLAC Images with CUEs & LOGs - 1,97 GB | Full PNG Scans | MP3 CBR 320 Kbps - 715 MB
Rock / Progressive Rock | TT - 314:34 minutes | Label: Arcàngelo / TAMT Co., Ltd., Japan | Cat. # ARC-8020~27

Flash was an English progressive rock group, formed by former Yes guitarist Peter Banks and vocalist Colin Carter in August 1971. Bassist Ray Bennett and drummer Mike Hough completed the line-up. This four-album's Flash cardboard sleeve reissue series featuring the albums "Flash", "In The Can", "Out Of Our Hands", and Peter Banks' solo effort "Two Sides Of Peter Banks". Each Mini-LP pack includes two discs. The first disc features the high-fidelity SHM-CD format and second disc features remastering from the original LP on a standard CD format.


allmusic.com biography:
Born April 8, 1947, in England, Peter Banks is perhaps best-known for his work with the progressive rock band Yes. Those who only see that part of the picture, though, are missing out on quite a lot. Banks first got his start with Yes bassist Chris Squire in the group the Syn. That group made a bit of a name for themselves in England from 1966 to late 1967. Squire and Banks moved to their next group after the Syn disbanded, the band Mabel Greer's Toy Shop. Banks left that group at about the time vocalist Jon Anderson was starting to become a presence on their scene, but it would only be a matter of time until they would work together. Banks went to play for a short time with Neat Change. As fate would have it, though, he hooked back up with Squire and Anderson's Toy Shop. By then, they had added Tony Kaye and Bill Bruford to the lineup and were just ready to embark on a new name for the outfit. The new name and Peter Banks' return were nearly simultaneous, and Yes was born. The group released two albums with Banks. The first of those was the self-titled debut that came out in 1969, the second album was Time & a Word released in 1970. By that time, the group had decided that Peter Banks was not really the guitarist for the band and replaced him with Steve Howe. Banks thus found himself without a musical home.

Undaunted, he formed Flash, a prog band that seemed to carry on in the mode that Yes might have gone had Banks remained. As fate would have it, keyboardist Tony Kaye was the next to feel the growing pains of Yes, and upon his replacement from the group he hooked up with Flash. The band released their debut, Flash, in 1972. They followed it in rapid-fire succession with In the Can (also released in 1972) and Out of Our Hands (1973). A live album, originally a bootleg, surfaced many years later under the moniker of Psychosync. Flash disbanded in 1973 and Banks released his first solo album, Two Sides of Peter Banks, that year. The album featured a rather impressive lineup of Banks, fellow Flash members Ray Bennett and Mike Hough, Jan Akkerman, John Wetton, and Phil Collins.

_ Peter Banks' FLASH - Japanese cardboard sleeve albums collection contains: _


[YES] Peter Banks' FLASH - Japanese Reissue '2010 (4x 2CD Set: 1972-1973) RE-UP

Flash - Flash (1972)
2x EAC-FLAC with CUE & LOG - 577 MB | Full Scans - 66 MB | MP3 CBR 320 Kbps - 188 MB
Running time - 41:41 / 41:29 minutes | Arcàngelo / TAMT Co., Ltd., Japan | Cat. # ARC-8020~1


Tracks:

01. Small Beginnings
02. Morning Haze
03. Children Of The Universe
04. Dreams Of Heaven
05. The Time It Takes

allmusic.com says:
An album that could easily have been called "Son of Yes." With rippling keyboard passages and crackling lead guitar, the sound is less intense and demanding than Yes, but also less interesting.

Exact Audio Copy V1.0 beta 2 from 29. April 2011

EAC extraction logfile from 28. August 2011, 10:46

Flash / Flash

Used drive : HL-DT-STDVDRAM GSA-H60N Adapter: 2 ID: 0

Read mode : Secure
Utilize accurate stream : Yes
Defeat audio cache : Yes
Make use of C2 pointers : No

Read offset correction : 667
Overread into Lead-In and Lead-Out : No
Fill up missing offset samples with silence : Yes
Delete leading and trailing silent blocks : No
Null samples used in CRC calculations : Yes
Used interface : Native Win32 interface for Win NT & 2000

Used output format : Internal WAV Routines
Sample format : 44.100 Hz; 16 Bit; Stereo


TOC of the extracted CD

Track | Start | Length | Start sector | End sector
––––––––––––––––––––––––––––-
1 | 0:00.00 | 9:21.15 | 0 | 42089
2 | 9:21.15 | 4:37.65 | 42090 | 62929
3 | 13:59.05 | 9:00.20 | 62930 | 103449
4 | 22:59.25 | 12:55.57 | 103450 | 161631
5 | 35:55.07 | 5:46.08 | 161632 | 187589


Range status and errors

Selected range

Filename C:\Documents and Settings\Admin\Рабочий стол\Lossless Rip by ALLexxess\Flash & Peter Banks\1972 Flash (SHM-CD + CD Arcangelo Japan Mini LP 2010)\CD1 SHM-CD\Flash - Flash.wav

Peak level 99.4 %
Extraction speed 5.6 X
Range quality 100.0 %
Test CRC 71910C8C
Copy CRC 71910C8C
Copy OK

No errors occurred


AccurateRip summary

Track 1 cannot be verified as accurate (confidence 1) [1FE473CA], AccurateRip returned [99FEC5B8] (AR v2)
Track 2 cannot be verified as accurate (confidence 1) [DC0AB98A], AccurateRip returned [87AEEEB9] (AR v2)
Track 3 cannot be verified as accurate (confidence 1) [47C19416], AccurateRip returned [E9FB9A36] (AR v2)
Track 4 cannot be verified as accurate (confidence 1) [F325F119], AccurateRip returned [DDAA9EA8] (AR v2)
Track 5 cannot be verified as accurate (confidence 1) [5275C115], AccurateRip returned [92D6BAF8] (AR v2)

No tracks could be verified as accurate
You may have a different pressing from the one(s) in the database

End of status report

==== Log checksum 70C87ECEBEDB240FE00C7F14522D3A9E7B3E62D761D34399AA934F451A30A464 ====

++++++++++++++++++++++++++++++++++++++++++++++++

Exact Audio Copy V1.0 beta 2 from 29. April 2011

EAC extraction logfile from 28. August 2011, 11:52

Flash / Flash CD

Used drive : HL-DT-STDVDRAM GSA-H60N Adapter: 2 ID: 0

Read mode : Secure
Utilize accurate stream : Yes
Defeat audio cache : Yes
Make use of C2 pointers : No

Read offset correction : 667
Overread into Lead-In and Lead-Out : No
Fill up missing offset samples with silence : Yes
Delete leading and trailing silent blocks : No
Null samples used in CRC calculations : Yes
Used interface : Native Win32 interface for Win NT & 2000

Used output format : Internal WAV Routines
Sample format : 44.100 Hz; 16 Bit; Stereo


TOC of the extracted CD

Track | Start | Length | Start sector | End sector
––––––––––––––––––––––––––––-
1 | 0:00.00 | 9:23.08 | 0 | 42232
2 | 9:23.08 | 4:36.28 | 42233 | 62960
3 | 13:59.36 | 8:59.32 | 62961 | 103417
4 | 22:58.68 | 12:53.26 | 103418 | 161418
5 | 35:52.19 | 5:36.59 | 161419 | 186677


Range status and errors

Selected range

Filename C:\Documents and Settings\Admin\Рабочий стол\Lossless Rip by ALLexxess\Flash & Peter Banks\1972 Flash (SHM-CD + CD Arcangelo Japan Mini LP 2010)\CD2 From Original LP\Flash - Flash CD.wav

Peak level 99.0 %
Extraction speed 5.6 X
Range quality 99.9 %
Test CRC F8AB3DB2
Copy CRC F8AB3DB2
Copy OK

No errors occurred


AccurateRip summary

Track 1 not present in database
Track 2 not present in database
Track 3 not present in database
Track 4 not present in database
Track 5 not present in database

None of the tracks are present in the AccurateRip database

End of status report

==== Log checksum 9419C204A75804B85D14F6C14607528118191F71ADA6C5E24F0000EE395D10A3 ====



______________________________________________________________________________


[YES] Peter Banks' FLASH - Japanese Reissue '2010 (4x 2CD Set: 1972-1973) RE-UP

Flash - In The Can (1972)
2x EAC-FLAC with CUE & LOG - 495 MB | Full Scans - 63 MB | MP3 CBR 320 Kbps - 185 MB
Running time - 40:02 / 40:09 minutes | Arcàngelo / TAMT Co., Ltd., Japan | Cat. # ARC-8022~3


Tracks:

01. Lifetime
02. Monday Morning Eyes
03. Black And White
04. Stop That Banging
05. There No More

allmusic.com says:
If you closed your eyes, there are times when you would swear this is early-period Yes, and it's in that context only where Colin Carter's vocals can be called "eye opening." Without the high-register vocals and harmonies of Jon Anderson, compounded by the absence of Tony Kaye (who left to form Badger), Flash feels like Yes firing on half their cylinders. Of course, Yes even at half-power is better than a lot of things (like Time and a Word, for example). Peter Banks' guitar work, in particular, is terrific, gamboling along in the multi-part powerhouse "Lifetime" and conceding nothing to his counterpart, Steve Howe. Ray Bennett's bass is clearly modeled on Chris Squire, though his instrument fails to interleave with the other sounds as well as it could (sometimes, as on "Monday Morning Eyes," the mix is to fault), and drummer Michael Hough is unleashed to emulate Bill Bruford's athleticism. Carter isn't a bad vocalist, just a little affected (think John Sloman from Uriah Heep) and often lost in the middle of the mix. The lyrics he gets don't give him a whole lot to work with, either. Yet for all the moments where Flash seems to strain to match the complexity that came so natural to Yes, they still come away with much good music. There are individual passages on every song (the opening of "Monday Morning Eyes," the quieter passages on "Black and White") where the band nearly leaves the earth. On "There No More," they actually scratch at the door of the sublime, using Yes' "South Side of the Sky" as something of a template. Even if they couldn't keep abreast of Yes, Flash was following a hallowed path here. Unfortunately, the original Flash albums (and Banks' 1973 solo album) are in sore need of remastering/repackaging, since the One Way reissues are merely adequate.

Exact Audio Copy V1.0 beta 2 from 29. April 2011

EAC extraction logfile from 29. August 2011, 18:43

Flash / In The Can SHM-CD

Used drive : HL-DT-STDVDRAM GSA-H60N Adapter: 2 ID: 0

Read mode : Secure
Utilize accurate stream : Yes
Defeat audio cache : Yes
Make use of C2 pointers : No

Read offset correction : 667
Overread into Lead-In and Lead-Out : No
Fill up missing offset samples with silence : Yes
Delete leading and trailing silent blocks : No
Null samples used in CRC calculations : Yes
Used interface : Native Win32 interface for Win NT & 2000

Used output format : Internal WAV Routines
Sample format : 44.100 Hz; 16 Bit; Stereo


TOC of the extracted CD

Track | Start | Length | Start sector | End sector
––––––––––––––––––––––––––––-
1 | 0:00.00 | 10:09.45 | 0 | 45719
2 | 10:09.45 | 5:15.27 | 45720 | 69371
3 | 15:24.72 | 12:06.35 | 69372 | 123856
4 | 27:31.32 | 1:58.73 | 123857 | 132779
5 | 29:30.30 | 10:31.45 | 132780 | 180149


Range status and errors

Selected range

Filename C:\Documents and Settings\Admin\Рабочий стол\Lossless Rip by ALLexxess\Flash & Peter Banks\1972 In The Can (SHM-CD + CD Arcangelo Japan Mini LP 2010)\CD1 SHM-CD\Flash - In The Can SHM-CD.wav

Peak level 98.2 %
Extraction speed 5.6 X
Range quality 100.0 %
Test CRC 93E1212F
Copy CRC 93E1212F
Copy OK

No errors occurred


AccurateRip summary

Track 1 cannot be verified as accurate (confidence 2) [CEC194DE], AccurateRip returned [5FC4F201] (AR v2)
Track 2 cannot be verified as accurate (confidence 2) [AAC3903D], AccurateRip returned [34CE09BD] (AR v2)
Track 3 cannot be verified as accurate (confidence 2) [BB072751], AccurateRip returned [C00369D8] (AR v2)
Track 4 cannot be verified as accurate (confidence 2) [49CB6CB4], AccurateRip returned [B621B0F8] (AR v2)
Track 5 cannot be verified as accurate (confidence 2) [3F206414], AccurateRip returned [197E76A6] (AR v2)

No tracks could be verified as accurate
You may have a different pressing from the one(s) in the database

End of status report

==== Log checksum 94001CD41146BBA11A264A4D40A745C7CDEA80D1B11672A5CCCBD156FC429BF6 ====

+++++++++++++++++++++++++++++++++++++++++++++++++

Exact Audio Copy V1.0 beta 2 from 29. April 2011

EAC extraction logfile from 29. August 2011, 19:16

Flash / In The Can CD

Used drive : HL-DT-STDVDRAM GSA-H60N Adapter: 2 ID: 0

Read mode : Secure
Utilize accurate stream : Yes
Defeat audio cache : Yes
Make use of C2 pointers : No

Read offset correction : 667
Overread into Lead-In and Lead-Out : No
Fill up missing offset samples with silence : Yes
Delete leading and trailing silent blocks : No
Null samples used in CRC calculations : Yes
Used interface : Native Win32 interface for Win NT & 2000

Used output format : Internal WAV Routines
Sample format : 44.100 Hz; 16 Bit; Stereo


TOC of the extracted CD

Track | Start | Length | Start sector | End sector
––––––––––––––––––––––––––––-
1 | 0:00.00 | 10:12.72 | 0 | 45971
2 | 10:12.72 | 5:13.63 | 45972 | 69509
3 | 15:26.60 | 12:09.56 | 69510 | 124240
4 | 27:36.41 | 0:26.59 | 124241 | 126249
5 | 28:03.25 | 12:05.55 | 126250 | 180679


Range status and errors

Selected range

Filename C:\Documents and Settings\Admin\Рабочий стол\Lossless Rip by ALLexxess\Flash & Peter Banks\1972 In The Can (SHM-CD + CD Arcangelo Japan Mini LP 2010)\CD2 From Original LP\Flash - In The Can CD.wav

Peak level 99.2 %
Extraction speed 5.6 X
Range quality 100.0 %
Test CRC 66C2BD21
Copy CRC 66C2BD21
Copy OK

No errors occurred


AccurateRip summary

Track 1 not present in database
Track 2 not present in database
Track 3 not present in database
Track 4 not present in database
Track 5 not present in database

None of the tracks are present in the AccurateRip database

End of status report

==== Log checksum 58E360A13BD5129B7DB33DBF821D0EDA28165F4727B659D0DFC4EFEDCA449157 ====



_____________________________________________________________________________


[YES] Peter Banks' FLASH - Japanese Reissue '2010 (4x 2CD Set: 1972-1973) RE-UP

Flash - Out Of Our Hands (1973)
2x EAC-FLAC with CUE & LOG - 467 MB | Full Scans - 64 MB | MP3 CBR 320 Kbps - 154 MB
Running time - 34:08 / 34:09 minutes | Arcàngelo / TAMT Co., Ltd., Japan | Cat. # ARC-8024~5


Tracks:

01. Open Sky
02. None The Wiser (King)
03. Farewell Number One (Pawn)
04. Man of Honour (Knight)
05. Dead Ahead (Queen)
06. The Bishop
07. Psychosync: Escape / Farewell Two / Conclusion
08. Manhattan Morning (Christmas '72)
09. Shadows (It's You)

allmusic.com says:
A loosely organized concept album – an otherworldly prophet is institutionalized, befriends a fellow inmate, and escapes back to his home world – this release is primarily of interest today to Peter Banks fans. Too often the songs appear to be formed around the lyrics, rather than the other way around, and they only really get rolling when Colin Carter steps aside to let the band kick out the jams. "None the Wiser" has some tearing leads by Banks, and "Man of Honour," their strongest track, moves from a phased banjo introduction to fine interplay between acoustic guitar, bass, and tight drumming. But waiting for the four or five worthy instrumental passages on this album may try the patience of most listeners. A note to fans: despite the album's title, Banks's later Empire song of the same name is nowhere to be found here.

Exact Audio Copy V1.0 beta 2 from 29. April 2011

EAC extraction logfile from 1. September 2011, 20:33

Flash / Out Of Our Hands

Used drive : HL-DT-STDVDRAM GSA-H60N Adapter: 2 ID: 0

Read mode : Secure
Utilize accurate stream : Yes
Defeat audio cache : Yes
Make use of C2 pointers : No

Read offset correction : 667
Overread into Lead-In and Lead-Out : No
Fill up missing offset samples with silence : Yes
Delete leading and trailing silent blocks : No
Null samples used in CRC calculations : Yes
Used interface : Native Win32 interface for Win NT & 2000

Used output format : Internal WAV Routines
Sample format : 44.100 Hz; 16 Bit; Stereo


TOC of the extracted CD

Track | Start | Length | Start sector | End sector
––––––––––––––––––––––––––––-
1 | 0:00.00 | 0:40.40 | 0 | 3039
2 | 0:40.40 | 3:19.65 | 3040 | 18029
3 | 4:00.30 | 1:39.52 | 18030 | 25506
4 | 5:40.07 | 4:44.70 | 25507 | 46876
5 | 10:25.02 | 4:42.50 | 46877 | 68076
6 | 15:07.52 | 4:21.05 | 68077 | 87656
7 | 19:28.57 | 4:52.40 | 87657 | 109596
8 | 24:21.22 | 6:25.38 | 109597 | 138509
9 | 30:46.60 | 3:20.65 | 138510 | 153574


Range status and errors

Selected range

Filename C:\Documents and Settings\Admin\Рабочий стол\Lossless Rip by ALLexxess\Flash & Peter Banks\1973 Out Of Our Hands (SHM-CD + CD Arcangelo Japan Mini LP 2010)\CD1 SHM-CD\Flash - Out Of Our Hands.wav

Peak level 99.3 %
Extraction speed 5.4 X
Range quality 100.0 %
Test CRC 3581A60A
Copy CRC 3581A60A
Copy OK

No errors occurred


AccurateRip summary

Track 1 cannot be verified as accurate (confidence 1) [C5C78328], AccurateRip returned [1E302A7D] (AR v2)
Track 2 cannot be verified as accurate (confidence 1) [C671C53B], AccurateRip returned [F52D9D2C] (AR v2)
Track 3 cannot be verified as accurate (confidence 1) [7ECD191D], AccurateRip returned [E280AA75] (AR v2)
Track 4 cannot be verified as accurate (confidence 1) [E5BEB8CD], AccurateRip returned [630C1D02] (AR v2)
Track 5 cannot be verified as accurate (confidence 1) [284F7DB4], AccurateRip returned [80FE0EF3] (AR v2)
Track 6 cannot be verified as accurate (confidence 1) [4DEEB65E], AccurateRip returned [B1961D52] (AR v2)
Track 7 cannot be verified as accurate (confidence 1) [70816111], AccurateRip returned [506DD7B1] (AR v2)
Track 8 cannot be verified as accurate (confidence 1) [60C08924], AccurateRip returned [1D9EBFDA] (AR v2)
Track 9 cannot be verified as accurate (confidence 1) [B599EE41], AccurateRip returned [5BA2B2A5] (AR v2)

No tracks could be verified as accurate
You may have a different pressing from the one(s) in the database

End of status report

==== Log checksum 937BA2A49A68520796B371E288C1916FEC36ABD36EE373737847F9242929EBCE ====

++++++++++++++++++++++++++++++++++++++++++

Exact Audio Copy V1.0 beta 2 from 29. April 2011

EAC extraction logfile from 1. September 2011, 21:11

Flash / Out Of Our Hands CD

Used drive : HL-DT-STDVDRAM GSA-H60N Adapter: 2 ID: 0

Read mode : Secure
Utilize accurate stream : Yes
Defeat audio cache : Yes
Make use of C2 pointers : No

Read offset correction : 667
Overread into Lead-In and Lead-Out : No
Fill up missing offset samples with silence : Yes
Delete leading and trailing silent blocks : No
Null samples used in CRC calculations : Yes
Used interface : Native Win32 interface for Win NT & 2000

Used output format : Internal WAV Routines
Sample format : 44.100 Hz; 16 Bit; Stereo


TOC of the extracted CD

Track | Start | Length | Start sector | End sector
––––––––––––––––––––––––––––-
1 | 0:00.00 | 3:59.22 | 0 | 17946
2 | 3:59.22 | 1:38.19 | 17947 | 25315
3 | 5:37.41 | 4:43.59 | 25316 | 46599
4 | 10:21.25 | 0:56.15 | 46600 | 50814
5 | 11:17.40 | 3:44.03 | 50815 | 67617
6 | 15:01.43 | 4:20.74 | 67618 | 87191
7 | 19:22.42 | 4:55.11 | 87192 | 109327
8 | 24:17.53 | 6:28.00 | 109328 | 138427
9 | 30:45.53 | 3:23.50 | 138428 | 153702


Range status and errors

Selected range

Filename C:\Documents and Settings\Admin\Рабочий стол\Lossless Rip by ALLexxess\Flash & Peter Banks\1973 Out Of Our Hands (SHM-CD + CD Arcangelo Japan Mini LP 2010)\CD2 From Original LP\Flash - Out Of Our Hands CD.wav

Peak level 99.1 %
Extraction speed 5.4 X
Range quality 100.0 %
Test CRC 9A0AF438
Copy CRC 9A0AF438
Copy OK

No errors occurred


AccurateRip summary

Track 1 not present in database
Track 2 not present in database
Track 3 not present in database
Track 4 not present in database
Track 5 not present in database
Track 6 not present in database
Track 7 not present in database
Track 8 not present in database
Track 9 not present in database

None of the tracks are present in the AccurateRip database

End of status report

==== Log checksum 44E64E0AAC6A1A30634A5020AF33EC506DB94F660278CA31576383A5083DBAAE ====



_____________________________________________________________________________


[YES] Peter Banks' FLASH - Japanese Reissue '2010 (4x 2CD Set: 1972-1973) RE-UP

Peter Banks - Two Sides Of Peter Banks (1973)
2x EAC-FLAC with CUE & LOG - 478 MB | Full Scans - 65 MB | MP3 CBR 320 Kbps - 187 MB
Running time - 41:28 / 41:27 minutes | Arcàngelo / TAMT Co., Ltd., Japan | Cat. # ARC-8026~7


Tracks:

01. Visions Of The King
02. The White Horse Vale: On The Hill / Lord Of The Dragon
03. Knights: The Falcon / The Bear
04. Battles
05. Knights (Reprise)
06. Last Eclipse
07. Beyond The Lonliest Sea
08. Stop That!
09. Get Out Of My Fridge

allmusic.com says:
For Two Sides of Peter Banks, the ex-guitarist from Yes gathered an impressive group of guest musicians, including Genesis' Phil Collins and Steve Hackett and King Crimson's John Wetton. Most importantly, the whole album was written and recorded with Netherlands guitarist Jan Akkerman (of Focus). The first six tracks make up a suite (early themes are recapitulated toward the end) ranging from acoustic duets ("Visions of the King") to full-blown instrumental progressive rock numbers ("Knights") that bear noticeable similarities with some material Steve Hackett would record for his first solo album Voyage of the Acolyte. Some sections (like "Battles") are surprisingly sloppy and show poor production, but overall the material is engaging for the prog fan and is worthy of the attention of anyone fond of Steve Hackett's mid-'70s albums. "Beyond the Loneliest Sea" is a delicate Akkerman tune, while "Stop That!" is an extended jam of medium interest (Banks and Akkerman trade some nice solos). Two Sides of Peter Banks is the most progressive effort the guitarist released after his departure from Yes. If it weren't for the star-heavy cast this album would be nothing more than an enjoyable curiosity, but fans of Genesis and Focus should find it an important addition to their collections.

Exact Audio Copy V1.0 beta 2 from 29. April 2011

EAC extraction logfile from 1. September 2011, 18:40

Peter Banks / Two Sides Of Peter Banks

Used drive : HL-DT-STDVDRAM GSA-H60N Adapter: 2 ID: 0

Read mode : Secure
Utilize accurate stream : Yes
Defeat audio cache : Yes
Make use of C2 pointers : No

Read offset correction : 667
Overread into Lead-In and Lead-Out : No
Fill up missing offset samples with silence : Yes
Delete leading and trailing silent blocks : No
Null samples used in CRC calculations : Yes
Used interface : Native Win32 interface for Win NT & 2000

Used output format : Internal WAV Routines
Sample format : 44.100 Hz; 16 Bit; Stereo


TOC of the extracted CD

Track | Start | Length | Start sector | End sector
––––––––––––––––––––––––––––-
1 | 0:00.00 | 1:24.05 | 0 | 6304
2 | 1:24.05 | 7:13.25 | 6305 | 38804
3 | 8:37.30 | 6:14.02 | 38805 | 66856
4 | 14:51.32 | 1:38.13 | 66857 | 74219
5 | 16:29.45 | 2:11.37 | 74220 | 84081
6 | 18:41.07 | 2:30.05 | 84082 | 95336
7 | 21:11.12 | 3:06.55 | 95337 | 109341
8 | 24:17.67 | 13:47.08 | 109342 | 171374
9 | 38:05.00 | 3:23.12 | 171375 | 186611


Range status and errors

Selected range

Filename C:\Documents and Settings\Admin\Рабочий стол\Lossless Rip by ALLexxess\Flash & Peter Banks\1973 Two Sides Of Peter Banks (SHM-CD + CD Arcangelo Japan Mini LP 2010)\CD1 SHM-CD\Peter Banks - Two Sides Of Peter Banks.wav

Peak level 95.9 %
Extraction speed 5.7 X
Range quality 100.0 %
Test CRC 6E0D87F7
Copy CRC 6E0D87F7
Copy OK

No errors occurred


AccurateRip summary

Track 1 not present in database
Track 2 not present in database
Track 3 not present in database
Track 4 not present in database
Track 5 not present in database
Track 6 not present in database
Track 7 not present in database
Track 8 not present in database
Track 9 not present in database

None of the tracks are present in the AccurateRip database

End of status report

==== Log checksum 75AE99D7313BC84B9C265A6D113AE3730D0E081994D6D8C049308878E0361625 ====

+++++++++++++++++++++++++++++++++++++

Exact Audio Copy V1.0 beta 2 from 29. April 2011

EAC extraction logfile from 1. September 2011, 19:41

Peter Banks / Two Sides Of Peter Banks

Used drive : HL-DT-STDVDRAM GSA-H60N Adapter: 2 ID: 0

Read mode : Secure
Utilize accurate stream : Yes
Defeat audio cache : Yes
Make use of C2 pointers : No

Read offset correction : 667
Overread into Lead-In and Lead-Out : No
Fill up missing offset samples with silence : Yes
Delete leading and trailing silent blocks : No
Null samples used in CRC calculations : Yes
Used interface : Native Win32 interface for Win NT & 2000

Used output format : Internal WAV Routines
Sample format : 44.100 Hz; 16 Bit; Stereo


TOC of the extracted CD

Track | Start | Length | Start sector | End sector
––––––––––––––––––––––––––––-
1 | 0:00.00 | 1:26.11 | 0 | 6460
2 | 1:26.11 | 7:13.14 | 6461 | 38949
3 | 8:39.25 | 6:13.29 | 38950 | 66953
4 | 14:52.54 | 1:36.20 | 66954 | 74173
5 | 16:28.74 | 2:11.11 | 74174 | 84009
6 | 18:40.10 | 2:29.45 | 84010 | 95229
7 | 21:09.55 | 3:06.31 | 95230 | 109210
8 | 24:16.11 | 13:46.73 | 109211 | 171233
9 | 38:03.09 | 3:24.06 | 171234 | 186539


Range status and errors

Selected range

Filename C:\Documents and Settings\Admin\Рабочий стол\Lossless Rip by ALLexxess\Flash & Peter Banks\1973 Two Sides Of Peter Banks (SHM-CD + CD Arcangelo Japan Mini LP 2010)\CD2 From Original LP\Peter Banks - Two Sides Of Peter Banks.wav

Peak level 98.5 %
Extraction speed 5.7 X
Range quality 100.0 %
Test CRC 3D50AF14
Copy CRC 3D50AF14
Copy OK

No errors occurred


AccurateRip summary

Track 1 not present in database
Track 2 not present in database
Track 3 not present in database
Track 4 not present in database
Track 5 not present in database
Track 6 not present in database
Track 7 not present in database
Track 8 not present in database
Track 9 not present in database

None of the tracks are present in the AccurateRip database

End of status report

==== Log checksum F8D09A4C3E3BC00B64F056D079DE02994F9FC7C58F315D60D5E9E40CBC34596F ====


all thanks goes to ALLexxess!
Flash (1972)
FLAC | Scans | MP3 320

In The Can (1972)
FLAC | Scans | MP3 320

Out Of Our Hands (1973)
FLAC | Scans | MP3 320

Two Sides Of Peter Banks (1973)
FLAC | Scans | MP3 320
Flash (1972)
FLAC | Scans | MP3 320

In The Can (1972)
FLAC | Scans | MP3 320

Out Of Our Hands (1973)
FLAC | Scans | MP3 320

Two Sides Of Peter Banks (1973)
FLAC | Scans | MP3 320