Subcategories

Josef Bohuslav Foerster - The Complete Piano Trios (2012) {Supraphon}

Posted By: ruskaval
Josef Bohuslav Foerster - The Complete Piano Trios (2012) {Supraphon}

Josef Bohuslav Foerster - The Complete Piano Trios (2012) {Supraphon}
EAC rip (secure mode) | FLAC (tracks)+CUE+LOG -> 292 Mb | MP3 @320 -> 180 Mb
Full Artwork @ 300 dpi (png) -> 100 Mb | 5% repair rar
© 2012 Supraphon a. s.| SU 4079-2
Classical / Chamber Music / Piano

Foerster's piano trios in the first complete digital recording! New recording. The works of Josef Bohuslav Foerster (1859–1951) have deservedly experienced a renaissance in recent years. Following the acclaimed albums of his two violin concertos (SU 3961-2), cello concerto (SU 3989-2) and complete string quartets (SU 4050-2), SUPRAPHON has now released the first-ever digital recording featuring the complete Foerster piano trios. And as in the case of the string quartets, the three piano trios too represent various creative phases, with the first and third being divided by almost four decades.

Foerster dedicated his first trio to Edvard Grieg. The Norwegian composer lauded "the earnest, emotionally profound talent, tending towards high ideals". The final trio was written in Prague, where Foerster had returned after living and working in Hamburg and Vienna for twenty-five years. The piece reflects the tumultuous post-war musical development and can be designated as one of Foerster's most progressive compositions.

The young and gifted Janáček Trio interprets Foerster’s works with an understanding of the composer’s inner world and complete engagement.

More INFO

Personnel:
Janáček Trio:
Jiří Pospíchal - violin, Marek Novák - cello, Markéta Janáčková - piano

tracklist:
01. Piano Trio No. 1 in F minor, Op. 8: 1. Allegro
02. Piano Trio No. 1 in F minor, Op. 8: 2. Allegro con brio
03. Piano Trio No. 1 in F minor, Op. 8: 3. Adagio molto
04. Piano Trio No. 1 in F minor, Op. 8: 4. Allegro con brio
05. Piano Trio No. 2 in B flat major, Op. 38: 1. Allegro energico
06. Piano Trio No. 2 in B flat major, Op. 38: 2. Allegro con brio
07. Piano Trio No. 2 in B flat major, Op. 38: 3. Adagio
08. Piano Trio No. 3 in A minor, Op. 105: 1. Assai moderato, ma con ardore interno
09. Piano Trio No. 3 in A minor, Op. 105: 2. Andante sostenuto
10. Piano Trio No. 3 in A minor, Op. 105: 3. Allegro risoluto

Exact Audio Copy V1.0 beta 3 from 29. August 2011

EAC extraction logfile from 24. April 2013, 10:23

Josef Bohuslav Foerster / Complete Piano Trios

Used drive : PLEXTOR DVDR PX-860A Adapter: 0 ID: 0

Read mode : Secure
Utilize accurate stream : Yes
Defeat audio cache : Yes
Make use of C2 pointers : No

Read offset correction : 96
Overread into Lead-In and Lead-Out : No
Fill up missing offset samples with silence : Yes
Delete leading and trailing silent blocks : No
Null samples used in CRC calculations : Yes
Used interface : Native Win32 interface for Win NT & 2000
Gap handling : Appended to previous track

Used output format : User Defined Encoder
Selected bitrate : 1024 kBit/s
Quality : High
Add ID3 tag : No
Command line compressor : C:\Program Files\Exact Audio Copy\Flac\flac.exe
Additional command line options : -8 -V -T "ARTIST=%artist%" -T "TITLE=%title%" -T "ALBUM=%albumtitle%" -T "DATE=%year%" -T "TRACKNUMBER=%tracknr%" -T "GENRE=%genre%" -T "PERFORMER=%albuminterpret%" -T "COMPOSER=%composer%" %haslyrics%–tag-from-file=LYRICS="%lyricsfile%"%haslyrics% -T "ALBUMARTIST=%albumartist%" -T "DISCNUMBER=%cdnumber%" -T "TOTALDISCS=%totalcds%" -T "TOTALTRACKS=%numtracks%" -T "COMMENT=EAC Secure Mode, Test & Copy, AccurateRip, FLAC -8" %source% -o %dest%


TOC of the extracted CD

Track | Start | Length | Start sector | End sector
––––––––––––––––––––––––––––-
1 | 0:00.00 | 7:41.15 | 0 | 34589
2 | 7:41.15 | 4:27.49 | 34590 | 54663
3 | 12:08.64 | 5:41.34 | 54664 | 80272
4 | 17:50.23 | 12:18.09 | 80273 | 135631
5 | 30:08.32 | 6:07.59 | 135632 | 163215
6 | 36:16.16 | 7:52.38 | 163216 | 198653
7 | 44:08.54 | 6:54.71 | 198654 | 229774
8 | 51:03.50 | 6:09.40 | 229775 | 257489
9 | 57:13.15 | 11:18.43 | 257490 | 308382
10 | 68:31.58 | 6:49.62 | 308383 | 339119


Track 1

Filename O:\DL\Josef Bohuslav Foerster - Complete Piano Trios (2012) [FLAC]\01 - Piano Trio No.1 in F minor, Op.8 - I Allegro.wav

Pre-gap length 0:00:02.00

Peak level 82.0 %
Extraction speed 4.9 X
Track quality 100.0 %
Test CRC 4CE36332
Copy CRC 4CE36332
Track not present in AccurateRip database
Copy OK

Track 2

Filename O:\DL\Josef Bohuslav Foerster - Complete Piano Trios (2012) [FLAC]\02 - Piano Trio No.1 in F minor - II Allegro con brio.wav

Pre-gap length 0:00:03.00

Peak level 76.9 %
Extraction speed 5.3 X
Track quality 100.0 %
Test CRC 1218B595
Copy CRC 1218B595
Track not present in AccurateRip database
Copy OK

Track 3

Filename O:\DL\Josef Bohuslav Foerster - Complete Piano Trios (2012) [FLAC]\03 - Piano Trio No.1 in F minor - III Adagio molto.wav

Pre-gap length 0:00:03.00

Peak level 89.0 %
Extraction speed 5.8 X
Track quality 100.0 %
Test CRC E187A506
Copy CRC E187A506
Track not present in AccurateRip database
Copy OK

Track 4

Filename O:\DL\Josef Bohuslav Foerster - Complete Piano Trios (2012) [FLAC]\04 - Piano Trio No.1 in F minor - IV Allegro con brio.wav

Pre-gap length 0:00:03.00

Peak level 83.3 %
Extraction speed 7.1 X
Track quality 100.0 %
Test CRC EE865F48
Copy CRC EE865F48
Track not present in AccurateRip database
Copy OK

Track 5

Filename O:\DL\Josef Bohuslav Foerster - Complete Piano Trios (2012) [FLAC]\05 - Piano Trio No.2 in B flat major, Op.38 - I Allegro energico.wav

Pre-gap length 0:00:08.00

Peak level 89.0 %
Extraction speed 7.4 X
Track quality 100.0 %
Test CRC 596E6060
Copy CRC 596E6060
Track not present in AccurateRip database
Copy OK

Track 6

Filename O:\DL\Josef Bohuslav Foerster - Complete Piano Trios (2012) [FLAC]\06 - Piano Trio No.2 in B flat major - II Allegro molto.wav

Pre-gap length 0:00:03.00

Peak level 61.7 %
Extraction speed 8.0 X
Track quality 100.0 %
Test CRC 554BA2DC
Copy CRC 554BA2DC
Track not present in AccurateRip database
Copy OK

Track 7

Filename O:\DL\Josef Bohuslav Foerster - Complete Piano Trios (2012) [FLAC]\07 - Piano Trio No.2 in B flat major - III Adagio.wav

Pre-gap length 0:00:03.00

Peak level 80.2 %
Extraction speed 8.3 X
Track quality 100.0 %
Test CRC FDD03FDF
Copy CRC FDD03FDF
Track not present in AccurateRip database
Copy OK

Track 8

Filename O:\DL\Josef Bohuslav Foerster - Complete Piano Trios (2012) [FLAC]\08 - Piano Trio No.3 in A minor, Op.105 - I Assai moderato, ma con ardore interno.wav

Pre-gap length 0:00:08.00

Peak level 94.2 %
Extraction speed 7.9 X
Track quality 99.9 %
Test CRC 0D648FA9
Copy CRC 0D648FA9
Track not present in AccurateRip database
Copy OK

Track 9

Filename O:\DL\Josef Bohuslav Foerster - Complete Piano Trios (2012) [FLAC]\09 - Piano Trio No.3 in A minor - II Andante sostenuto.wav

Pre-gap length 0:00:03.00

Peak level 78.0 %
Extraction speed 8.8 X
Track quality 99.9 %
Test CRC 86567CAC
Copy CRC 86567CAC
Track not present in AccurateRip database
Copy OK

Track 10

Filename O:\DL\Josef Bohuslav Foerster - Complete Piano Trios (2012) [FLAC]\10 - Piano Trio No.3 in A minor - III Allegro risoluto.wav

Pre-gap length 0:00:03.00

Peak level 88.3 %
Extraction speed 9.4 X
Track quality 100.0 %
Test CRC 4AA886C1
Copy CRC 4AA886C1
Track not present in AccurateRip database
Copy OK


None of the tracks are present in the AccurateRip database

No errors occurred

End of status report

–– CUETools DB Plugin V2.1.3

[CTDB TOCID: XUk36B_pYbJ0YBRze2pres.vTlY-] found, Submit result: XUk36B_pYbJ0YBRze2pres.vTlY- has been confirmed
[34ca7b0c] (1/1) Accurately ripped


==== Log checksum B2BD7FC188EBD5F5C05C5E8EC5DCC3F657A3412EF981C48975470BBD4D47F171 ====


Josef Bohuslav Foerster - The Complete Piano Trios (2012) {Supraphon}

Josef Bohuslav Foerster - The Complete Piano Trios (2012) {Supraphon}


Special Thanks to dtromp!