Subcategories

Frank Sinatra - Sinatra-Basie + Sinatra And Swinging Brass (2013) {Essential Jazz Classics EJC55596 rec 1962}

Posted By: ruskaval
Frank Sinatra - Sinatra-Basie + Sinatra And Swinging Brass (2013) {Essential Jazz Classics EJC55596 rec 1962}

Frank Sinatra - Sinatra-Basie + Sinatra And Swinging Brass (2013) {Essential Jazz Classics EJC55596 rec 1962}
EAC rip (secure mode) | FLAC (tracks)+CUE+LOG -> 477 Mb | MP3 @320 -> 182 Mb
Full Artwork @ 300 dpi (jpg) -> 37 Mb | 5% repair rar
© 1962, 2013 Essential Jazz Classics | EJC55596
Jazz / Vocal Jazz / Big Band

The long-awaited first collaboration between two icons, Count Basie and Frank Sinatra, did something unique for the reputations of both. For Basie, the Sinatra connection inaugurated a period in the '60s where his band was more popular and better-known than it ever was, even in the big-band era. For Sinatra, Basie meant liberation, producing perhaps the loosest, rhythmically free singing of his career. Propelled by the irresistible drums of Sonny Payne, Sinatra careens up to and around the tunes, reacting jauntily to the beat and encouraging Payne to swing even harder, which was exactly the way to interact with the Basie rhythm machine – using his exquisite timing flawlessly. Also the members of the Basie band play a more prominent role than usual on a Sinatra record, with soloists like Frank Wess – in some of the finest flute work of his life – and tenors Frank Foster and Eric Dixon getting prominent solo opportunities on several of the tracks. The record was criticized by some as a letdown when it came out, probably because Neal Hefti's charts rarely permit the band to roar, concentrating on use of subtlety and space. Yet the record's restraint has worn very well over the long haul – it doesn't beat you into submission – and it concludes with its best shot, a wonderfully playful treatment of "I Won't Dance."
Frank Sinatra - Sinatra-Basie + Sinatra And Swinging Brass (2013) {Essential Jazz Classics EJC55596 rec 1962}

Sinatra and Swingin' Brass, a collection of brash, bold up-tempo numbers, followed the all-ballads effort Sinatra and Strings. Working with Neal Hefti, Sinatra turned in a robust, energetic performance, which was infectious even when his voice was showing signs of wear – he was suffering from a cold during the sessions. The record captures the spirit of the Rat Pack era nearly as well as Ring-a-Ding Ding!.
Frank Sinatra - Sinatra-Basie + Sinatra And Swinging Brass (2013) {Essential Jazz Classics EJC55596 rec 1962}


Tracks:

Sinatra-Basie: An Historic Musical First (1962)


01."Pennies from Heaven" (Arthur Johnston, Johnny Burke) – 3:29
02."Please Be Kind" (Saul Chaplin, Sammy Cahn) – 2:43
03."(Love Is) The Tender Trap" (Cahn, Jimmy Van Heusen) – 2:37
04."Looking at the World Through Rose Colored Glasses" (Jimmy Steiger, Tommy Mailie) – 2:32
05."My Kind of Girl" (Leslie Bricusse) – 4:37
06."I Only Have Eyes for You" (Harry Warren, Al Dubin) – 3:31
07."Nice Work If You Can Get It" (George Gershwin, Ira Gershwin) – 2:37
08."Learnin' the Blues" (Dolores Vicki Silvers) – 4:25
09."I'm Gonna Sit Right Down and Write Myself a Letter" (Fred Ahlert, Joe Young) – 2:36
10."I Won't Dance" (Jerome Kern, Jimmy McHugh, Oscar Hammerstein II, Dorothy Fields, Otto Harbach) – 4:07

Sinatra and Swingin' Brass (1962):

11."Goody Goody" (Johnny Mercer, Matty Malneck) – 1:47
12."They Can't Take That Away from Me" (George Gershwin, Ira Gershwin) – 2:41
13."At Long Last Love" (Cole Porter) – 2:14
14."I'm Beginning to See the Light" (Johnny Hodges, Harry James, Duke Ellington, Don George) – 2:34
15."Don'cha Go 'Way Mad" (Jimmy Mundy, Al Stillman, Illinois Jacquet) – 3:12
16."I Get a Kick Out of You" (Porter) – 3:14
17."Tangerine" (Victor Schertzinger, Johnny Mercer) – 2:03
18."Love Is Just around the Corner" (Lewis E. Gensler, Leo Robin) – 2:27
19."Ain't She Sweet" (Milton Ager, Jack Yellen) – 2:07
20."Serenade In Blue" (Harry Warren, Mack Gordon) – 2:58
21."I Love You" (Porter) – 2:16
22."Pick Yourself Up" (Jerome Kern, Dorothy Fields) – 2:33

Bonus tracks:

23. Everybody’s Twistin’
24. Nothing But The Best
25. Pennies From Heaven
26. Nice Work If You Can Get It
27. I Won’t Dance

Exact Audio Copy V1.0 beta 3 from 29. August 2011

EAC extraction logfile from 2. June 2013, 14:56

Frank Sinatra / Sinatra-Basie + Sinatra And Swinging Brass [EJC55596]

Used drive : PLEXTOR DVDR PX-L890SA Adapter: 2 ID: 1

Read mode : Secure
Utilize accurate stream : Yes
Defeat audio cache : Yes
Make use of C2 pointers : No

Read offset correction : 6
Overread into Lead-In and Lead-Out : No
Fill up missing offset samples with silence : Yes
Delete leading and trailing silent blocks : No
Null samples used in CRC calculations : Yes
Used interface : Native Win32 interface for Win NT & 2000
Gap handling : Appended to previous track

Used output format : User Defined Encoder
Selected bitrate : 256 kBit/s
Quality : High
Add ID3 tag : No
Command line compressor : C:\Program Files (x86)\Exact Audio Copy\FLAC\FLAC.EXE
Additional command line options : -8 -V -T "ARTIST=%artist%" -T "TITLE=%title%" -T "ALBUM=%albumtitle%" -T "DATE=%year%" -T "TRACKNUMBER=%tracknr%" -T "TOTALTRACKS=%numtracks%" -T "GENRE=%genre%" -T "ALBUMARTIST=%albumartist%" -T "ALBUM ARTIST=%albumartist%" -T "COMMENT=EAC Secure Mode, Test & Copy, AccurateRip, FLAC -8" %source%


TOC of the extracted CD

Track | Start | Length | Start sector | End sector
––––––––––––––––––––––––––––-
1 | 0:00.00 | 3:28.54 | 0 | 15653
2 | 3:28.54 | 2:41.64 | 15654 | 27792
3 | 6:10.43 | 2:35.57 | 27793 | 39474
4 | 8:46.25 | 2:29.74 | 39475 | 50723
5 | 11:16.24 | 4:35.15 | 50724 | 71363
6 | 15:51.39 | 3:29.29 | 71364 | 87067
7 | 19:20.68 | 2:35.58 | 87068 | 98750
8 | 21:56.51 | 4:24.43 | 98751 | 118593
9 | 26:21.19 | 2:34.12 | 118594 | 130155
10 | 28:55.31 | 4:06.71 | 130156 | 148676
11 | 33:02.27 | 1:48.72 | 148677 | 156848
12 | 34:51.24 | 2:43.24 | 156849 | 169097
13 | 37:34.48 | 2:15.68 | 169098 | 179290
14 | 39:50.41 | 2:36.69 | 179291 | 191059
15 | 42:27.35 | 3:14.56 | 191060 | 205665
16 | 45:42.16 | 3:16.32 | 205666 | 220397
17 | 48:58.48 | 2:05.71 | 220398 | 229843
18 | 51:04.44 | 2:30.07 | 229844 | 241100
19 | 53:34.51 | 2:09.61 | 241101 | 250836
20 | 55:44.37 | 3:01.15 | 250837 | 264426
21 | 58:45.52 | 2:18.39 | 264427 | 274815
22 | 61:04.16 | 2:34.62 | 274816 | 286427
23 | 63:39.03 | 2:34.62 | 286428 | 298039
24 | 66:13.65 | 3:00.70 | 298040 | 311609
25 | 69:14.60 | 2:41.16 | 311610 | 323700
26 | 71:56.01 | 2:21.11 | 323701 | 334286
27 | 74:17.12 | 3:22.25 | 334287 | 349461


Track 1

Filename F:\Flac Rips\01 - Pennies From Heaven.wav

Pre-gap length 0:00:02.00

Peak level 100.0 %
Extraction speed 3.7 X
Track quality 100.0 %
Test CRC A6B4D0CF
Copy CRC A6B4D0CF
Track not present in AccurateRip database
Copy OK

Track 2

Filename F:\Flac Rips\02 - Please Be Kind.wav

Peak level 69.1 %
Extraction speed 3.8 X
Track quality 100.0 %
Test CRC E45F390D
Copy CRC E45F390D
Track not present in AccurateRip database
Copy OK

Track 3

Filename F:\Flac Rips\03 - (Love is) The Tender Trap.wav

Peak level 100.0 %
Extraction speed 4.0 X
Track quality 100.0 %
Test CRC 07D218CC
Copy CRC 07D218CC
Track not present in AccurateRip database
Copy OK

Track 4

Filename F:\Flac Rips\04 - Looking at The World Thru Rose Colored Glasses.wav

Peak level 100.0 %
Extraction speed 4.1 X
Track quality 100.0 %
Test CRC EC72DCB1
Copy CRC EC72DCB1
Track not present in AccurateRip database
Copy OK

Track 5

Filename F:\Flac Rips\05 - My Kind Of Girl.wav

Peak level 100.0 %
Extraction speed 4.0 X
Track quality 99.9 %
Test CRC E7D16DCC
Copy CRC E7D16DCC
Track not present in AccurateRip database
Copy OK

Track 6

Filename F:\Flac Rips\06 - I Only Have Eyes For You.wav

Peak level 100.0 %
Extraction speed 4.8 X
Track quality 100.0 %
Test CRC 29E9B95B
Copy CRC 29E9B95B
Track not present in AccurateRip database
Copy OK

Track 7

Filename F:\Flac Rips\07 - Nice Work If You Can Get It.wav

Peak level 69.3 %
Extraction speed 4.9 X
Track quality 100.0 %
Test CRC DAA1BCD4
Copy CRC DAA1BCD4
Track not present in AccurateRip database
Copy OK

Track 8

Filename F:\Flac Rips\08 - Learnin' The Blues.wav

Peak level 100.0 %
Extraction speed 4.5 X
Track quality 99.9 %
Test CRC CD1E6BE4
Copy CRC CD1E6BE4
Track not present in AccurateRip database
Copy OK

Track 9

Filename F:\Flac Rips\09 - I'm Gonna Sit Right Down And Write Myself a Letter.wav

Peak level 100.0 %
Extraction speed 5.2 X
Track quality 100.0 %
Test CRC 6702F731
Copy CRC 6702F731
Track not present in AccurateRip database
Copy OK

Track 10

Filename F:\Flac Rips\10 - I Won't Dance.wav

Peak level 75.5 %
Extraction speed 5.8 X
Track quality 100.0 %
Test CRC FAFB22CD
Copy CRC FAFB22CD
Track not present in AccurateRip database
Copy OK

Track 11

Filename F:\Flac Rips\11 - Goody Goody.wav

Peak level 88.8 %
Extraction speed 5.1 X
Track quality 100.0 %
Test CRC E8EADD12
Copy CRC E8EADD12
Track not present in AccurateRip database
Copy OK

Track 12

Filename F:\Flac Rips\12 - They Can't Take That Away From Me.wav

Peak level 91.0 %
Extraction speed 4.3 X
Track quality 99.9 %
Test CRC 9789E9CA
Copy CRC 9789E9CA
Track not present in AccurateRip database
Copy OK

Track 13

Filename F:\Flac Rips\13 - At Long Last Love.wav

Peak level 93.1 %
Extraction speed 5.6 X
Track quality 100.0 %
Test CRC 562D6C23
Copy CRC 562D6C23
Track not present in AccurateRip database
Copy OK

Track 14

Filename F:\Flac Rips\14 - I'm Beginning To See The Light.wav

Peak level 83.0 %
Extraction speed 6.0 X
Track quality 100.0 %
Test CRC 9F0D166C
Copy CRC 9F0D166C
Track not present in AccurateRip database
Copy OK

Track 15

Filename F:\Flac Rips\15 - Don't Cha Gp 'Way Mad.wav

Peak level 100.0 %
Extraction speed 6.3 X
Track quality 100.0 %
Test CRC 1E53F01E
Copy CRC 1E53F01E
Track not present in AccurateRip database
Copy OK

Track 16

Filename F:\Flac Rips\16 - I Get A Kick Out Of You.wav

Peak level 99.6 %
Extraction speed 6.5 X
Track quality 100.0 %
Test CRC 33F3FEFF
Copy CRC 33F3FEFF
Track not present in AccurateRip database
Copy OK

Track 17

Filename F:\Flac Rips\17 - Tangerine.wav

Peak level 93.1 %
Extraction speed 6.1 X
Track quality 100.0 %
Test CRC 1663A149
Copy CRC 1663A149
Track not present in AccurateRip database
Copy OK

Track 18

Filename F:\Flac Rips\18 - Love Is Just Around The Corner.wav

Peak level 100.0 %
Extraction speed 6.3 X
Track quality 100.0 %
Test CRC 6B1BC7D0
Copy CRC 6B1BC7D0
Track not present in AccurateRip database
Copy OK

Track 19

Filename F:\Flac Rips\19 - Ain't She Sweet.wav

Peak level 80.8 %
Extraction speed 4.4 X
Track quality 99.9 %
Test CRC D02F5848
Copy CRC D02F5848
Track not present in AccurateRip database
Copy OK

Track 20

Filename F:\Flac Rips\20 - Serenade in Blue.wav

Peak level 100.0 %
Extraction speed 6.8 X
Track quality 100.0 %
Test CRC BA9568F5
Copy CRC BA9568F5
Track not present in AccurateRip database
Copy OK

Track 21

Filename F:\Flac Rips\21 - I Love You.wav

Peak level 90.4 %
Extraction speed 6.5 X
Track quality 100.0 %
Test CRC 1CE20C68
Copy CRC 1CE20C68
Track not present in AccurateRip database
Copy OK

Track 22

Filename F:\Flac Rips\22 - Pick Yourself Up.wav

Peak level 98.3 %
Extraction speed 6.8 X
Track quality 100.0 %
Test CRC 68891593
Copy CRC 68891593
Track not present in AccurateRip database
Copy OK

Track 23

Filename F:\Flac Rips\23 - Everybody's Twistin' (bonus track).wav

Peak level 92.5 %
Extraction speed 6.8 X
Track quality 100.0 %
Test CRC C506CFAC
Copy CRC C506CFAC
Track not present in AccurateRip database
Copy OK

Track 24

Filename F:\Flac Rips\24 - Nothing But The Best (bonus track).wav

Peak level 100.0 %
Extraction speed 5.4 X
Track quality 99.9 %
Test CRC 9C44D162
Copy CRC 9C44D162
Track not present in AccurateRip database
Copy OK

Track 25

Filename F:\Flac Rips\25 - Pennies From Heaven (bonus track).wav

Peak level 92.2 %
Extraction speed 7.2 X
Track quality 100.0 %
Test CRC EC1B733B
Copy CRC EC1B733B
Track not present in AccurateRip database
Copy OK

Track 26

Filename F:\Flac Rips\26 - Nice Work If You Can Get It (bonus track).wav

Peak level 92.2 %
Extraction speed 7.0 X
Track quality 100.0 %
Test CRC D120004E
Copy CRC D120004E
Track not present in AccurateRip database
Copy OK

Track 27

Filename F:\Flac Rips\27 - I Won't Dance (bonus track).wav

Peak level 92.2 %
Extraction speed 7.6 X
Track quality 100.0 %
Test CRC EF9FC5D6
Copy CRC EF9FC5D6
Track not present in AccurateRip database
Copy OK


None of the tracks are present in the AccurateRip database

No errors occurred

End of status report

==== Log checksum 93A5D1696B9C9106D41CFCF2904EFC70573A4E3A63AFEC67E613A8475035E434 ====


Frank Sinatra - Sinatra-Basie + Sinatra And Swinging Brass (2013) {Essential Jazz Classics EJC55596 rec 1962}

Frank Sinatra - Sinatra-Basie + Sinatra And Swinging Brass (2013) {Essential Jazz Classics EJC55596 rec 1962}



===