Subcategories

Frank Zappa - Frank Zappa For President (2016) {Zappa Records ZR 20021}

Posted By: ruskaval
Frank Zappa - Frank Zappa For President (2016) {Zappa Records ZR 20021}

Frank Zappa - Frank Zappa For President (2016) {Zappa Records ZR 20021}
EAC rip (secure mode) | FLAC (tracks)+CUE+LOG -> 255 Mb | MP3 @320 -> 102 Mb
Full Artwork @ 600 dpi (png) -> 170 Mb | 5% repair rar
© 2016 Zappa Records / The Zappa Family Trust / Universal | ZR 20021 / 00824302002223
Rock / Experimental Rock / Avant-Garde / Art Rock / Jazz Rock

Official Release #105. All Masters Produced by Frank Zappa. Frank Zappa For President? You betcha! We know at various times he wanted to run for office. In the spirit of the 2016 dramatic presidential election adventures, comes a release that gives us a glimpse into what could have been. This album is comprised of unreleased compositions realized on the Synclavier along with other relevant tracks mined from the Vault with a political thread tying it all together. Don't forget to Register and Vote!
Frank Zappa - Frank Zappa For President (2016) {Zappa Records ZR 20021}

Frank Zappa‘s vaults will reopen in July for a pair of new releases, Frank Zappa for President and The Crux of the Biscuit.

Both scheduled to arrive July 15, the new titles explore different sides of Zappa’s many-faceted musical personality. “Frank Zappa for President? You betcha! We know at various times he wanted to run for office,” reads a label press release. “In the spirit of the dramatic 2016 presidential election adventures comes a release that gives us a glimpse into what could have been. This album is comprised of unreleased compositions realized on the Synclavier, along with other relevant tracks mined from the Vault, with a political thread tying it all together. Don’t forget to register and vote!”

The Crux of the Biscuit, meanwhile, was put together to celebrate the 40th anniversary of Zappa’s Apostrophe album in 2014. “As part of Zappa Records’ ongoing Frank Zappa Project/Object Audio Documentary Series,” notes the press release, “it contains rare alternate mixes, live performances, and studio session outtakes.”

Frank Zappa for President and The Crux of the Biscuit are part of a spate of recent vault projects that includes a handful of titles released in May, and continue the Universal partnership announced by the estate in 2015.
Frank Zappa - Frank Zappa For President (2016) {Zappa Records ZR 20021}


Personnel:
FZ / guitars, synclavier, vocals
Ray Collins / vocals
Jimmy Carl Black / drums, vocals
Roy Estrada / bass, vocals
Billy Mundi / drums
Don Preston / keyboards
Bunk Gardner / sax, woodwings
Napoleon Murphy Brock / vocals
Ike Willis / vocals
Mike Kenneally / guitar, synth
Bobby Martin / keyboards, vocals
Ed Mann / vibes, marimba, electronic percussion
Walt Fowler / trumpet, flugelhorn, synth
Bruce Fowler / trombone
Paul Carmen / alto, soprano & baritone sax
Albert Wing / tenor sax
Kurt McGettrick / baritone sax, bass sax, contrabass clarinet
Scott Thunes / bass
Chad Wackerman / drums, electronic percussion

tracklist:
01 - Overture To ''Uncle Sam''
02 - Brown Shoes Don't Make It (Remix)
03 - Amnerika (Vocal Version)
04 - ''If I Was President''
05 - When The Lie's So Big
06 - Medieval Ensemble
07 - America The Beautiful

Exact Audio Copy V1.1 from 23. June 2015

EAC extraction logfile from 19. August 2016, 17:44

Frank Zappa / Frank Zappa For President

Used drive : HL-DT-STDVDRAM GP50NW41 Adapter: 1 ID: 0

Read mode : Secure
Utilize accurate stream : Yes
Defeat audio cache : Yes
Make use of C2 pointers : No

Read offset correction : 6
Overread into Lead-In and Lead-Out : No
Fill up missing offset samples with silence : Yes
Delete leading and trailing silent blocks : No
Null samples used in CRC calculations : Yes
Used interface : Native Win32 interface for Win NT & 2000
Gap handling : Appended to previous track

Used output format : User Defined Encoder
Selected bitrate : 1024 kBit/s
Quality : High
Add ID3 tag : No
Command line compressor : C:\Program Files (x86)\FLAC Frontend\tools\flac.exe
Additional command line options : -8 -V -T "ARTIST=%artist%" -T "TITLE=%title%" -T "ALBUM=%albumtitle%" -T "DATE=%year%" -T "TRACKNUMBER=%tracknr%" -T "TOTALTRACKS=%numtracks%" -T "GENRE=%genre%" -T "ALBUMARTIST=%albumartist%" -T "ALBUM ARTIST=%albumartist%" -T "COMMENT=EAC Secure Mode, Test & Copy, AccurateRip, FLAC -8" %source%


TOC of the extracted CD

Track | Start | Length | Start sector | End sector
––––––––––––––––––––––––––––-
1 | 0:00.00 | 15:16.36 | 0 | 68735
2 | 15:16.36 | 7:27.70 | 68736 | 102330
3 | 22:44.31 | 3:10.35 | 102331 | 116615
4 | 25:54.66 | 3:43.41 | 116616 | 133381
5 | 29:38.32 | 3:38.43 | 133382 | 149774
6 | 33:17.00 | 6:31.62 | 149775 | 179161
7 | 39:48.62 | 3:36.33 | 179162 | 195394


Track 1

Filename D:\_EAC\Frank Zappa - Frank Zappa For President (2016) [FLAC] {ZR 20021}\01 - Overture To ''Uncle Sam''.wav

Pre-gap length 0:00:02.00

Peak level 100.0 %
Extraction speed 1.4 X
Track quality 100.0 %
Test CRC 0381494F
Copy CRC 0381494F
Cannot be verified as accurate (confidence 4) [53285600], AccurateRip returned [AC0ABDFF] (AR v2)
Copy OK

Track 2

Filename D:\_EAC\Frank Zappa - Frank Zappa For President (2016) [FLAC] {ZR 20021}\02 - Brown Shoes Don't Make It (Remix).wav

Peak level 97.7 %
Extraction speed 1.7 X
Track quality 100.0 %
Test CRC 71817795
Copy CRC 71817795
Cannot be verified as accurate (confidence 4) [10C760B4], AccurateRip returned [5B17B214] (AR v2)
Copy OK

Track 3

Filename D:\_EAC\Frank Zappa - Frank Zappa For President (2016) [FLAC] {ZR 20021}\03 - Amnerika (Vocal Version).wav

Peak level 97.7 %
Extraction speed 1.7 X
Track quality 100.0 %
Test CRC 04D7872E
Copy CRC 04D7872E
Cannot be verified as accurate (confidence 4) [23D421D6], AccurateRip returned [7D73A0C9] (AR v2)
Copy OK

Track 4

Filename D:\_EAC\Frank Zappa - Frank Zappa For President (2016) [FLAC] {ZR 20021}\04 - ''If I Was President''.wav

Peak level 93.3 %
Extraction speed 1.8 X
Track quality 100.0 %
Test CRC 2CC69348
Copy CRC 2CC69348
Cannot be verified as accurate (confidence 4) [E8F5F471], AccurateRip returned [38CC3805] (AR v2)
Copy OK

Track 5

Filename D:\_EAC\Frank Zappa - Frank Zappa For President (2016) [FLAC] {ZR 20021}\05 - When The Lie's So Big.wav

Peak level 80.5 %
Extraction speed 1.9 X
Track quality 100.0 %
Test CRC 50780209
Copy CRC 50780209
Cannot be verified as accurate (confidence 4) [2983598B], AccurateRip returned [B4705010] (AR v2)
Copy OK

Track 6

Filename D:\_EAC\Frank Zappa - Frank Zappa For President (2016) [FLAC] {ZR 20021}\06 - Medieval Ensemble.wav

Peak level 96.6 %
Extraction speed 2.1 X
Track quality 100.0 %
Test CRC 963D318B
Copy CRC 963D318B
Cannot be verified as accurate (confidence 4) [61563E61], AccurateRip returned [0DC62F08] (AR v2)
Copy OK

Track 7

Filename D:\_EAC\Frank Zappa - Frank Zappa For President (2016) [FLAC] {ZR 20021}\07 - America The Beautiful.wav

Peak level 80.4 %
Extraction speed 1.8 X
Track quality 99.9 %
Test CRC 445F76C4
Copy CRC 445F76C4
Cannot be verified as accurate (confidence 4) [88557897], AccurateRip returned [CEA0A2C0] (AR v2)
Copy OK


No tracks could be verified as accurate
You may have a different pressing from the one(s) in the database

No errors occurred

End of status report

==== Log checksum AAD69809B31E97F27C9D6601DE0E8D800F4DE7BBCFAFA9143B52C2284F34497D ====


Frank Zappa - Frank Zappa For President (2016) {Zappa Records ZR 20021}

Frank Zappa - Frank Zappa For President (2016) {Zappa Records ZR 20021}


More Frank Zappa…

More Frank Zappa on the way…