Subcategories

Frank Zappa - Road Tapes, Venue #3 (2016) {2CD Vaulternative Records VR 2016-1 rec 1970}

Posted By: ruskaval
Frank Zappa - Road Tapes, Venue #3 (2016) {2CD Vaulternative Records VR 2016-1 rec 1970}

Frank Zappa - Road Tapes, Venue #3 (2016) {2CD Vaulternative Records VR 2016-1 rec 1970}
EAC rip (secure mode) | FLAC (tracks)+CUE+LOG -> 961 Mb | MP3 @320 -> 345 Mb
Full Artwork @ 600 dpi (png) -> 264 Mb | 5% repair rar
© 1970, 2016 Vaulternative Records / ZFT | VR 2016-1
Rock / Experimental Rock / Avant-Garde / Art Rock / Jazz Rock

Official Release #103. Performed/Arranged/Conducted by Frank Zappa. Road Tapes, Venue #3 features two complete shows from Tyrone Guthrie Theater in Minneapolis, MN. The July '70 Mothers line-up featured Flo & Eddie, George Duke, Ian Underwood, Aynsley Dunbar & Jeff Simmons. FZ's vast Vault does not contain many full shows from this time period, so that alone makes this release a special one. The tapes were recorded to stereo reel-to-reel, but not without problems. Due to their historical relevance, we felt it was worth it, warts 'n all! Venue #3 does not disappoint.
Frank Zappa - Road Tapes, Venue #3 (2016) {2CD Vaulternative Records VR 2016-1 rec 1970}

This concert, drawn from two shows, essentially is the new Mothers of Invention personnel, which after May, 1970, Zappa hired Dunbar as drummer, and was introduced to Mark Volman and Howard Kaylan in Hollywood. Zappa then hired keyboardist George Duke and with Ian Underwood set out to perform older Zappa material, along with new compositions found on "Chunga's Revenge" album. This show, which the Mothers had recently arrived back to the U.S. from their European tour, and the massive Bath Festival in England, is an early example of these wonderful musicians working together with Frank, showing off their skills, and leaving audiences in stitches (thanks to bassist Jeff Simmons). These 1970 shows are very hard to find on "bootleg" recordings, the most reticent is Columbus, Ohio, Nov. 1970 being the best example of the chemistry forming between the band members. Another show, that is widely available on bootleg is the Fillmore East NYC concerts which is soundboard. This particular live show is a must for Zappa fans of the early 70's. An excellent addition to the sparse catalog of 1970 shows featuring this lineup.
Frank Zappa - Road Tapes, Venue #3 (2016) {2CD Vaulternative Records VR 2016-1 rec 1970}


More INFO

Personnel:
Frank Zappa - Guitar, Vocals
Mark Volman - Vocal, Tambourine
Howard Kaylan - Vocal
Ian Underwood - Electric Piano, Organ, Alto Sax
George Duke - Electric Piano, Organ, Vocal Drum Imitations
Jeff Simmons - Bass, Vocal
Aynsley Dunbar - Drums

Tyrone Guthrie Theater, Minneapolis, MN
5 July 1970


tracklist:
CD 1
Show 1

1. Tyrone Start The Tape
2. King Kong
3. Wonderful Wino (Zappa/Simmons)
4. Concentration Moon
5. Mom & Dad
6. The Air
7. Dog Breath
8. Mother People
9. You Didn’t Try To Call Me
10. Agon – Interlude (Stravinsky)
11. Call Any Vegetable
12. King Kong / Igor’s Boogie
13. It Can’t Happen Here
14. Sharleena

Show 2
15. The 23rd “Mondellos”
16. Justine (Harris/Terry)

Frank Zappa - Road Tapes, Venue #3 (2016) {2CD Vaulternative Records VR 2016-1 rec 1970}


CD2
Show 2, continued

1. Pound For A Brown
2. Sleeping In A Jar
3. Sharleena
4. “A Piece Of Contemporary Music”
5. The Return Of The Hunchback Duke (incl.: Little House I Used To Live In, Holiday In Berlin)
6. Cruising For Burgers
7. Let’s Make The Water Turn Black
8. Harry, You’re A Beast
9. Oh No/Orange County Lumber Truck
10. Call Any Vegetable
11. Mondello’s Revenge
12. The Clap (Chunga’s Revenge)

Frank Zappa - Road Tapes, Venue #3 (2016) {2CD Vaulternative Records VR 2016-1 rec 1970}


Exact Audio Copy V1.3 from 2. September 2016

EAC extraction logfile from 4. July 2017, 22:23

Frank Zappa / Road Tapes, Venue #3 (CD1)

Used drive : TSSTcorpCDDVDW SE-208DB Adapter: 1 ID: 1

Read mode : Secure
Utilize accurate stream : Yes
Defeat audio cache : Yes
Make use of C2 pointers : No

Read offset correction : 6
Overread into Lead-In and Lead-Out : No
Fill up missing offset samples with silence : Yes
Delete leading and trailing silent blocks : No
Null samples used in CRC calculations : Yes
Used interface : Native Win32 interface for Win NT & 2000
Gap handling : Appended to previous track

Used output format : User Defined Encoder
Selected bitrate : 1024 kBit/s
Quality : High
Add ID3 tag : No
Command line compressor : C:\Program Files (x86)\FLAC Frontend\tools\flac.exe
Additional command line options : -8 -V -T "ARTIST=%artist%" -T "TITLE=%title%" -T "ALBUM=%albumtitle%" -T "DATE=%year%" -T "TRACKNUMBER=%tracknr%" -T "TOTALTRACKS=%numtracks%" -T "GENRE=%genre%" -T "ALBUMARTIST=%albumartist%" -T "ALBUM ARTIST=%albumartist%" -T "COMMENT=EAC Secure Mode, Test & Copy, AccurateRip, FLAC -8" %source%


TOC of the extracted CD

Track | Start | Length | Start sector | End sector
––––––––––––––––––––––––––––-
1 | 0:00.00 | 1:59.30 | 0 | 8954
2 | 1:59.30 | 3:27.16 | 8955 | 24495
3 | 5:26.46 | 4:47.62 | 24496 | 46082
4 | 10:14.33 | 2:34.12 | 46083 | 57644
5 | 12:48.45 | 3:25.66 | 57645 | 73085
6 | 16:14.36 | 3:46.46 | 73086 | 90081
7 | 20:01.07 | 2:01.15 | 90082 | 99171
8 | 22:02.22 | 2:06.46 | 99172 | 108667
9 | 24:08.68 | 4:10.49 | 108668 | 127466
10 | 28:19.42 | 0:36.22 | 127467 | 130188
11 | 28:55.64 | 7:59.68 | 130189 | 166181
12 | 36:55.57 | 20:25.74 | 166182 | 258130
13 | 57:21.56 | 3:05.48 | 258131 | 272053
14 | 60:27.29 | 4:59.16 | 272054 | 294494
15 | 65:26.45 | 3:13.23 | 294495 | 308992
16 | 68:39.68 | 1:46.64 | 308993 | 317006


Track 1

Filename E:\EAC_RIP\Frank Zappa - Road Tapes, Venue #3 (2016) [FLAC] {2CD Vaulternative Records VR 2016-1}\CD1\01 - Tyrone Start The Tape….wav

Pre-gap length 0:00:02.00

Peak level 90.6 %
Extraction speed 0.9 X
Track quality 100.0 %
Test CRC ABCF0B89
Copy CRC ABCF0B89
Accurately ripped (confidence 7) [8C7FF58C] (AR v2)
Copy OK

Track 2

Filename E:\EAC_RIP\Frank Zappa - Road Tapes, Venue #3 (2016) [FLAC] {2CD Vaulternative Records VR 2016-1}\CD1\02 - King Kong.wav

Peak level 93.5 %
Extraction speed 1.1 X
Track quality 100.0 %
Test CRC 1D90E918
Copy CRC 1D90E918
Accurately ripped (confidence 7) [115095D6] (AR v2)
Copy OK

Track 3

Filename E:\EAC_RIP\Frank Zappa - Road Tapes, Venue #3 (2016) [FLAC] {2CD Vaulternative Records VR 2016-1}\CD1\03 - Wonderful Wino.wav

Peak level 93.2 %
Extraction speed 1.1 X
Track quality 99.9 %
Test CRC 1BDD8507
Copy CRC 1BDD8507
Accurately ripped (confidence 7) [17F09547] (AR v2)
Copy OK

Track 4

Filename E:\EAC_RIP\Frank Zappa - Road Tapes, Venue #3 (2016) [FLAC] {2CD Vaulternative Records VR 2016-1}\CD1\04 - Concentration Moon.wav

Peak level 92.5 %
Extraction speed 1.2 X
Track quality 100.0 %
Test CRC D2BEE0A5
Copy CRC D2BEE0A5
Accurately ripped (confidence 7) [7EB8DBBD] (AR v2)
Copy OK

Track 5

Filename E:\EAC_RIP\Frank Zappa - Road Tapes, Venue #3 (2016) [FLAC] {2CD Vaulternative Records VR 2016-1}\CD1\05 - Mom & Dad.wav

Peak level 93.0 %
Extraction speed 1.3 X
Track quality 100.0 %
Test CRC 6FA862B8
Copy CRC 6FA862B8
Accurately ripped (confidence 7) [A9614B2C] (AR v2)
Copy OK

Track 6

Filename E:\EAC_RIP\Frank Zappa - Road Tapes, Venue #3 (2016) [FLAC] {2CD Vaulternative Records VR 2016-1}\CD1\06 - The Air.wav

Peak level 92.7 %
Extraction speed 1.3 X
Track quality 100.0 %
Test CRC B7FB1832
Copy CRC B7FB1832
Accurately ripped (confidence 7) [D14E980D] (AR v2)
Copy OK

Track 7

Filename E:\EAC_RIP\Frank Zappa - Road Tapes, Venue #3 (2016) [FLAC] {2CD Vaulternative Records VR 2016-1}\CD1\07 - Dog Breath.wav

Peak level 93.5 %
Extraction speed 1.2 X
Track quality 100.0 %
Test CRC 055DE9C6
Copy CRC 055DE9C6
Accurately ripped (confidence 7) [78ED6D50] (AR v2)
Copy OK

Track 8

Filename E:\EAC_RIP\Frank Zappa - Road Tapes, Venue #3 (2016) [FLAC] {2CD Vaulternative Records VR 2016-1}\CD1\08 - Mother People.wav

Peak level 92.5 %
Extraction speed 1.3 X
Track quality 100.0 %
Test CRC D02E3D6B
Copy CRC D02E3D6B
Accurately ripped (confidence 7) [B345B225] (AR v2)
Copy OK

Track 9

Filename E:\EAC_RIP\Frank Zappa - Road Tapes, Venue #3 (2016) [FLAC] {2CD Vaulternative Records VR 2016-1}\CD1\09 - You Didn't Try To Call Me.wav

Peak level 93.6 %
Extraction speed 1.3 X
Track quality 99.9 %
Test CRC E71B4AE9
Copy CRC E71B4AE9
Accurately ripped (confidence 7) [D4017828] (AR v2)
Copy OK

Track 10

Filename E:\EAC_RIP\Frank Zappa - Road Tapes, Venue #3 (2016) [FLAC] {2CD Vaulternative Records VR 2016-1}\CD1\10 - Agon - Interlude.wav

Peak level 100.0 %
Extraction speed 0.8 X
Track quality 100.0 %
Test CRC 3E348AFC
Copy CRC 3E348AFC
Accurately ripped (confidence 7) [539B7414] (AR v2)
Copy OK

Track 11

Filename E:\EAC_RIP\Frank Zappa - Road Tapes, Venue #3 (2016) [FLAC] {2CD Vaulternative Records VR 2016-1}\CD1\11 - Call Any Vegetable.wav

Peak level 93.1 %
Extraction speed 1.7 X
Track quality 100.0 %
Test CRC 00C9AE69
Copy CRC 00C9AE69
Accurately ripped (confidence 7) [D586F090] (AR v2)
Copy OK

Track 12

Filename E:\EAC_RIP\Frank Zappa - Road Tapes, Venue #3 (2016) [FLAC] {2CD Vaulternative Records VR 2016-1}\CD1\12 - King Kong - Igor's Boogie.wav

Peak level 93.8 %
Extraction speed 2.0 X
Track quality 100.0 %
Test CRC 03350A55
Copy CRC 03350A55
Accurately ripped (confidence 7) [5216FBD5] (AR v2)
Copy OK

Track 13

Filename E:\EAC_RIP\Frank Zappa - Road Tapes, Venue #3 (2016) [FLAC] {2CD Vaulternative Records VR 2016-1}\CD1\13 - It Can't Happen Here.wav

Peak level 92.3 %
Extraction speed 1.8 X
Track quality 100.0 %
Test CRC 61D7DE9A
Copy CRC 61D7DE9A
Accurately ripped (confidence 7) [CC7A5818] (AR v2)
Copy OK

Track 14

Filename E:\EAC_RIP\Frank Zappa - Road Tapes, Venue #3 (2016) [FLAC] {2CD Vaulternative Records VR 2016-1}\CD1\14 - Sharleena.wav

Peak level 93.5 %
Extraction speed 2.0 X
Track quality 100.0 %
Test CRC 452735F6
Copy CRC 452735F6
Accurately ripped (confidence 7) [4506A038] (AR v2)
Copy OK

Track 15

Filename E:\EAC_RIP\Frank Zappa - Road Tapes, Venue #3 (2016) [FLAC] {2CD Vaulternative Records VR 2016-1}\CD1\15 - The 23rd ''Mondellos''.wav

Peak level 92.3 %
Extraction speed 1.9 X
Track quality 100.0 %
Test CRC DA624B2C
Copy CRC DA624B2C
Accurately ripped (confidence 7) [DA1A052A] (AR v2)
Copy OK

Track 16

Filename E:\EAC_RIP\Frank Zappa - Road Tapes, Venue #3 (2016) [FLAC] {2CD Vaulternative Records VR 2016-1}\CD1\16 - Justine.wav

Peak level 93.5 %
Extraction speed 1.6 X
Track quality 100.0 %
Test CRC FAEE54E7
Copy CRC FAEE54E7
Accurately ripped (confidence 7) [D963DDFD] (AR v2)
Copy OK


All tracks accurately ripped

No errors occurred

End of status report

–– CUETools DB Plugin V2.1.6

[CTDB TOCID: bS2UYfmRz.7QrtDSMWy_Hvzt8yw-] found
Submit result: bS2UYfmRz.7QrtDSMWy_Hvzt8yw- has been confirmed
Track | CTDB Status
1 | (62/62) Accurately ripped
2 | (62/62) Accurately ripped
3 | (62/62) Accurately ripped
4 | (62/62) Accurately ripped
5 | (62/62) Accurately ripped
6 | (62/62) Accurately ripped
7 | (62/62) Accurately ripped
8 | (62/62) Accurately ripped
9 | (62/62) Accurately ripped
10 | (62/62) Accurately ripped
11 | (62/62) Accurately ripped
12 | (61/62) Accurately ripped
13 | (60/62) Accurately ripped
14 | (55/62) Accurately ripped, or (2/62) differs in 3 samples @04:46:07
15 | (62/62) Accurately ripped
16 | (62/62) Accurately ripped


==== Log checksum BA85A9B9E012575F8D3D6610465B0534CCF936337F9F5D2482C7BFB463A2F527 ====
Exact Audio Copy V1.3 from 2. September 2016

EAC extraction logfile from 4. July 2017, 23:59

Frank Zappa / Road Tapes, Venue #3 (CD2)

Used drive : TSSTcorpCDDVDW SE-208DB Adapter: 1 ID: 1

Read mode : Secure
Utilize accurate stream : Yes
Defeat audio cache : Yes
Make use of C2 pointers : No

Read offset correction : 6
Overread into Lead-In and Lead-Out : No
Fill up missing offset samples with silence : Yes
Delete leading and trailing silent blocks : No
Null samples used in CRC calculations : Yes
Used interface : Native Win32 interface for Win NT & 2000
Gap handling : Appended to previous track

Used output format : User Defined Encoder
Selected bitrate : 1024 kBit/s
Quality : High
Add ID3 tag : No
Command line compressor : C:\Program Files (x86)\FLAC Frontend\tools\flac.exe
Additional command line options : -8 -V -T "ARTIST=%artist%" -T "TITLE=%title%" -T "ALBUM=%albumtitle%" -T "DATE=%year%" -T "TRACKNUMBER=%tracknr%" -T "TOTALTRACKS=%numtracks%" -T "GENRE=%genre%" -T "ALBUMARTIST=%albumartist%" -T "ALBUM ARTIST=%albumartist%" -T "COMMENT=EAC Secure Mode, Test & Copy, AccurateRip, FLAC -8" %source%


TOC of the extracted CD

Track | Start | Length | Start sector | End sector
––––––––––––––––––––––––––––-
1 | 0:00.00 | 5:07.72 | 0 | 23096
2 | 5:07.72 | 3:37.70 | 23097 | 39441
3 | 8:45.67 | 5:49.27 | 39442 | 65643
4 | 14:35.19 | 7:03.59 | 65644 | 97427
5 | 21:39.03 | 10:00.08 | 97428 | 142435
6 | 31:39.11 | 3:44.47 | 142436 | 159282
7 | 35:23.58 | 1:42.20 | 159283 | 166952
8 | 37:06.03 | 1:29.16 | 166953 | 173643
9 | 38:35.19 | 11:01.63 | 173644 | 223281
10 | 49:37.07 | 11:29.12 | 223282 | 274968
11 | 61:06.19 | 1:46.59 | 274969 | 282977
12 | 62:53.03 | 13:01.22 | 282978 | 341574


Track 1

Filename E:\EAC_RIP\Frank Zappa - Road Tapes, Venue #3 (2016) [FLAC] {2CD Vaulternative Records VR 2016-1}\CD2\01 - Pound For A Brown.wav

Pre-gap length 0:00:02.00

Peak level 92.5 %
Extraction speed 1.1 X
Track quality 100.0 %
Test CRC A07A2119
Copy CRC A07A2119
Accurately ripped (confidence 7) [DBF2AA61] (AR v2)
Copy OK

Track 2

Filename E:\EAC_RIP\Frank Zappa - Road Tapes, Venue #3 (2016) [FLAC] {2CD Vaulternative Records VR 2016-1}\CD2\02 - Sleeping In A Jar.wav

Peak level 92.5 %
Extraction speed 1.2 X
Track quality 100.0 %
Test CRC 7DC03FC0
Copy CRC 7DC03FC0
Accurately ripped (confidence 7) [5BDEE930] (AR v2)
Copy OK

Track 3

Filename E:\EAC_RIP\Frank Zappa - Road Tapes, Venue #3 (2016) [FLAC] {2CD Vaulternative Records VR 2016-1}\CD2\03 - Sharleena.wav

Peak level 92.7 %
Extraction speed 1.3 X
Track quality 100.0 %
Test CRC 4E7F02C1
Copy CRC 4E7F02C1
Accurately ripped (confidence 6) [3106523C] (AR v2)
Copy OK

Track 4

Filename E:\EAC_RIP\Frank Zappa - Road Tapes, Venue #3 (2016) [FLAC] {2CD Vaulternative Records VR 2016-1}\CD2\04 - ''A Piece Of Contemporary Music''.wav

Peak level 92.1 %
Extraction speed 1.5 X
Track quality 100.0 %
Test CRC 83AB0B4B
Copy CRC 83AB0B4B
Accurately ripped (confidence 7) [E72CCD48] (AR v2)
Copy OK

Track 5

Filename E:\EAC_RIP\Frank Zappa - Road Tapes, Venue #3 (2016) [FLAC] {2CD Vaulternative Records VR 2016-1}\CD2\05 - The Return Of The Hunchback Duke.wav

Peak level 92.3 %
Extraction speed 1.7 X
Track quality 100.0 %
Test CRC A85E1655
Copy CRC A85E1655
Accurately ripped (confidence 7) [514F8D6A] (AR v2)
Copy OK

Track 6

Filename E:\EAC_RIP\Frank Zappa - Road Tapes, Venue #3 (2016) [FLAC] {2CD Vaulternative Records VR 2016-1}\CD2\06 - Cruising For Burgers.wav

Peak level 92.4 %
Extraction speed 1.6 X
Track quality 100.0 %
Test CRC 80F86C97
Copy CRC 80F86C97
Accurately ripped (confidence 7) [9727534E] (AR v2)
Copy OK

Track 7

Filename E:\EAC_RIP\Frank Zappa - Road Tapes, Venue #3 (2016) [FLAC] {2CD Vaulternative Records VR 2016-1}\CD2\07 - Let's Make The Water Turn Black.wav

Peak level 92.1 %
Extraction speed 1.0 X
Track quality 99.8 %
Test CRC 5839DDCB
Copy CRC 5839DDCB
Accurately ripped (confidence 7) [E89135D7] (AR v2)
Copy OK

Track 8

Filename E:\EAC_RIP\Frank Zappa - Road Tapes, Venue #3 (2016) [FLAC] {2CD Vaulternative Records VR 2016-1}\CD2\08 - Harry, You're A Beast.wav

Peak level 92.5 %
Extraction speed 1.3 X
Track quality 100.0 %
Test CRC ACFE30E9
Copy CRC ACFE30E9
Accurately ripped (confidence 7) [FF6797DF] (AR v2)
Copy OK

Track 9

Filename E:\EAC_RIP\Frank Zappa - Road Tapes, Venue #3 (2016) [FLAC] {2CD Vaulternative Records VR 2016-1}\CD2\09 - Oh No-The Orange County Lumber Truck.wav

Peak level 92.9 %
Extraction speed 1.9 X
Track quality 100.0 %
Test CRC C713BE1F
Copy CRC C713BE1F
Accurately ripped (confidence 7) [617DA944] (AR v2)
Copy OK

Track 10

Filename E:\EAC_RIP\Frank Zappa - Road Tapes, Venue #3 (2016) [FLAC] {2CD Vaulternative Records VR 2016-1}\CD2\10 - Call Any Vegetable.wav

Peak level 92.9 %
Extraction speed 2.0 X
Track quality 100.0 %
Test CRC A8DF77A5
Copy CRC A8DF77A5
Accurately ripped (confidence 7) [72290D8A] (AR v2)
Copy OK

Track 11

Filename E:\EAC_RIP\Frank Zappa - Road Tapes, Venue #3 (2016) [FLAC] {2CD Vaulternative Records VR 2016-1}\CD2\11 - Mondello's Revenge.wav

Peak level 73.5 %
Extraction speed 1.5 X
Track quality 100.0 %
Test CRC 3F2982AB
Copy CRC 3F2982AB
Accurately ripped (confidence 7) [044393A7] (AR v2)
Copy OK

Track 12

Filename E:\EAC_RIP\Frank Zappa - Road Tapes, Venue #3 (2016) [FLAC] {2CD Vaulternative Records VR 2016-1}\CD2\12 - The Clap (Chunga's Revenge).wav

Peak level 93.4 %
Extraction speed 2.2 X
Track quality 100.0 %
Test CRC 3593A439
Copy CRC 3593A439
Accurately ripped (confidence 7) [1EC662B7] (AR v2)
Copy OK


All tracks accurately ripped

No errors occurred

End of status report

–– CUETools DB Plugin V2.1.6

[CTDB TOCID: JUHmSfhh3IR8AOnpD6Ys7PN_b3Q-] found
Submit result: JUHmSfhh3IR8AOnpD6Ys7PN_b3Q- has been confirmed
Track | CTDB Status
1 | (61/61) Accurately ripped
2 | (61/61) Accurately ripped
3 | (61/61) Accurately ripped
4 | (61/61) Accurately ripped
5 | (61/61) Accurately ripped
6 | (61/61) Accurately ripped
7 | (61/61) Accurately ripped
8 | (61/61) Accurately ripped
9 | (61/61) Accurately ripped
10 | (61/61) Accurately ripped
11 | (61/61) Accurately ripped
12 | (60/61) Accurately ripped


==== Log checksum B22CCA09D4F056B2D58C2691F729152E4EBEC25C959E9A65158FEA1A02E3E8B8 ====


Frank Zappa - Road Tapes, Venue #3 (2016) {2CD Vaulternative Records VR 2016-1 rec 1970}


More Frank Zappa…


===