Free - The Complete Mini LP Set (1968 -1973) [7CD] {2002 Island Remasters Japan Mini LP} [UICY-9130~9203] [REPOST]

Posted By: ruskaval
Free - The Complete Mini LP Set (1968 -1973) [7CD] {2002 Island Remasters Japan Mini LP} [UICY-9130~9203] [REPOST]

Free - The Complete Mini LP Set (1968 -1973) [7CD] {2002 Island Remasters Japan Mini LP} [UICY-9130~9203]
EAC rip (secure mode) | FLAC+CUE+LOG -> 3.1 Gb | MP3 @320 -> 1.17 Gb
Full Artwork @ 400 dpi (jpg) -> 138 Mb
© 2002 Island / Universal Japan | UICY-9130~32 / UICY-9200~03
Rock / Blues Rock / Hard Rock

Famed for their perennial "All Right Now," Free helped lay the foundations for the rise of hard rock, stripping the earthy sound of British blues down to its raw, minimalist core to pioneer a brand of proto-metal later popularized by 1970's superstars like Foreigner, Foghat and Bad Company. Free formed in London in 1968 when guitarist Paul Kossoff, then a member of the blues unit Black Cat Bones, was taken to see vocalist Paul Rodgers' group Brown Sugar by a friend, drummer Tom Mautner. After deciding to form their own band, Kossoff and Rodgers recruited drummer Simon Kirke (since Mautner was at university) and 16-year-old bass phenom Andy Fraser from the ranks of John Mayall's Bluesbreakers; with the aid of Alexis Korner, who also suggested the name Free, the fledgling band signed to the Island label, issuing their bluesy debut Tons of Sobs in 1968.

Free's eponymous 1969 follow-up expanded on their roots-based sound, incorporating rockers like Albert King's "The Hunter" as well as muscular ballads like "Lying in the Sunshine" into the mix. Although both of the first two albums fared poorly on the charts, 1970's Fire and Water became a tremendous hit on the strength of the primal "All Right Now," a Top Five smash powered by Rodgers' gritty, visceral vocals. After headlining 1970's Isle of Wight festival, the group appeared destined for superstardom, but the LP Highway did not fare nearly as well as anticipated, and after a grueling tour which yielded 1971's Free Live, the band dissolved amidst ego clashes and recriminations.

While Rodgers went on to form Peace and Fraser founded Toby, Kossoff and Kirke teamed with bassist Tetsu Yamauchi and keyboardist John "Rabbit" Bundrick to record the album Kossoff, Kirke, Tetsu and Rabbit. When none of these new projects proved successful, the original lineup of Free re-formed to record 1972's Free at Last, which launched the hit "Little Bit of Love." However, drug problems nagged the group, as Kossoff's longtime battle with heroin continued to worsen; soon Fraser exited to form Sharks with Chris Spedding, leaving Rodgers and Kirke to record the majority of 1973's Heartbreaker while a drug-addled Kossoff watched from the sidelines. Soon, the group disbanded again, this time for good: while Rodgers and Kirke went on to found Bad Company, Kossoff formed Back Street Crawler before dying of a drug-induced heart attack on March 19, 1976.

Free - The Complete Mini LP Set (1968 -1973) [7CD] {2002 Island Remasters Japan Mini LP} [UICY-9130~9203] [REPOST]

Free - Tons of Sobs (1968) (Japan UICY-9130)


Although Free was never destined to scrape the same skies as Led Zeppelin, when they first burst out of the traps in 1968, close to a year ahead of Jimmy Page and company, they set the world of British blues-rock firmly on its head, a blistering combination of youth, ambition, and, despite those tender years, experience that, across the course of their debut album, did indeed lay the groundwork for all that Zeppelin would embrace. That Free and Zeppelin were cut from the same cloth is immediately apparent, even before you start comparing the versions of "The Hunter" that highlight both bands' debut albums. Where Free streaks ahead, however, is in their refusal to compromise their own vision of the blues – even at its most commercial ("I'm a Mover" and "Worry"), Tons of Sobs has a density that makes Zeppelin and the rest of the era's rocky contemporaries sound like flyweights by comparison. The 2002 remaster of the album only amplifies the fledgling Free's achievements. With remastered sound that drives the record straight back to the studio master tapes, the sheer versatility of the players, and the unbridled imagination of producer Guy Stevens, rings crystal clear. Even without their visionary seer, however, Free impresses – three bonus tracks drawn from period BBC sessions are as loose as they are dynamic, and certainly make a case for a full Free-at-the-Beeb type collection. Of the other bonuses, two offer alternate versions of familiar album tracks, while "Guy Stevens Jam" is reprised from the Songs of Yesterday box set to further illustrate the band's improvisational abilities. As if they needed it.
tracklist:
01. Over The Green Hills
02. Worry
03. Walk In My Shadow
04. Wild Indian Woman
05. Goin' Down Slow
06. I'm A Mover
07. The Hunter
08. Moonshine
09. Sweet Tooth
10. Over The Green Hills
11. I'm A Mover (BBC session) - bonus track
12. Waitin' On You (BBC session) - bonus track
13. Guy Stevens Blues (album session outtake) - bonus track
14. Moonshine (alternate vocal) - bonus track
15. Sweet Tooth (early take) - bonus track
16. Visions Of Hell (album session outtake) - bonus track
17. Woman By The Sea (album session outtake) - bonus track
18. Over The Green Hills (BBC session) - bonus track

Free - The Complete Mini LP Set (1968 -1973) [7CD] {2002 Island Remasters Japan Mini LP} [UICY-9130~9203] [REPOST]

Free - The Complete Mini LP Set (1968 -1973) [7CD] {2002 Island Remasters Japan Mini LP} [UICY-9130~9203] [REPOST]

Exact Audio Copy V0.99 prebeta 4 from 23. January 2008

EAC extraction logfile from 20. January 2009, 22:59

Free / Tons of Sobs

Used drive : HL-DT-STDVD-ROM GDR8163B Adapter: 1 ID: 1

Read mode : Secure
Utilize accurate stream : Yes
Defeat audio cache : Yes
Make use of C2 pointers : No

Read offset correction : 102
Overread into Lead-In and Lead-Out : No
Fill up missing offset samples with silence : Yes
Delete leading and trailing silent blocks : No
Null samples used in CRC calculations : Yes
Used interface : Native Win32 interface for Win NT & 2000
Gap handling : Appended to previous track

Used output format : User Defined Encoder
Selected bitrate : 128 kBit/s
Quality : High
Add ID3 tag : No
Command line compressor : D:\Programme\Exact Audio Copy\FLAC\FLAC.EXE
Additional command line options : -f -o %d -V -8 -T "artist=%a" -T "title=%t" -T "album=%g" -T "date=%y" -T "tracknumber=%n" -T "genre=%m" %s


TOC of the extracted CD

Track | Start | Length | Start sector | End sector
––––––––––––––––––––––––––––-
1 | 0:00.00 | 0:50.50 | 0 | 3799
2 | 0:50.50 | 3:27.60 | 3800 | 19384
3 | 4:18.35 | 3:30.45 | 19385 | 35179
4 | 7:49.05 | 3:40.30 | 35180 | 51709
5 | 11:29.35 | 8:22.50 | 51710 | 89409
6 | 19:52.10 | 2:56.50 | 89410 | 102659
7 | 22:48.60 | 4:14.30 | 102660 | 121739
8 | 27:03.15 | 5:05.05 | 121740 | 144619
9 | 32:08.20 | 4:54.25 | 144620 | 166694
10 | 37:02.45 | 2:07.70 | 166695 | 176289
11 | 39:10.40 | 3:05.45 | 176290 | 190209
12 | 42:16.10 | 2:17.70 | 190210 | 200554
13 | 44:34.05 | 4:43.50 | 200555 | 221829
14 | 49:17.55 | 5:11.55 | 221830 | 245209
15 | 54:29.35 | 4:56.25 | 245210 | 267434
16 | 59:25.60 | 3:49.60 | 267435 | 284669
17 | 63:15.45 | 3:22.55 | 284670 | 299874
18 | 66:38.25 | 3:52.30 | 299875 | 317304


Track 1

Filename E:\Own Rips\Free - Disk Union Promo Box (2002) [FLAC]\Free - Tons of Sobs (1968) [FLAC] (Japan UICY-9130)\01 - Over the Green Hills (part 1).wav

Pre-gap length 0:00:02.00

Peak level 71.8 %
Track quality 100.0 %
Test CRC 94A69982
Copy CRC 94A69982
Track not present in AccurateRip database
Copy OK

Track 2

Filename E:\Own Rips\Free - Disk Union Promo Box (2002) [FLAC]\Free - Tons of Sobs (1968) [FLAC] (Japan UICY-9130)\02 - Worry.wav

Peak level 92.9 %
Track quality 100.0 %
Test CRC 88665400
Copy CRC 88665400
Track not present in AccurateRip database
Copy OK

Track 3

Filename E:\Own Rips\Free - Disk Union Promo Box (2002) [FLAC]\Free - Tons of Sobs (1968) [FLAC] (Japan UICY-9130)\03 - Walk in My Shadow.wav

Pre-gap length 0:00:00.38

Peak level 97.6 %
Track quality 100.0 %
Test CRC B37B61D8
Copy CRC B37B61D8
Track not present in AccurateRip database
Copy OK

Track 4

Filename E:\Own Rips\Free - Disk Union Promo Box (2002) [FLAC]\Free - Tons of Sobs (1968) [FLAC] (Japan UICY-9130)\04 - Wild Indian Woman.wav

Pre-gap length 0:00:00.05

Peak level 93.8 %
Track quality 100.0 %
Test CRC 7D6AE5DE
Copy CRC 7D6AE5DE
Track not present in AccurateRip database
Copy OK

Track 5

Filename E:\Own Rips\Free - Disk Union Promo Box (2002) [FLAC]\Free - Tons of Sobs (1968) [FLAC] (Japan UICY-9130)\05 - Goin' Down Slow.wav

Pre-gap length 0:00:00.12

Peak level 95.3 %
Track quality 100.0 %
Test CRC 66A7AE54
Copy CRC 66A7AE54
Track not present in AccurateRip database
Copy OK

Track 6

Filename E:\Own Rips\Free - Disk Union Promo Box (2002) [FLAC]\Free - Tons of Sobs (1968) [FLAC] (Japan UICY-9130)\06 - I'm a Mover.wav

Pre-gap length 0:00:01.12

Peak level 92.4 %
Track quality 99.9 %
Test CRC 4DE0329F
Copy CRC 4DE0329F
Track not present in AccurateRip database
Copy OK

Track 7

Filename E:\Own Rips\Free - Disk Union Promo Box (2002) [FLAC]\Free - Tons of Sobs (1968) [FLAC] (Japan UICY-9130)\07 - The Hunter.wav

Peak level 97.3 %
Track quality 100.0 %
Test CRC 6A379728
Copy CRC 6A379728
Track not present in AccurateRip database
Copy OK

Track 8

Filename E:\Own Rips\Free - Disk Union Promo Box (2002) [FLAC]\Free - Tons of Sobs (1968) [FLAC] (Japan UICY-9130)\08 - Moonshine.wav

Pre-gap length 0:00:00.12

Peak level 91.6 %
Track quality 100.0 %
Test CRC ED448694
Copy CRC ED448694
Track not present in AccurateRip database
Copy OK

Track 9

Filename E:\Own Rips\Free - Disk Union Promo Box (2002) [FLAC]\Free - Tons of Sobs (1968) [FLAC] (Japan UICY-9130)\09 - Sweet Tooth.wav

Pre-gap length 0:00:00.05

Peak level 98.4 %
Track quality 100.0 %
Test CRC 86233F8F
Copy CRC 86233F8F
Track not present in AccurateRip database
Copy OK

Track 10

Filename E:\Own Rips\Free - Disk Union Promo Box (2002) [FLAC]\Free - Tons of Sobs (1968) [FLAC] (Japan UICY-9130)\10 - Over the Green Hills (part 2).wav

Peak level 77.7 %
Track quality 100.0 %
Test CRC DECCC91C
Copy CRC DECCC91C
Track not present in AccurateRip database
Copy OK

Track 11

Filename E:\Own Rips\Free - Disk Union Promo Box (2002) [FLAC]\Free - Tons of Sobs (1968) [FLAC] (Japan UICY-9130)\11 - I'm a Mover (BBC session).wav

Pre-gap length 0:00:08.58

Peak level 91.5 %
Track quality 99.9 %
Test CRC 8937FCD8
Copy CRC 8937FCD8
Track not present in AccurateRip database
Copy OK

Track 12

Filename E:\Own Rips\Free - Disk Union Promo Box (2002) [FLAC]\Free - Tons of Sobs (1968) [FLAC] (Japan UICY-9130)\12 - Waitin' on You (BBC session).wav

Pre-gap length 0:00:02.38

Peak level 95.2 %
Track quality 100.0 %
Test CRC 42656501
Copy CRC 42656501
Track not present in AccurateRip database
Copy OK

Track 13

Filename E:\Own Rips\Free - Disk Union Promo Box (2002) [FLAC]\Free - Tons of Sobs (1968) [FLAC] (Japan UICY-9130)\13 - Guy Stevens Blues (blues Jam).wav

Pre-gap length 0:00:01.72

Peak level 89.2 %
Track quality 100.0 %
Test CRC 80BD42E2
Copy CRC 80BD42E2
Track not present in AccurateRip database
Copy OK

Track 14

Filename E:\Own Rips\Free - Disk Union Promo Box (2002) [FLAC]\Free - Tons of Sobs (1968) [FLAC] (Japan UICY-9130)\14 - Moonshine (alternative vocal).wav

Pre-gap length 0:00:03.18

Peak level 99.4 %
Track quality 100.0 %
Test CRC 0EA9F8A3
Copy CRC 0EA9F8A3
Track not present in AccurateRip database
Copy OK

Track 15

Filename E:\Own Rips\Free - Disk Union Promo Box (2002) [FLAC]\Free - Tons of Sobs (1968) [FLAC] (Japan UICY-9130)\15 - Sweet Tooth (early take & alternative lyrics).wav

Pre-gap length 0:00:02.12

Peak level 98.4 %
Track quality 100.0 %
Test CRC F9B41B84
Copy CRC F9B41B84
Track not present in AccurateRip database
Copy OK

Track 16

Filename E:\Own Rips\Free - Disk Union Promo Box (2002) [FLAC]\Free - Tons of Sobs (1968) [FLAC] (Japan UICY-9130)\16 - Vision of Hell (unreleased master mix).wav

Pre-gap length 0:00:02.92

Peak level 98.7 %
Track quality 99.9 %
Test CRC DA331B1D
Copy CRC DA331B1D
Track not present in AccurateRip database
Copy OK

Track 17

Filename E:\Own Rips\Free - Disk Union Promo Box (2002) [FLAC]\Free - Tons of Sobs (1968) [FLAC] (Japan UICY-9130)\17 - Woman by the Sea (alternative version).wav

Pre-gap length 0:00:02.18

Peak level 94.6 %
Track quality 100.0 %
Test CRC 6E744667
Copy CRC 6E744667
Track not present in AccurateRip database
Copy OK

Track 18

Filename E:\Own Rips\Free - Disk Union Promo Box (2002) [FLAC]\Free - Tons of Sobs (1968) [FLAC] (Japan UICY-9130)\18 - Over the Green Hills (BBC session).wav

Pre-gap length 0:00:01.98

Peak level 87.4 %
Track quality 100.0 %
Test CRC 98B32700
Copy CRC 98B32700
Track not present in AccurateRip database
Copy OK


None of the tracks are present in the AccurateRip database

No errors occurred

End of status report



Free - The Complete Mini LP Set (1968 -1973) [7CD] {2002 Island Remasters Japan Mini LP} [UICY-9130~9203] [REPOST]

Free - Free (1969) (Japan UICY-9131)


Free's second album was recorded with the band itself in considerable turmoil as principle songwriters Paul Rodgers and Andy Fraser demanded strict discipline from their bandmates, and guitarist Paul Kossoff, in particular, equally demanded the spontaneity and freedom that had characterized the group's debut. It was an awkward period that saw both Kossoff and drummer Simon Kirke come close to quitting, an eventuality that only the intervention of label chief Chris Blackwell seems to have prevented. Few of these tensions are evident on the finished album – tribute, again, to Blackwell's powers of diplomacy. He replaced original producer Guy Stevens early into the sessions and, having reminded both warring parties where the band's strengths lie, proceeded to coax out an album that stands alongside its predecessor as a benchmark of British blues at the turn of the 1960s.
tracklist:
01. I'll Be Creepin'
02. Songs Of Yesterday
03. Lying In The Sunshine
04. Trouble On Double Time
05. Mouthful Of Grass
06. Woman
07. Free Me
08. Broad Daylight
09. Mourning Sad Morning
10. Broad Daylight (single version) - bonus track
11. The Worm (single B-side) - bonus track
12. I'll Be Creepin' (single version) - bonus track
13. Sugar For Mr Morrison (single B-side) - bonus track
14. Broad Daylight (BBC session 17/03/69) - bonus track
15. Songs Of Yesterday (BBC session 17/03/69) - bonus track
16. Mouthful Of Grass (early version) - bonus track
17. Woman (alternate version) - bonus track
18. Trouble On Double Time (1st version) - bonus track
19. Mourning Sad Morning (alternate version) - bonus track

Free - The Complete Mini LP Set (1968 -1973) [7CD] {2002 Island Remasters Japan Mini LP} [UICY-9130~9203] [REPOST]

Free - The Complete Mini LP Set (1968 -1973) [7CD] {2002 Island Remasters Japan Mini LP} [UICY-9130~9203] [REPOST]

Exact Audio Copy V0.99 prebeta 4 from 23. January 2008

EAC extraction logfile from 22. January 2009, 12:35

Free / Free

Used drive : HL-DT-STDVD-ROM GDR8163B Adapter: 1 ID: 1

Read mode : Secure
Utilize accurate stream : Yes
Defeat audio cache : Yes
Make use of C2 pointers : No

Read offset correction : 102
Overread into Lead-In and Lead-Out : No
Fill up missing offset samples with silence : Yes
Delete leading and trailing silent blocks : No
Null samples used in CRC calculations : Yes
Used interface : Native Win32 interface for Win NT & 2000
Gap handling : Appended to previous track

Used output format : User Defined Encoder
Selected bitrate : 128 kBit/s
Quality : High
Add ID3 tag : No
Command line compressor : D:\Programme\Exact Audio Copy\FLAC\FLAC.EXE
Additional command line options : -f -o %d -V -8 -T "artist=%a" -T "title=%t" -T "album=%g" -T "date=%y" -T "tracknumber=%n" -T "genre=%m" %s


TOC of the extracted CD

Track | Start | Length | Start sector | End sector
––––––––––––––––––––––––––––-
1 | 0:00.00 | 3:31.05 | 0 | 15829
2 | 3:31.05 | 3:37.20 | 15830 | 32124
3 | 7:08.25 | 3:58.70 | 32125 | 50044
4 | 11:07.20 | 3:27.15 | 50045 | 65584
5 | 14:34.35 | 3:39.60 | 65585 | 82069
6 | 18:14.20 | 3:53.00 | 82070 | 99544
7 | 22:07.20 | 5:27.30 | 99545 | 124099
8 | 27:34.50 | 3:19.30 | 124100 | 139054
9 | 30:54.05 | 5:13.05 | 139055 | 162534
10 | 36:07.10 | 3:11.40 | 162535 | 176899
11 | 39:18.50 | 3:06.25 | 176900 | 190874
12 | 42:25.00 | 2:51.10 | 190875 | 203709
13 | 45:16.10 | 3:03.05 | 203710 | 217439
14 | 48:19.15 | 3:22.40 | 217440 | 232629
15 | 51:41.55 | 3:13.55 | 232630 | 247159
16 | 54:55.35 | 3:36.55 | 247160 | 263414
17 | 58:32.15 | 4:03.15 | 263415 | 281654
18 | 62:35.30 | 2:39.40 | 281655 | 293619
19 | 65:14.70 | 5:11.20 | 293620 | 316964


Track 1

Filename E:\Own Rips\Free - Disk Union Promo Box (2002) [FLAC]\Free - Free (1969) [FLAC] (Japan UICY-9131)\01 - I'll Be Creepin'.wav

Pre-gap length 0:00:02.00

Peak level 92.9 %
Track quality 100.0 %
Test CRC 8C4343FC
Copy CRC 8C4343FC
Track not present in AccurateRip database
Copy OK

Track 2

Filename E:\Own Rips\Free - Disk Union Promo Box (2002) [FLAC]\Free - Free (1969) [FLAC] (Japan UICY-9131)\02 - Songs Of Yesterday.wav

Pre-gap length 0:00:02.66

Peak level 89.8 %
Track quality 100.0 %
Test CRC 71420037
Copy CRC 71420037
Track not present in AccurateRip database
Copy OK

Track 3

Filename E:\Own Rips\Free - Disk Union Promo Box (2002) [FLAC]\Free - Free (1969) [FLAC] (Japan UICY-9131)\03 - Lying In The Sunshine.wav

Pre-gap length 0:00:03.20

Peak level 67.7 %
Track quality 100.0 %
Test CRC E7AB2104
Copy CRC E7AB2104
Track not present in AccurateRip database
Copy OK

Track 4

Filename E:\Own Rips\Free - Disk Union Promo Box (2002) [FLAC]\Free - Free (1969) [FLAC] (Japan UICY-9131)\04 - Trouble On Double Time.wav

Pre-gap length 0:00:06.26

Peak level 84.9 %
Track quality 99.9 %
Test CRC 8F9E0760
Copy CRC 8F9E0760
Track not present in AccurateRip database
Copy OK

Track 5

Filename E:\Own Rips\Free - Disk Union Promo Box (2002) [FLAC]\Free - Free (1969) [FLAC] (Japan UICY-9131)\05 - Mouthful Of Grass.wav

Pre-gap length 0:00:03.06

Peak level 59.9 %
Track quality 99.9 %
Test CRC C6A6EDCF
Copy CRC C6A6EDCF
Track not present in AccurateRip database
Copy OK

Track 6

Filename E:\Own Rips\Free - Disk Union Promo Box (2002) [FLAC]\Free - Free (1969) [FLAC] (Japan UICY-9131)\06 - Woman.wav

Pre-gap length 0:00:03.00

Peak level 91.8 %
Track quality 100.0 %
Test CRC 565213F0
Copy CRC 565213F0
Track not present in AccurateRip database
Copy OK

Track 7

Filename E:\Own Rips\Free - Disk Union Promo Box (2002) [FLAC]\Free - Free (1969) [FLAC] (Japan UICY-9131)\07 - Free Me.wav

Pre-gap length 0:00:03.53

Peak level 83.7 %
Track quality 99.9 %
Test CRC 21C11A85
Copy CRC 21C11A85
Track not present in AccurateRip database
Copy OK

Track 8

Filename E:\Own Rips\Free - Disk Union Promo Box (2002) [FLAC]\Free - Free (1969) [FLAC] (Japan UICY-9131)\08 - Broad Daylight.wav

Pre-gap length 0:00:03.06

Peak level 96.8 %
Track quality 100.0 %
Test CRC 6D01A94F
Copy CRC 6D01A94F
Track not present in AccurateRip database
Copy OK

Track 9

Filename E:\Own Rips\Free - Disk Union Promo Box (2002) [FLAC]\Free - Free (1969) [FLAC] (Japan UICY-9131)\09 - Mourning Sad Morning.wav

Pre-gap length 0:00:03.60

Peak level 78.3 %
Track quality 100.0 %
Test CRC 346BA4D3
Copy CRC 346BA4D3
Track not present in AccurateRip database
Copy OK

Track 10

Filename E:\Own Rips\Free - Disk Union Promo Box (2002) [FLAC]\Free - Free (1969) [FLAC] (Japan UICY-9131)\10 - Broad Daylight (Single Version).wav

Pre-gap length 0:00:08.73

Peak level 90.4 %
Track quality 100.0 %
Test CRC 0ACBC110
Copy CRC 0ACBC110
Track not present in AccurateRip database
Copy OK

Track 11

Filename E:\Own Rips\Free - Disk Union Promo Box (2002) [FLAC]\Free - Free (1969) [FLAC] (Japan UICY-9131)\11 - The Worm (Single Version).wav

Pre-gap length 0:00:01.73

Peak level 87.5 %
Track quality 100.0 %
Test CRC E037FA19
Copy CRC E037FA19
Track not present in AccurateRip database
Copy OK

Track 12

Filename E:\Own Rips\Free - Disk Union Promo Box (2002) [FLAC]\Free - Free (1969) [FLAC] (Japan UICY-9131)\12 - I'll Be Creepin' (Single Version).wav

Pre-gap length 0:00:01.80

Peak level 96.4 %
Track quality 100.0 %
Test CRC ABEF987E
Copy CRC ABEF987E
Track not present in AccurateRip database
Copy OK

Track 13

Filename E:\Own Rips\Free - Disk Union Promo Box (2002) [FLAC]\Free - Free (1969) [FLAC] (Japan UICY-9131)\13 - Sugar For Mr Morrison (Single Version).wav

Pre-gap length 0:00:02.60

Peak level 91.1 %
Track quality 100.0 %
Test CRC 664FA6A7
Copy CRC 664FA6A7
Track not present in AccurateRip database
Copy OK

Track 14

Filename E:\Own Rips\Free - Disk Union Promo Box (2002) [FLAC]\Free - Free (1969) [FLAC] (Japan UICY-9131)\14 - Broad Daylight (BBC Session).wav

Pre-gap length 0:00:01.40

Peak level 85.9 %
Track quality 100.0 %
Test CRC 050BFA9F
Copy CRC 050BFA9F
Track not present in AccurateRip database
Copy OK

Track 15

Filename E:\Own Rips\Free - Disk Union Promo Box (2002) [FLAC]\Free - Free (1969) [FLAC] (Japan UICY-9131)\15 - Songs Of Yesterday (BBC Session).wav

Pre-gap length 0:00:00.73

Peak level 87.8 %
Track quality 100.0 %
Test CRC 3CB6ED1C
Copy CRC 3CB6ED1C
Track not present in AccurateRip database
Copy OK

Track 16

Filename E:\Own Rips\Free - Disk Union Promo Box (2002) [FLAC]\Free - Free (1969) [FLAC] (Japan UICY-9131)\16 - Mouthfull Of Grass (Solo Version).wav

Pre-gap length 0:00:02.06

Peak level 62.5 %
Track quality 100.0 %
Test CRC 442DF49C
Copy CRC 442DF49C
Track not present in AccurateRip database
Copy OK

Track 17

Filename E:\Own Rips\Free - Disk Union Promo Box (2002) [FLAC]\Free - Free (1969) [FLAC] (Japan UICY-9131)\17 - Woman (Alternative Version).wav

Pre-gap length 0:00:02.13

Peak level 98.7 %
Track quality 100.0 %
Test CRC 9842B2E2
Copy CRC 9842B2E2
Track not present in AccurateRip database
Copy OK

Track 18

Filename E:\Own Rips\Free - Disk Union Promo Box (2002) [FLAC]\Free - Free (1969) [FLAC] (Japan UICY-9131)\18 - Trouble On Double Time (Early Version).wav

Pre-gap length 0:00:02.06

Peak level 84.3 %
Track quality 100.0 %
Test CRC 4777D188
Copy CRC 4777D188
Track not present in AccurateRip database
Copy OK

Track 19

Filename E:\Own Rips\Free - Disk Union Promo Box (2002) [FLAC]\Free - Free (1969) [FLAC] (Japan UICY-9131)\19 - Mourning Sad Morning (Alternative Version).wav

Pre-gap length 0:00:01.73

Peak level 84.5 %
Track quality 100.0 %
Test CRC A9249436
Copy CRC A9249436
Track not present in AccurateRip database
Copy OK


None of the tracks are present in the AccurateRip database

No errors occurred

End of status report



Free - The Complete Mini LP Set (1968 -1973) [7CD] {2002 Island Remasters Japan Mini LP} [UICY-9130~9203] [REPOST]

Free - Fire And Water (1970) (Japan UICY-9132)


If Fleetwood Mac, Humble Pie, and Foghat were never formed, Free would be considered one of the greatest post-Beatles blues-rock bands to date, and Fire and Water shows why. Conceptually fresh, with a great, roots-oriented, Band-like feel, Free distinguished itself with the public like Black Sabbath and Deep Purple did (in terms of impact, only) in 1970. Free presented itself to the world as a complete band, in every sense of the word. From Paul Kossoff's exquisite and tasteful guitar work, to Paul Rodgers' soulful vocals, this was a group that was easily worthy of the mantle worn by Cream, Blind Faith, or Derek & the Dominos.
tracklist:
01. Fire And Water
02. Oh I Wept
03. Remember
04. Heavy Load
05. Mr Big
06. Don't Say You Love Me
07. All Right Now
08. Oh I Wept (Alternate vocal) - bonus track
09. Fire And Water (New stereo mix) - bonus track
10. Fire And Water (BBC session) - bonus track
11. All Right Now (BBC session) - bonus track
12. All Right Now (single version) - bonus track
13. All Right Now (1st single) - bonus track

Free - The Complete Mini LP Set (1968 -1973) [7CD] {2002 Island Remasters Japan Mini LP} [UICY-9130~9203] [REPOST]

Free - The Complete Mini LP Set (1968 -1973) [7CD] {2002 Island Remasters Japan Mini LP} [UICY-9130~9203] [REPOST]

Exact Audio Copy V0.99 prebeta 4 from 23. January 2008

EAC extraction logfile from 22. January 2009, 13:21

Free / Fire And Water

Used drive : HL-DT-STDVD-ROM GDR8163B Adapter: 1 ID: 1

Read mode : Secure
Utilize accurate stream : Yes
Defeat audio cache : Yes
Make use of C2 pointers : No

Read offset correction : 102
Overread into Lead-In and Lead-Out : No
Fill up missing offset samples with silence : Yes
Delete leading and trailing silent blocks : No
Null samples used in CRC calculations : Yes
Used interface : Native Win32 interface for Win NT & 2000
Gap handling : Appended to previous track

Used output format : User Defined Encoder
Selected bitrate : 128 kBit/s
Quality : High
Add ID3 tag : No
Command line compressor : D:\Programme\Exact Audio Copy\FLAC\FLAC.EXE
Additional command line options : -f -o %d -V -8 -T "artist=%a" -T "title=%t" -T "album=%g" -T "date=%y" -T "tracknumber=%n" -T "genre=%m" %s


TOC of the extracted CD

Track | Start | Length | Start sector | End sector
––––––––––––––––––––––––––––-
1 | 0:00.00 | 4:03.15 | 0 | 18239
2 | 4:03.15 | 4:29.35 | 18240 | 38449
3 | 8:32.50 | 4:29.15 | 38450 | 58639
4 | 13:01.65 | 5:22.70 | 58640 | 82859
5 | 18:24.60 | 5:58.15 | 82860 | 109724
6 | 24:23.00 | 6:07.10 | 109725 | 137259
7 | 30:30.10 | 5:42.15 | 137260 | 162924
8 | 36:12.25 | 4:25.20 | 162925 | 182819
9 | 40:37.45 | 4:26.65 | 182820 | 202834
10 | 45:04.35 | 3:12.00 | 202835 | 217234
11 | 48:16.35 | 5:33.05 | 217235 | 242214
12 | 53:49.40 | 4:18.05 | 242215 | 261569
13 | 58:07.45 | 3:31.35 | 261570 | 277429


Track 1

Filename E:\Own Rips\Free - Disk Union Promo Box (2002) [FLAC]\Free - Fire And Water (1970) [FLAC] (Japan UICY-9132)\01 - Fire And Water.wav

Pre-gap length 0:00:02.00

Peak level 93.5 %
Track quality 100.0 %
Test CRC 9EA702F4
Copy CRC 9EA702F4
Track not present in AccurateRip database
Copy OK

Track 2

Filename E:\Own Rips\Free - Disk Union Promo Box (2002) [FLAC]\Free - Fire And Water (1970) [FLAC] (Japan UICY-9132)\02 - Oh I Wept.wav

Pre-gap length 0:00:04.45

Peak level 99.9 %
Track quality 100.0 %
Test CRC 20D5A904
Copy CRC 20D5A904
Track not present in AccurateRip database
Copy OK

Track 3

Filename E:\Own Rips\Free - Disk Union Promo Box (2002) [FLAC]\Free - Fire And Water (1970) [FLAC] (Japan UICY-9132)\03 - Remember.wav

Pre-gap length 0:00:01.92

Peak level 99.6 %
Track quality 100.0 %
Test CRC 96F096EF
Copy CRC 96F096EF
Track not present in AccurateRip database
Copy OK

Track 4

Filename E:\Own Rips\Free - Disk Union Promo Box (2002) [FLAC]\Free - Fire And Water (1970) [FLAC] (Japan UICY-9132)\04 - Heavy Load.wav

Pre-gap length 0:00:04.78

Peak level 98.7 %
Track quality 100.0 %
Test CRC BB6A9D97
Copy CRC BB6A9D97
Track not present in AccurateRip database
Copy OK

Track 5

Filename E:\Own Rips\Free - Disk Union Promo Box (2002) [FLAC]\Free - Fire And Water (1970) [FLAC] (Japan UICY-9132)\05 - Mr. Big.wav

Pre-gap length 0:00:03.05

Peak level 99.8 %
Track quality 100.0 %
Test CRC 0611C3EE
Copy CRC 0611C3EE
Track not present in AccurateRip database
Copy OK

Track 6

Filename E:\Own Rips\Free - Disk Union Promo Box (2002) [FLAC]\Free - Fire And Water (1970) [FLAC] (Japan UICY-9132)\06 - Don`t Say You Love Me.wav

Pre-gap length 0:00:01.85

Peak level 96.3 %
Track quality 100.0 %
Test CRC 816F03F2
Copy CRC 816F03F2
Track not present in AccurateRip database
Copy OK

Track 7

Filename E:\Own Rips\Free - Disk Union Promo Box (2002) [FLAC]\Free - Fire And Water (1970) [FLAC] (Japan UICY-9132)\07 - All Right Now.wav

Pre-gap length 0:00:05.25

Peak level 99.2 %
Track quality 100.0 %
Test CRC 32CA3914
Copy CRC 32CA3914
Track not present in AccurateRip database
Copy OK

Track 8

Filename E:\Own Rips\Free - Disk Union Promo Box (2002) [FLAC]\Free - Fire And Water (1970) [FLAC] (Japan UICY-9132)\08 - Oh I Wept (Alternate Vocal Take).wav

Pre-gap length 0:00:09.05

Peak level 88.8 %
Track quality 100.0 %
Test CRC 55A8EB61
Copy CRC 55A8EB61
Track not present in AccurateRip database
Copy OK

Track 9

Filename E:\Own Rips\Free - Disk Union Promo Box (2002) [FLAC]\Free - Fire And Water (1970) [FLAC] (Japan UICY-9132)\09 - Fire And Water (New Stereo Mix).wav

Pre-gap length 0:00:01.92

Peak level 98.9 %
Track quality 100.0 %
Test CRC 86F81E12
Copy CRC 86F81E12
Track not present in AccurateRip database
Copy OK

Track 10

Filename E:\Own Rips\Free - Disk Union Promo Box (2002) [FLAC]\Free - Fire And Water (1970) [FLAC] (Japan UICY-9132)\10 - Fire And Water (BBC Session).wav

Pre-gap length 0:00:02.05

Peak level 92.5 %
Track quality 100.0 %
Test CRC 11D6B9CE
Copy CRC 11D6B9CE
Track not present in AccurateRip database
Copy OK

Track 11

Filename E:\Own Rips\Free - Disk Union Promo Box (2002) [FLAC]\Free - Fire And Water (1970) [FLAC] (Japan UICY-9132)\11 - All Right Now (BBC Session).wav

Pre-gap length 0:00:02.52

Peak level 91.7 %
Track quality 99.9 %
Test CRC 5CEED9BF
Copy CRC 5CEED9BF
Track not present in AccurateRip database
Copy OK

Track 12

Filename E:\Own Rips\Free - Disk Union Promo Box (2002) [FLAC]\Free - Fire And Water (1970) [FLAC] (Japan UICY-9132)\12 - All Right Now (Single Version).wav

Pre-gap length 0:00:02.65

Peak level 97.6 %
Track quality 100.0 %
Test CRC 0395AC0C
Copy CRC 0395AC0C
Track not present in AccurateRip database
Copy OK

Track 13

Filename E:\Own Rips\Free - Disk Union Promo Box (2002) [FLAC]\Free - Fire And Water (1970) [FLAC] (Japan UICY-9132)\13 - All Right Now (First Version).wav

Pre-gap length 0:00:03.25

Peak level 88.7 %
Track quality 100.0 %
Test CRC 1DBAAADE
Copy CRC 1DBAAADE
Track not present in AccurateRip database
Copy OK


None of the tracks are present in the AccurateRip database

No errors occurred

End of status report



Free - The Complete Mini LP Set (1968 -1973) [7CD] {2002 Island Remasters Japan Mini LP} [UICY-9130~9203] [REPOST]

Free - Highway (1970) (Japan UICY-9200)


Highway was recorded just three months after Free scored the career-redefining hit "Alright Now," and while their profile was at a career-topping high, their morale was heading toward an all-time low. Guitarist Paul Kossoff was reeling from the death of friend Jimi Hendrix; a new single, "The Stealer" – the follow-up to The Hit – bellyflopped ignominiously; and, when the album followed suit, the band itself was not far behind. Heavily influenced by their admiration of the Band, Highway has understandably been described as Free's answer to Music From Big Pink, sharing both the laid-back vibe and mellow looseness of that role model. Where it went awry, of course, was in the fact that Free were not cut out to be country-rock guitar-twangers, no matter how fiery their missionary zeal. Yet, the strutting rockers "The Stealer" and "Ride on a Pony" alone shatter the brave new mood, while reflective romancers like "Love You So" and "Be My Friend" could well have been composed specifically to rid the band of the shadow of "Alright Now," and prove that underneath the coolest exterior, there beat a heart of the molten gold. Of course, Free had bathed in such waters before, and the closing "Soon I Will Be Gone" certainly bears comparison with any of their past ballads. Nevertheless, too much of Highway reacted to the pressures of the recent past rather than building upon the strengths that had made such events possible in the first place, and you reach the bonus tracks appended to the 2002 remaster despairing that they will ever rediscover that earlier flair. But the 1971 hit single "My Brother Jake" is a gorgeous knockabout clearly informed by the Faces' recent assault on Free's own throne, while a couple of BBC session tracks, sensibly highlighting both the best ("Ride on a Pony") and the worst ("Be My Friend") of the album itself, pack a punch that was clearly absent in the studio. In fact, whatever your opinion of Highway itself, the bonus tracks comprise an entire new reason to pick up the album.
tracklist:
01. Highway Song
02. Stealer
03. On My Way
04. Be My Friend
05. Sunny Day
06. Ride On A Pony
07. Love You So
08. Bodie
09. Soon I Will Be Gone
10. My Brother Jake (single) - bonus track
11. Only My Soul (single B-side) - bonus track
12. Ride On A Pony (BBC session) - bonus track
13. Be My Friend (BBC session) - bonus track
14. Rain (Alternate version) - bonus track
15. Stealer (single version) - bonus track

Free - The Complete Mini LP Set (1968 -1973) [7CD] {2002 Island Remasters Japan Mini LP} [UICY-9130~9203] [REPOST]

Free - The Complete Mini LP Set (1968 -1973) [7CD] {2002 Island Remasters Japan Mini LP} [UICY-9130~9203] [REPOST]

Exact Audio Copy V0.99 prebeta 4 from 23. January 2008

EAC extraction logfile from 21. January 2009, 10:47

Free / Highway

Used drive : HL-DT-STDVD-ROM GDR8163B Adapter: 1 ID: 1

Read mode : Secure
Utilize accurate stream : Yes
Defeat audio cache : Yes
Make use of C2 pointers : No

Read offset correction : 102
Overread into Lead-In and Lead-Out : No
Fill up missing offset samples with silence : Yes
Delete leading and trailing silent blocks : No
Null samples used in CRC calculations : Yes
Used interface : Native Win32 interface for Win NT & 2000
Gap handling : Appended to previous track

Used output format : User Defined Encoder
Selected bitrate : 128 kBit/s
Quality : High
Add ID3 tag : No
Command line compressor : D:\Programme\Exact Audio Copy\FLAC\FLAC.EXE
Additional command line options : -f -o %d -V -8 -T "artist=%a" -T "title=%t" -T "album=%g" -T "date=%y" -T "tracknumber=%n" -T "genre=%m" %s


TOC of the extracted CD

Track | Start | Length | Start sector | End sector
––––––––––––––––––––––––––––-
1 | 0:00.00 | 4:17.35 | 0 | 19309
2 | 4:17.35 | 3:17.45 | 19310 | 34129
3 | 7:35.05 | 4:02.50 | 34130 | 52329
4 | 11:37.55 | 5:49.10 | 52330 | 78514
5 | 17:26.65 | 3:09.40 | 78515 | 92729
6 | 20:36.30 | 4:19.20 | 92730 | 112174
7 | 24:55.50 | 4:55.15 | 112175 | 134314
8 | 29:50.65 | 3:06.45 | 134315 | 148309
9 | 32:57.35 | 3:10.45 | 148310 | 162604
10 | 36:08.05 | 2:51.70 | 162605 | 175499
11 | 39:00.00 | 2:30.05 | 175500 | 186754
12 | 41:30.05 | 4:30.30 | 186755 | 207034
13 | 46:00.35 | 5:36.65 | 207035 | 232299
14 | 51:37.25 | 3:56.60 | 232300 | 250059
15 | 55:34.10 | 3:22.45 | 250060 | 265254


Track 1

Filename E:\Own Rips\Free - Disk Union Promo Box (2002) [FLAC]\Free - Highway (1970) [FLAC] (Japan UICY-9200)\01 - The Highway Song.wav

Pre-gap length 0:00:02.00

Peak level 89.5 %
Track quality 100.0 %
Test CRC 21A3CE5F
Copy CRC 21A3CE5F
Track not present in AccurateRip database
Copy OK

Track 2

Filename E:\Own Rips\Free - Disk Union Promo Box (2002) [FLAC]\Free - Highway (1970) [FLAC] (Japan UICY-9200)\02 - The Stealer.wav

Pre-gap length 0:00:01.25

Peak level 87.5 %
Track quality 100.0 %
Test CRC 1D86CF2E
Copy CRC 1D86CF2E
Track not present in AccurateRip database
Copy OK

Track 3

Filename E:\Own Rips\Free - Disk Union Promo Box (2002) [FLAC]\Free - Highway (1970) [FLAC] (Japan UICY-9200)\03 - On My Way.wav

Pre-gap length 0:00:02.32

Peak level 92.0 %
Track quality 100.0 %
Test CRC B23955B9
Copy CRC B23955B9
Track not present in AccurateRip database
Copy OK

Track 4

Filename E:\Own Rips\Free - Disk Union Promo Box (2002) [FLAC]\Free - Highway (1970) [FLAC] (Japan UICY-9200)\04 - Be My Friend.wav

Pre-gap length 0:00:02.45

Peak level 93.6 %
Track quality 100.0 %
Test CRC F061FD3D
Copy CRC F061FD3D
Track not present in AccurateRip database
Copy OK

Track 5

Filename E:\Own Rips\Free - Disk Union Promo Box (2002) [FLAC]\Free - Highway (1970) [FLAC] (Japan UICY-9200)\05 - Sunny Day.wav

Pre-gap length 0:00:02.72

Peak level 87.8 %
Track quality 100.0 %
Test CRC 00088677
Copy CRC 00088677
Track not present in AccurateRip database
Copy OK

Track 6

Filename E:\Own Rips\Free - Disk Union Promo Box (2002) [FLAC]\Free - Highway (1970) [FLAC] (Japan UICY-9200)\06 - Ride on a Pony.wav

Pre-gap length 0:00:01.32

Peak level 92.9 %
Track quality 100.0 %
Test CRC 8D393022
Copy CRC 8D393022
Track not present in AccurateRip database
Copy OK

Track 7

Filename E:\Own Rips\Free - Disk Union Promo Box (2002) [FLAC]\Free - Highway (1970) [FLAC] (Japan UICY-9200)\07 - Love You So.wav

Pre-gap length 0:00:00.65

Peak level 86.5 %
Track quality 99.9 %
Test CRC 5724C5FE
Copy CRC 5724C5FE
Track not present in AccurateRip database
Copy OK

Track 8

Filename E:\Own Rips\Free - Disk Union Promo Box (2002) [FLAC]\Free - Highway (1970) [FLAC] (Japan UICY-9200)\08 - Bodie.wav

Pre-gap length 0:00:00.18

Peak level 86.3 %
Track quality 99.9 %
Test CRC 7311B245
Copy CRC 7311B245
Track not present in AccurateRip database
Copy OK

Track 9

Filename E:\Own Rips\Free - Disk Union Promo Box (2002) [FLAC]\Free - Highway (1970) [FLAC] (Japan UICY-9200)\09 - Soon I Will Be Gone.wav

Pre-gap length 0:00:00.72

Peak level 93.4 %
Track quality 99.9 %
Test CRC A25B91C8
Copy CRC A25B91C8
Track not present in AccurateRip database
Copy OK

Track 10

Filename E:\Own Rips\Free - Disk Union Promo Box (2002) [FLAC]\Free - Highway (1970) [FLAC] (Japan UICY-9200)\10 - My Brother Jake (Single Version).wav

Pre-gap length 0:00:08.52

Peak level 98.2 %
Track quality 100.0 %
Test CRC 1AA47D22
Copy CRC 1AA47D22
Track not present in AccurateRip database
Copy OK

Track 11

Filename E:\Own Rips\Free - Disk Union Promo Box (2002) [FLAC]\Free - Highway (1970) [FLAC] (Japan UICY-9200)\11 - Only My Soul (Single B-Side).wav

Pre-gap length 0:00:01.65

Peak level 90.4 %
Track quality 99.9 %
Test CRC ADEF3154
Copy CRC ADEF3154
Track not present in AccurateRip database
Copy OK

Track 12

Filename E:\Own Rips\Free - Disk Union Promo Box (2002) [FLAC]\Free - Highway (1970) [FLAC] (Japan UICY-9200)\12 - Ride on a Pony (BBC Session).wav

Pre-gap length 0:00:01.72

Peak level 86.0 %
Track quality 100.0 %
Test CRC 7DB7996B
Copy CRC 7DB7996B
Track not present in AccurateRip database
Copy OK

Track 13

Filename E:\Own Rips\Free - Disk Union Promo Box (2002) [FLAC]\Free - Highway (1970) [FLAC] (Japan UICY-9200)\13 - Be My Friend (BBC Session).wav

Pre-gap length 0:00:01.72

Peak level 84.5 %
Track quality 100.0 %
Test CRC 1E1E5D71
Copy CRC 1E1E5D71
Track not present in AccurateRip database
Copy OK

Track 14

Filename E:\Own Rips\Free - Disk Union Promo Box (2002) [FLAC]\Free - Highway (1970) [FLAC] (Japan UICY-9200)\14 - Rain (Alternative Version).wav

Pre-gap length 0:00:02.05

Peak level 90.7 %
Track quality 100.0 %
Test CRC C11D8423
Copy CRC C11D8423
Track not present in AccurateRip database
Copy OK

Track 15

Filename E:\Own Rips\Free - Disk Union Promo Box (2002) [FLAC]\Free - Highway (1970) [FLAC] (Japan UICY-9200)\15 - The Stealer (Single Version).wav

Pre-gap length 0:00:01.72

Peak level 94.1 %
Track quality 99.9 %
Test CRC A12F8480
Copy CRC A12F8480
Track not present in AccurateRip database
Copy OK


None of the tracks are present in the AccurateRip database

No errors occurred

End of status report



Free - The Complete Mini LP Set (1968 -1973) [7CD] {2002 Island Remasters Japan Mini LP} [UICY-9130~9203] [REPOST]

Free - Live! (1971) (Japan UICY-9201)


Following Paul Rodgers' unsuccessful project titled Peace and Andy Fraser's ill-fated Toby, Free rebuilt themselves and released At Last in the summer of 1972. The band went right back to what they know best, with Rodgers bearing his blues-rock soul to Kossof's moody electric guitar. Tracks like "Sail On," "Soldier Boy," and "Travelling Man" come out on top as some of the band's most emotive material, proving that their breakup in 1971 had no real effect on their chemistry. "Little Bit of Love" was released in the U.K., peaking at number 13, while the album itself broke the Top Ten there, stalling at number 69 in the U.S. The band's mixture of laid-back blues and gritty, bare-boned rock & roll is as poignant and as expressive as it was on Tons of Sobs or Fire and Water, even though Paul Kossof's problems with drugs were beginning to be more and more evident. Eventually, Kossof's addiction affected the entire band, hindering Free's ability to go on tour to promote the album. After At Last, Andy Fraser left the group and created the band Sharks along with Chris Spedding, while Kossof was busy with his own Back Street Crawler project. After Kossof's death in 1976, John Bundrick re-joined along with Tetsu Yamauchi for 1973's Heartbreaker…Free's final release.
tracklist:
01. All Right Now
02. I'm A Mover
03. Be My Friend
04. Fire And Water
05. Ride On A Pony
06. Mr Big
07. The Hunter
08. Get Where I Belong
09. Woman - bonus track
10. Walk In My Shadow - bonus track
11. Moonshine - bonus track
12. Trouble On Double Time - bonus track
13. Mr Big - bonus track
14. All Right Now - bonus track
15. Get Where I Belong (alternate take) - bonus track

Free - The Complete Mini LP Set (1968 -1973) [7CD] {2002 Island Remasters Japan Mini LP} [UICY-9130~9203] [REPOST]

Free - The Complete Mini LP Set (1968 -1973) [7CD] {2002 Island Remasters Japan Mini LP} [UICY-9130~9203] [REPOST]

Exact Audio Copy V0.99 prebeta 4 from 23. January 2008

EAC extraction logfile from 21. January 2009, 11:15

Free / Free Live

Used drive : HL-DT-STDVD-ROM GDR8163B Adapter: 1 ID: 1

Read mode : Secure
Utilize accurate stream : Yes
Defeat audio cache : Yes
Make use of C2 pointers : No

Read offset correction : 102
Overread into Lead-In and Lead-Out : No
Fill up missing offset samples with silence : Yes
Delete leading and trailing silent blocks : No
Null samples used in CRC calculations : Yes
Used interface : Native Win32 interface for Win NT & 2000
Gap handling : Appended to previous track

Used output format : User Defined Encoder
Selected bitrate : 128 kBit/s
Quality : High
Add ID3 tag : No
Command line compressor : D:\Programme\Exact Audio Copy\FLAC\FLAC.EXE
Additional command line options : -f -o %d -V -8 -T "artist=%a" -T "title=%t" -T "album=%g" -T "date=%y" -T "tracknumber=%n" -T "genre=%m" %s


TOC of the extracted CD

Track | Start | Length | Start sector | End sector
––––––––––––––––––––––––––––-
1 | 0:00.00 | 6:27.50 | 0 | 29074
2 | 6:27.50 | 3:42.15 | 29075 | 45739
3 | 10:09.65 | 5:56.30 | 45740 | 72469
4 | 16:06.20 | 3:58.70 | 72470 | 90389
5 | 20:05.15 | 4:31.25 | 90390 | 110739
6 | 24:36.40 | 6:20.60 | 110740 | 139299
7 | 30:57.25 | 5:20.45 | 139300 | 163344
8 | 36:17.70 | 4:28.35 | 163345 | 183479
9 | 40:46.30 | 4:33.45 | 183480 | 203999
10 | 45:20.00 | 4:15.30 | 204000 | 223154
11 | 49:35.30 | 9:08.65 | 223155 | 264319
12 | 58:44.20 | 3:57.60 | 264320 | 282154
13 | 62:42.05 | 5:26.40 | 282155 | 306644
14 | 68:08.45 | 4:44.00 | 306645 | 327944
15 | 72:52.45 | 4:22.40 | 327945 | 347634


Track 1

Filename E:\Own Rips\Free - Disk Union Promo Box (2002) [FLAC]\Free - Live! (1971) [FLAC] (Japan UICY-9201)\01 - All Right Now.wav

Pre-gap length 0:00:02.00

Peak level 92.6 %
Track quality 100.0 %
Test CRC 83C4BFA3
Copy CRC 83C4BFA3
Track not present in AccurateRip database
Copy OK

Track 2

Filename E:\Own Rips\Free - Disk Union Promo Box (2002) [FLAC]\Free - Live! (1971) [FLAC] (Japan UICY-9201)\02 - I'm A Mover.wav

Peak level 95.4 %
Track quality 100.0 %
Test CRC CF8C9819
Copy CRC CF8C9819
Track not present in AccurateRip database
Copy OK

Track 3

Filename E:\Own Rips\Free - Disk Union Promo Box (2002) [FLAC]\Free - Live! (1971) [FLAC] (Japan UICY-9201)\03 - Be My Friend.wav

Peak level 93.6 %
Track quality 100.0 %
Test CRC D16D1CC9
Copy CRC D16D1CC9
Track not present in AccurateRip database
Copy OK

Track 4

Filename E:\Own Rips\Free - Disk Union Promo Box (2002) [FLAC]\Free - Live! (1971) [FLAC] (Japan UICY-9201)\04 - Fire And Water.wav

Peak level 96.3 %
Track quality 100.0 %
Test CRC 391EC3DB
Copy CRC 391EC3DB
Track not present in AccurateRip database
Copy OK

Track 5

Filename E:\Own Rips\Free - Disk Union Promo Box (2002) [FLAC]\Free - Live! (1971) [FLAC] (Japan UICY-9201)\05 - Ride On A Pony.wav

Peak level 97.9 %
Track quality 100.0 %
Test CRC 038E4A8D
Copy CRC 038E4A8D
Track not present in AccurateRip database
Copy OK

Track 6

Filename E:\Own Rips\Free - Disk Union Promo Box (2002) [FLAC]\Free - Live! (1971) [FLAC] (Japan UICY-9201)\06 - Mr Big.wav

Peak level 91.8 %
Track quality 100.0 %
Test CRC 4847F972
Copy CRC 4847F972
Track not present in AccurateRip database
Copy OK

Track 7

Filename E:\Own Rips\Free - Disk Union Promo Box (2002) [FLAC]\Free - Live! (1971) [FLAC] (Japan UICY-9201)\07 - The Hunter.wav

Peak level 94.8 %
Track quality 100.0 %
Test CRC 3D663BA0
Copy CRC 3D663BA0
Track not present in AccurateRip database
Copy OK

Track 8

Filename E:\Own Rips\Free - Disk Union Promo Box (2002) [FLAC]\Free - Live! (1971) [FLAC] (Japan UICY-9201)\08 - Get Where I Belong.wav

Peak level 88.9 %
Track quality 100.0 %
Test CRC 92517D01
Copy CRC 92517D01
Track not present in AccurateRip database
Copy OK

Track 9

Filename E:\Own Rips\Free - Disk Union Promo Box (2002) [FLAC]\Free - Live! (1971) [FLAC] (Japan UICY-9201)\09 - Woman.wav

Pre-gap length 0:00:09.40

Peak level 99.0 %
Track quality 99.9 %
Test CRC E34E0178
Copy CRC E34E0178
Track not present in AccurateRip database
Copy OK

Track 10

Filename E:\Own Rips\Free - Disk Union Promo Box (2002) [FLAC]\Free - Live! (1971) [FLAC] (Japan UICY-9201)\10 - Walk In My Shadow.wav

Peak level 98.0 %
Track quality 100.0 %
Test CRC A4D7BE1D
Copy CRC A4D7BE1D
Track not present in AccurateRip database
Copy OK

Track 11

Filename E:\Own Rips\Free - Disk Union Promo Box (2002) [FLAC]\Free - Live! (1971) [FLAC] (Japan UICY-9201)\11 - Moonshine.wav

Peak level 96.5 %
Track quality 100.0 %
Test CRC F23B7004
Copy CRC F23B7004
Track not present in AccurateRip database
Copy OK

Track 12

Filename E:\Own Rips\Free - Disk Union Promo Box (2002) [FLAC]\Free - Live! (1971) [FLAC] (Japan UICY-9201)\12 - Trouble On Double Time.wav

Peak level 93.3 %
Track quality 100.0 %
Test CRC 53D5622C
Copy CRC 53D5622C
Track not present in AccurateRip database
Copy OK

Track 13

Filename E:\Own Rips\Free - Disk Union Promo Box (2002) [FLAC]\Free - Live! (1971) [FLAC] (Japan UICY-9201)\13 - Mr Big.wav

Peak level 98.3 %
Track quality 100.0 %
Test CRC E72FB919
Copy CRC E72FB919
Track not present in AccurateRip database
Copy OK

Track 14

Filename E:\Own Rips\Free - Disk Union Promo Box (2002) [FLAC]\Free - Live! (1971) [FLAC] (Japan UICY-9201)\14 - All Right Now.wav

Peak level 99.5 %
Track quality 100.0 %
Test CRC 1400450B
Copy CRC 1400450B
Track not present in AccurateRip database
Copy OK

Track 15

Filename E:\Own Rips\Free - Disk Union Promo Box (2002) [FLAC]\Free - Live! (1971) [FLAC] (Japan UICY-9201)\15 - Get Where I Belong (Alternative Take).wav

Peak level 87.5 %
Track quality 99.8 %
Test CRC A6CC2D24
Copy CRC A6CC2D24
Track not present in AccurateRip database
Copy OK


None of the tracks are present in the AccurateRip database

No errors occurred

End of status report



Free - The Complete Mini LP Set (1968 -1973) [7CD] {2002 Island Remasters Japan Mini LP} [UICY-9130~9203] [REPOST]

Free - Free at Last (1972) (Japan UICY-9202)


This album seems to be almost uniformly criticized in reviews but I would make a case that it holds its own fairly well against the rest of Free's catalogue. True, it is not all up to the consistent high standard of `Free and Water' or `Heartbreaker', but it nevertheless contains much good material and demonstrates clearly the evolving style of the band, away from the relatively simple arrangements of the early albums and towards the keyboard-dominated sound of `Heartbreaker'. This album was the last by the original four members of Free, but though he is not credited I suspect that some of the keyboard work might have been by John `Rabbit' Bundrick, who officially joined the band later, for their final album. Although there are a couple of tracks which some might regard as `filler', the standard of composition and playing is high, with the shorter more concise songs near the start and the later songs being more lengthy, slow and thoughtful. There is a sense of introspection in some of these later songs which matches the mood of much of the `Heartbreaker' album, and this evolution of Free's sound should not be dismissed just because it differs from, for example, stompers like `All right now'. So although the band was undoubtedly suffering from internal disputes and the effects of drug use during the making of this album, it has always deserved a place in the collection of Free aficionados.
tracklist:
01. Catch a Train
02. Soldier Boy
03. Magic Ship
04. Sail On
05. Travelling Man
06. Little Bit of Love
07. Guardian of the Universe
08. Child
09. Goodbye
10. Burnin' (Molten Gold) (Alternate Take) - bonus track
11. Honky Tonk Women (warm-up jam) - bonus track
12. Magic Ships (Alternate Mix) - bonus track
13. Little Bit of Love (Alternative Mix) - bonus track
14. Guardian of the Universe (Paul Rodgers Solo Version) - bonus track
15. Child (Early Mix) - bonus track

Free - The Complete Mini LP Set (1968 -1973) [7CD] {2002 Island Remasters Japan Mini LP} [UICY-9130~9203] [REPOST]

Free - The Complete Mini LP Set (1968 -1973) [7CD] {2002 Island Remasters Japan Mini LP} [UICY-9130~9203] [REPOST]

Exact Audio Copy V0.99 prebeta 4 from 23. January 2008

EAC extraction logfile from 22. January 2009, 12:56

Free / Free At Last

Used drive : HL-DT-STDVD-ROM GDR8163B Adapter: 1 ID: 1

Read mode : Secure
Utilize accurate stream : Yes
Defeat audio cache : Yes
Make use of C2 pointers : No

Read offset correction : 102
Overread into Lead-In and Lead-Out : No
Fill up missing offset samples with silence : Yes
Delete leading and trailing silent blocks : No
Null samples used in CRC calculations : Yes
Used interface : Native Win32 interface for Win NT & 2000
Gap handling : Appended to previous track

Used output format : User Defined Encoder
Selected bitrate : 128 kBit/s
Quality : High
Add ID3 tag : No
Command line compressor : D:\Programme\Exact Audio Copy\FLAC\FLAC.EXE
Additional command line options : -f -o %d -V -8 -T "artist=%a" -T "title=%t" -T "album=%g" -T "date=%y" -T "tracknumber=%n" -T "genre=%m" %s


TOC of the extracted CD

Track | Start | Length | Start sector | End sector
––––––––––––––––––––––––––––-
1 | 0:00.00 | 3:32.10 | 0 | 15909
2 | 3:32.10 | 2:51.55 | 15910 | 28789
3 | 6:23.65 | 5:22.45 | 28790 | 52984
4 | 11:46.35 | 3:05.70 | 52985 | 66929
5 | 14:52.30 | 3:23.10 | 66930 | 82164
6 | 18:15.40 | 2:34.65 | 82165 | 93779
7 | 20:50.30 | 5:32.05 | 93780 | 118684
8 | 26:22.35 | 5:18.50 | 118685 | 142584
9 | 31:41.10 | 5:15.45 | 142585 | 166254
10 | 36:56.55 | 5:57.00 | 166255 | 193029
11 | 42:53.55 | 3:13.60 | 193030 | 207564
12 | 46:07.40 | 5:27.25 | 207565 | 232114
13 | 51:34.65 | 2:37.70 | 232115 | 243959
14 | 54:12.60 | 6:06.55 | 243960 | 271464
15 | 60:19.40 | 5:19.00 | 271465 | 295389


Track 1

Filename E:\Own Rips\Free - Disk Union Promo Box (2002) [FLAC]\Free - Free at Last (1972) [FLAC] (Japan UICY-9202)\01 - Catch A Train.wav

Pre-gap length 0:00:02.00

Peak level 93.4 %
Track quality 100.0 %
Test CRC FFC799EE
Copy CRC FFC799EE
Track not present in AccurateRip database
Copy OK

Track 2

Filename E:\Own Rips\Free - Disk Union Promo Box (2002) [FLAC]\Free - Free at Last (1972) [FLAC] (Japan UICY-9202)\02 - Soldier Boy.wav

Pre-gap length 0:00:00.58

Peak level 95.2 %
Track quality 100.0 %
Test CRC 88522035
Copy CRC 88522035
Track not present in AccurateRip database
Copy OK

Track 3

Filename E:\Own Rips\Free - Disk Union Promo Box (2002) [FLAC]\Free - Free at Last (1972) [FLAC] (Japan UICY-9202)\03 - Magic Ship.wav

Pre-gap length 0:00:02.72

Peak level 95.0 %
Track quality 100.0 %
Test CRC 9CC14214
Copy CRC 9CC14214
Track not present in AccurateRip database
Copy OK

Track 4

Filename E:\Own Rips\Free - Disk Union Promo Box (2002) [FLAC]\Free - Free at Last (1972) [FLAC] (Japan UICY-9202)\04 - Sail On.wav

Pre-gap length 0:00:02.92

Peak level 94.2 %
Track quality 99.9 %
Test CRC 72A32D90
Copy CRC 72A32D90
Track not present in AccurateRip database
Copy OK

Track 5

Filename E:\Own Rips\Free - Disk Union Promo Box (2002) [FLAC]\Free - Free at Last (1972) [FLAC] (Japan UICY-9202)\05 - Travellin' Man.wav

Pre-gap length 0:00:00.78

Peak level 95.4 %
Track quality 100.0 %
Test CRC 09EBEF12
Copy CRC 09EBEF12
Track not present in AccurateRip database
Copy OK

Track 6

Filename E:\Own Rips\Free - Disk Union Promo Box (2002) [FLAC]\Free - Free at Last (1972) [FLAC] (Japan UICY-9202)\06 - Little Bit Of Love.wav

Pre-gap length 0:00:01.65

Peak level 92.0 %
Track quality 100.0 %
Test CRC 5B74A8FE
Copy CRC 5B74A8FE
Track not present in AccurateRip database
Copy OK

Track 7

Filename E:\Own Rips\Free - Disk Union Promo Box (2002) [FLAC]\Free - Free at Last (1972) [FLAC] (Japan UICY-9202)\07 - Guardian Of The Universe.wav

Pre-gap length 0:00:00.12

Peak level 93.2 %
Track quality 99.9 %
Test CRC 017FDEDB
Copy CRC 017FDEDB
Track not present in AccurateRip database
Copy OK

Track 8

Filename E:\Own Rips\Free - Disk Union Promo Box (2002) [FLAC]\Free - Free at Last (1972) [FLAC] (Japan UICY-9202)\08 - Child.wav

Pre-gap length 0:00:01.98

Peak level 92.1 %
Track quality 100.0 %
Test CRC D71F9BAF
Copy CRC D71F9BAF
Track not present in AccurateRip database
Copy OK

Track 9

Filename E:\Own Rips\Free - Disk Union Promo Box (2002) [FLAC]\Free - Free at Last (1972) [FLAC] (Japan UICY-9202)\09 - Goodbye.wav

Pre-gap length 0:00:00.05

Peak level 93.5 %
Track quality 100.0 %
Test CRC 841E9539
Copy CRC 841E9539
Track not present in AccurateRip database
Copy OK

Track 10

Filename E:\Own Rips\Free - Disk Union Promo Box (2002) [FLAC]\Free - Free at Last (1972) [FLAC] (Japan UICY-9202)\10 - Burnin' (Molton Gold) (Alternative Take).wav

Pre-gap length 0:00:09.25

Peak level 99.7 %
Track quality 100.0 %
Test CRC C350C55F
Copy CRC C350C55F
Track not present in AccurateRip database
Copy OK

Track 11

Filename E:\Own Rips\Free - Disk Union Promo Box (2002) [FLAC]\Free - Free at Last (1972) [FLAC] (Japan UICY-9202)\11 - Honky Tonk Woman.wav

Pre-gap length 0:00:00.45

Peak level 96.0 %
Track quality 100.0 %
Test CRC E924C903
Copy CRC E924C903
Track not present in AccurateRip database
Copy OK

Track 12

Filename E:\Own Rips\Free - Disk Union Promo Box (2002) [FLAC]\Free - Free at Last (1972) [FLAC] (Japan UICY-9202)\12 - Magic Ship (Alternative Mix).wav

Pre-gap length 0:00:01.92

Peak level 92.7 %
Track quality 100.0 %
Test CRC 2BE9FDAE
Copy CRC 2BE9FDAE
Track not present in AccurateRip database
Copy OK

Track 13

Filename E:\Own Rips\Free - Disk Union Promo Box (2002) [FLAC]\Free - Free at Last (1972) [FLAC] (Japan UICY-9202)\13 - Little Bit Of Love (Alternative Mix).wav

Pre-gap length 0:00:01.65

Peak level 94.2 %
Track quality 100.0 %
Test CRC 346A754D
Copy CRC 346A754D
Track not present in AccurateRip database
Copy OK

Track 14

Filename E:\Own Rips\Free - Disk Union Promo Box (2002) [FLAC]\Free - Free at Last (1972) [FLAC] (Japan UICY-9202)\14 - Guardian Of The Universe (Paul Rodgers Solo Version).wav

Pre-gap length 0:00:01.65

Peak level 89.7 %
Track quality 100.0 %
Test CRC E5CD7D68
Copy CRC E5CD7D68
Track not present in AccurateRip database
Copy OK

Track 15

Filename E:\Own Rips\Free - Disk Union Promo Box (2002) [FLAC]\Free - Free at Last (1972) [FLAC] (Japan UICY-9202)\15 - Child (Early Mix).wav

Pre-gap length 0:00:02.25

Peak level 88.3 %
Track quality 100.0 %
Test CRC 94EBA254
Copy CRC 94EBA254
Track not present in AccurateRip database
Copy OK


None of the tracks are present in the AccurateRip database

No errors occurred

End of status report



Free - The Complete Mini LP Set (1968 -1973) [7CD] {2002 Island Remasters Japan Mini LP} [UICY-9130~9203] [REPOST]

Free - Heartbreaker (1973) (Japan UICY-9203)


Free's return in 1972 was scarred by any number of traumas, not least of all the departure of bassist Andy Fraser and the virtual incapacity of guitarist Paul Kossoff – one-half of the original band, and the lion's share of its spirit as well. But did their erstwhile bandmates let it show? Not a jot. The hastily recruited Tetsu Yamauchi, and vocalist Paul Rodgers himself, filled the breach instrumentally, and probably 50 percent of the ensuing Heartbreaker ranks among Free's finest ever work. Of course, any record that can open with the sheer majesty of "Wishing Well," Rodgers' so-evocative tribute to Kossoff, is immediately going to ascend to the halls of greatness, all the more so since Kossoff himself is in such fine form across both this cut and the next three – completing side one of the original vinyl, "Come Together in the Morning," "Travellin' in Style," and "Heartbreaker" add up to the band's most convincing sequence of songs since the days of Fire and Water. Further into the disc, two contributions from another new recruit, keyboard player John Bundrick, fall a little flat, a fate they share with the previously unreleased "Hand Me Down/Turn Me Round," one of the 2002 remaster's six bonus tracks. But a pair of solo Rodgers songs, "Easy on My Soul" and "Seven Angels," close the album with as much emotion as it opened on, and one could well argue that, after such a treat, the aforementioned bonus tracks are all but unnecessary, especially as the first few simply offer outtakes, alternates, and B-sides from the sessions themselves. As the CD wraps up, however, two final tracks reveal what happened once the album was completed, peeping into the band's rehearsal room on the eve of their summer tour of Japan to catch "Heartbreaker" and "Easy on My Soul" in such rough but eloquently heavenly form that this most emotionally weighted of Free's albums could demand no deeper coda.
tracklist:
01. Wishing Well
02. Come Together In The Morning
03. Travellin' In Style
04. Heartbreaker
05. Muddy Water
06. Common Mortal Man
07. Easy On My Soul
08. Seven Angels
09. Wishing Well (US mix) - bonus track
10. Let Me Show You (Single B-side) - bonus track
11. Muddy Water (Alternate Vocal) - bonus track
12. Hand Me Down / Turn Me Round (Prospective album track) - bonus track
13. Heartbreaker (Rehearsal version) - bonus track
14. Easy On My Soul (Rehearsal version) - bonus track

Free - The Complete Mini LP Set (1968 -1973) [7CD] {2002 Island Remasters Japan Mini LP} [UICY-9130~9203] [REPOST]

Free - The Complete Mini LP Set (1968 -1973) [7CD] {2002 Island Remasters Japan Mini LP} [UICY-9130~9203] [REPOST]

Exact Audio Copy V0.99 prebeta 4 from 23. January 2008

EAC extraction logfile from 20. January 2009, 23:27

Free / Heartbreaker

Used drive : HL-DT-STDVD-ROM GDR8163B Adapter: 1 ID: 1

Read mode : Secure
Utilize accurate stream : Yes
Defeat audio cache : Yes
Make use of C2 pointers : No

Read offset correction : 102
Overread into Lead-In and Lead-Out : No
Fill up missing offset samples with silence : Yes
Delete leading and trailing silent blocks : No
Null samples used in CRC calculations : Yes
Used interface : Native Win32 interface for Win NT & 2000
Gap handling : Appended to previous track

Used output format : User Defined Encoder
Selected bitrate : 128 kBit/s
Quality : High
Add ID3 tag : No
Command line compressor : D:\Programme\Exact Audio Copy\FLAC\FLAC.EXE
Additional command line options : -f -o %d -V -8 -T "artist=%a" -T "title=%t" -T "album=%g" -T "date=%y" -T "tracknumber=%n" -T "genre=%m" %s


TOC of the extracted CD

Track | Start | Length | Start sector | End sector
––––––––––––––––––––––––––––-
1 | 0:00.00 | 3:43.20 | 0 | 16744
2 | 3:43.20 | 4:42.40 | 16745 | 37934
3 | 8:25.60 | 4:01.70 | 37935 | 56079
4 | 12:27.55 | 6:14.65 | 56080 | 84194
5 | 18:42.45 | 4:17.70 | 84195 | 103539
6 | 23:00.40 | 4:09.45 | 103540 | 122259
7 | 27:10.10 | 3:46.70 | 122260 | 139279
8 | 30:57.05 | 5:12.30 | 139280 | 162709
9 | 36:09.35 | 3:41.45 | 162710 | 179329
10 | 39:51.05 | 3:04.15 | 179330 | 193144
11 | 42:55.20 | 4:20.15 | 193145 | 212659
12 | 47:15.35 | 3:00.20 | 212660 | 226179
13 | 50:15.55 | 5:43.45 | 226180 | 251949
14 | 55:59.25 | 8:40.50 | 251950 | 290999


Track 1

Filename E:\Own Rips\Free - Disk Union Promo Box (2002) [FLAC]\Free - Heartbreaker (1973) [FLAC] (Japan UICY-9203)\01 - Wishing Well.wav

Pre-gap length 0:00:02.00

Peak level 95.9 %
Track quality 100.0 %
Test CRC 32D4090B
Copy CRC 32D4090B
Track not present in AccurateRip database
Copy OK

Track 2

Filename E:\Own Rips\Free - Disk Union Promo Box (2002) [FLAC]\Free - Heartbreaker (1973) [FLAC] (Japan UICY-9203)\02 - Come Together In The Morning.wav

Pre-gap length 0:00:02.18

Peak level 89.4 %
Track quality 100.0 %
Test CRC FEA3E27D
Copy CRC FEA3E27D
Track not present in AccurateRip database
Copy OK

Track 3

Filename E:\Own Rips\Free - Disk Union Promo Box (2002) [FLAC]\Free - Heartbreaker (1973) [FLAC] (Japan UICY-9203)\03 - Travelling In Style.wav

Pre-gap length 0:00:03.45

Peak level 87.6 %
Track quality 100.0 %
Test CRC 314EE989
Copy CRC 314EE989
Track not present in AccurateRip database
Copy OK

Track 4

Filename E:\Own Rips\Free - Disk Union Promo Box (2002) [FLAC]\Free - Heartbreaker (1973) [FLAC] (Japan UICY-9203)\04 - Heartbreaker.wav

Peak level 93.2 %
Track quality 100.0 %
Test CRC F1D4B746
Copy CRC F1D4B746
Track not present in AccurateRip database
Copy OK

Track 5

Filename E:\Own Rips\Free - Disk Union Promo Box (2002) [FLAC]\Free - Heartbreaker (1973) [FLAC] (Japan UICY-9203)\05 - Muddy Water.wav

Pre-gap length 0:00:01.65

Peak level 94.1 %
Track quality 100.0 %
Test CRC 179C6A50
Copy CRC 179C6A50
Track not present in AccurateRip database
Copy OK

Track 6

Filename E:\Own Rips\Free - Disk Union Promo Box (2002) [FLAC]\Free - Heartbreaker (1973) [FLAC] (Japan UICY-9203)\06 - Common Mortal Man.wav

Pre-gap length 0:00:01.58

Peak level 91.8 %
Track quality 100.0 %
Test CRC 0DB63057
Copy CRC 0DB63057
Track not present in AccurateRip database
Copy OK

Track 7

Filename E:\Own Rips\Free - Disk Union Promo Box (2002) [FLAC]\Free - Heartbreaker (1973) [FLAC] (Japan UICY-9203)\07 - Easy On My Soul.wav

Pre-gap length 0:00:01.92

Peak level 93.0 %
Track quality 100.0 %
Test CRC 2FF0902F
Copy CRC 2FF0902F
Track not present in AccurateRip database
Copy OK

Track 8

Filename E:\Own Rips\Free - Disk Union Promo Box (2002) [FLAC]\Free - Heartbreaker (1973) [FLAC] (Japan UICY-9203)\08 - Seven Angels.wav

Pre-gap length 0:00:01.52

Peak level 98.2 %
Track quality 100.0 %
Test CRC DB7E09AA
Copy CRC DB7E09AA
Track not present in AccurateRip database
Copy OK

Track 9

Filename E:\Own Rips\Free - Disk Union Promo Box (2002) [FLAC]\Free - Heartbreaker (1973) [FLAC] (Japan UICY-9203)\09 - Wishing Well (US Mix).wav

Pre-gap length 0:00:07.98

Peak level 90.3 %
Track quality 100.0 %
Test CRC 7D34AE92
Copy CRC 7D34AE92
Track not present in AccurateRip database
Copy OK

Track 10

Filename E:\Own Rips\Free - Disk Union Promo Box (2002) [FLAC]\Free - Heartbreaker (1973) [FLAC] (Japan UICY-9203)\10 - Let Me Show You (Single B-side).wav

Pre-gap length 0:00:01.72

Peak level 87.4 %
Track quality 100.0 %
Test CRC F1DA62AD
Copy CRC F1DA62AD
Track not present in AccurateRip database
Copy OK

Track 11

Filename E:\Own Rips\Free - Disk Union Promo Box (2002) [FLAC]\Free - Heartbreaker (1973) [FLAC] (Japan UICY-9203)\11 - Muddy Water (Alternative Vocal).wav

Pre-gap length 0:00:02.25

Peak level 89.8 %
Track quality 100.0 %
Test CRC B10A52C2
Copy CRC B10A52C2
Track not present in AccurateRip database
Copy OK

Track 12

Filename E:\Own Rips\Free - Disk Union Promo Box (2002) [FLAC]\Free - Heartbreaker (1973) [FLAC] (Japan UICY-9203)\12 - Turn Me Round (Prospective Album track).wav

Pre-gap length 0:00:02.78

Peak level 99.0 %
Track quality 100.0 %
Test CRC 5B35F3AE
Copy CRC 5B35F3AE
Track not present in AccurateRip database
Copy OK

Track 13

Filename E:\Own Rips\Free - Disk Union Promo Box (2002) [FLAC]\Free - Heartbreaker (1973) [FLAC] (Japan UICY-9203)\13 - Heartbreaker (Rehearsal Version).wav

Pre-gap length 0:00:01.78

Peak level 88.7 %
Track quality 100.0 %
Test CRC C3A9FE29
Copy CRC C3A9FE29
Track not present in AccurateRip database
Copy OK

Track 14

Filename E:\Own Rips\Free - Disk Union Promo Box (2002) [FLAC]\Free - Heartbreaker (1973) [FLAC] (Japan UICY-9203)\14 - Easy On My Soul (Rehearsal Version).wav

Pre-gap length 0:00:03.52

Peak level 87.4 %
Track quality 99.9 %
Test CRC 2A6DD791
Copy CRC 2A6DD791
Track not present in AccurateRip database
Copy OK


None of the tracks are present in the AccurateRip database

No errors occurred

End of status report


Thanks to original ripper!


Tons of Sobs


UPLOADED Linkz

BITSHARE Linkz

DEPOSITFILES Linkz

TURBOBIT Linkz



Free


UPLOADED Linkz

BITSHARE Linkz

DEPOSITFILES Linkz

TURBOBIT Linkz



Fire And Water


UPLOADED Linkz

BITSHARE Linkz

DEPOSITFILES Linkz

TURBOBIT Linkz



Highway


UPLOADED Linkz

BITSHARE Linkz

DEPOSITFILES Linkz

TURBOBIT Linkz



Live!


UPLOADED Linkz

BITSHARE Linkz

DEPOSITFILES Linkz

TURBOBIT Linkz



Free at Last


UPLOADED Linkz

BITSHARE Linkz

DEPOSITFILES Linkz

TURBOBIT Linkz



Heartbreaker


UPLOADED Linkz

BITSHARE Linkz

DEPOSITFILES Linkz

TURBOBIT Linkz