Subcategories

Gabriel and The Apocalypse - Alpha Bionic (2019)

Posted By: delpotro
Gabriel and The Apocalypse - Alpha Bionic (2019)

Gabriel and The Apocalypse - Alpha Bionic (2019)
EAC Rip | FLAC (tracks+log+.cue) - 272 Mb | MP3 CBR 320 kbps - 89 Mb | 00:37:10
Alternative Metal, Industrial Rock, Female Vocal | Label: Pavement Entertainment

From the music inspired streets of Minneapolis, Minnesota comes the intoxicating sound of rock/industrial/goth you can dance too or if you like the pit, It works just as well for that. It’s an album that will suck you in and hold you close, while strangling you in the most comfortable way possible. YEAH, Its that good!!

With the aggression and full on energy that this band brings to the table, along with the beautiful, yet brutal voice full of aggression, this band will be a force to be reckoned with. Alpha Bionic has raised the bar and the Rock Industry better take notice that Gabriel and the Apocalypse are here to stay!

From start to finish, you can feel the energy from the instrumental flowing to her amazing voice, the story telling takes you on a ride into the future. Sexy, Brutal, and an album you can listen to front to back!

Never a lagging moment its solid all the way through. Also while digging further into this band it seemed they are all extremely dedicated to their passion while touring nonstop to making music and not slowing down anytime soon to perform and show everyone what they want you to see, which is an amazing band and album. I encourage you to check them out if they come to a town near you. They wont disappoint,

9 out of 10 Stars! Twisted Sin Radio Show
Tracklist:
01. Systematic Chaos (03:30)
02. Sonic Bionic (04:08)
03. Electro-Mechanical (04:23)
04. Cellophane Nation (04:01)
05. pointTHREE (02:57)
06. Counting Scars (03:58)
07. Bleed Me An Ocean (03:43)
08. Beds Are Burning (04:16)
09. Transcend (03:30)
10. Disgraceful Bliss (02:46)

Exact Audio Copy V1.3 from 2. September 2016

EAC extraction logfile from 8. April 2019, 19:51

Gabriel and The Apocalypse / Alpha Bionic

Used drive : MATSHITADVD-RAM UJ8E1 Adapter: 1 ID: 0

Read mode : Secure
Utilize accurate stream : Yes
Defeat audio cache : Yes
Make use of C2 pointers : No

Read offset correction : 6
Overread into Lead-In and Lead-Out : No
Fill up missing offset samples with silence : Yes
Delete leading and trailing silent blocks : No
Null samples used in CRC calculations : Yes
Used interface : Native Win32 interface for Win NT & 2000
Gap handling : Appended to previous track

Used output format : User Defined Encoder
Selected bitrate : 1024 kBit/s
Quality : High
Add ID3 tag : No
Command line compressor : C:\Program Files (x86)\Exact Audio Copy\Flac\flac.exe
Additional command line options : -8 -e -p -V -T "ARTIST=%artist%" -T "TITLE=%title%" -T "ALBUM=%albumtitle%" -T "DATE=%year%" -T "TRACKNUMBER=%tracknr%" -T "GENRE=%genre%" -T "PERFORMER=%albuminterpret%" -T "COMPOSER=%composer%" %haslyrics%–tag-from-file=LYRICS="%lyricsfile%"%haslyrics% -T "ALBUMARTIST=%albumartist%" -T "DISCNUMBER=%cdnumber%" -T "TOTALDISCS=%totalcds%" -T "TOTALTRACKS=%numtracks%" -T "COMMENT=%comment%" %source% -o %dest%


TOC of the extracted CD

Track | Start | Length | Start sector | End sector
––––––––––––––––––––––––––––-
1 | 0:00.00 | 3:29.73 | 0 | 15747
2 | 3:29.73 | 4:08.30 | 15748 | 34377
3 | 7:38.28 | 4:22.40 | 34378 | 54067
4 | 12:00.68 | 4:00.74 | 54068 | 72141
5 | 16:01.67 | 2:57.17 | 72142 | 85433
6 | 18:59.09 | 3:58.10 | 85434 | 103293
7 | 22:57.19 | 3:42.42 | 103294 | 119985
8 | 26:39.61 | 4:16.04 | 119986 | 139189
9 | 30:55.65 | 3:29.40 | 139190 | 154904
10 | 34:25.30 | 2:45.38 | 154905 | 167317


Track 1

Filename G:\Archive\Music\Properly ordered music\Rock&Metal\Gabriel and The Apocalypse\Gabriel and The Apocalypse - Alpha Bionic [FLAC] {PVMT 6088}\01 - Systematic Chaos.wav

Pre-gap length 0:00:02.00

Peak level 98.1 %
Extraction speed 2.7 X
Track quality 100.0 %
Test CRC 1E2B693D
Copy CRC 1E2B693D
Track not present in AccurateRip database
Copy OK

Track 2

Filename G:\Archive\Music\Properly ordered music\Rock&Metal\Gabriel and The Apocalypse\Gabriel and The Apocalypse - Alpha Bionic [FLAC] {PVMT 6088}\02 - Sonic Bionic.wav

Pre-gap length 0:00:01.00

Peak level 97.4 %
Extraction speed 3.0 X
Track quality 100.0 %
Test CRC BE1843EA
Copy CRC BE1843EA
Track not present in AccurateRip database
Copy OK

Track 3

Filename G:\Archive\Music\Properly ordered music\Rock&Metal\Gabriel and The Apocalypse\Gabriel and The Apocalypse - Alpha Bionic [FLAC] {PVMT 6088}\03 - Electro-Mechanical.wav

Pre-gap length 0:00:01.04

Peak level 97.3 %
Extraction speed 3.3 X
Track quality 100.0 %
Test CRC 1EA992A7
Copy CRC 1EA992A7
Track not present in AccurateRip database
Copy OK

Track 4

Filename G:\Archive\Music\Properly ordered music\Rock&Metal\Gabriel and The Apocalypse\Gabriel and The Apocalypse - Alpha Bionic [FLAC] {PVMT 6088}\04 - Cellophane Nation.wav

Pre-gap length 0:00:01.96

Peak level 97.3 %
Extraction speed 2.9 X
Track quality 99.9 %
Test CRC 0396FFF6
Copy CRC 0396FFF6
Track not present in AccurateRip database
Copy OK

Track 5

Filename G:\Archive\Music\Properly ordered music\Rock&Metal\Gabriel and The Apocalypse\Gabriel and The Apocalypse - Alpha Bionic [FLAC] {PVMT 6088}\05 - pointTHREE.wav

Pre-gap length 0:00:01.52

Peak level 97.1 %
Extraction speed 3.6 X
Track quality 100.0 %
Test CRC E0C81EBE
Copy CRC E0C81EBE
Track not present in AccurateRip database
Copy OK

Track 6

Filename G:\Archive\Music\Properly ordered music\Rock&Metal\Gabriel and The Apocalypse\Gabriel and The Apocalypse - Alpha Bionic [FLAC] {PVMT 6088}\06 - Counting Scars.wav

Pre-gap length 0:00:00.18

Peak level 97.6 %
Extraction speed 4.0 X
Track quality 100.0 %
Test CRC 5476FBA4
Copy CRC 5476FBA4
Track not present in AccurateRip database
Copy OK

Track 7

Filename G:\Archive\Music\Properly ordered music\Rock&Metal\Gabriel and The Apocalypse\Gabriel and The Apocalypse - Alpha Bionic [FLAC] {PVMT 6088}\07 - Bleed Me An Ocean.wav

Pre-gap length 0:00:02.00

Peak level 99.3 %
Extraction speed 4.1 X
Track quality 100.0 %
Test CRC 6DBEB830
Copy CRC 6DBEB830
Track not present in AccurateRip database
Copy OK

Track 8

Filename G:\Archive\Music\Properly ordered music\Rock&Metal\Gabriel and The Apocalypse\Gabriel and The Apocalypse - Alpha Bionic [FLAC] {PVMT 6088}\08 - Beds Are Burning.wav

Pre-gap length 0:00:00.66

Peak level 97.2 %
Extraction speed 4.4 X
Track quality 100.0 %
Test CRC 146FD65A
Copy CRC 146FD65A
Track not present in AccurateRip database
Copy OK

Track 9

Filename G:\Archive\Music\Properly ordered music\Rock&Metal\Gabriel and The Apocalypse\Gabriel and The Apocalypse - Alpha Bionic [FLAC] {PVMT 6088}\09 - Transcend.wav

Pre-gap length 0:00:01.44

Peak level 97.7 %
Extraction speed 4.4 X
Track quality 100.0 %
Test CRC 51487169
Copy CRC 51487169
Track not present in AccurateRip database
Copy OK

Track 10

Filename G:\Archive\Music\Properly ordered music\Rock&Metal\Gabriel and The Apocalypse\Gabriel and The Apocalypse - Alpha Bionic [FLAC] {PVMT 6088}\10 - Disgraceful Bliss.wav

Pre-gap length 0:00:02.00

Peak level 97.1 %
Extraction speed 4.4 X
Track quality 100.0 %
Test CRC F79C76BA
Copy CRC F79C76BA
Track not present in AccurateRip database
Copy OK


None of the tracks are present in the AccurateRip database

No errors occurred

End of status report

–– CUETools DB Plugin V2.1.6

[CTDB TOCID: tnbvUx5EYC0SveA8hJSAPbZzY4E-] found
Submit result: tnbvUx5EYC0SveA8hJSAPbZzY4E- has been confirmed
Track | CTDB Status
1 | (1/1) Accurately ripped
2 | (1/1) Accurately ripped
3 | (1/1) Accurately ripped
4 | (1/1) Accurately ripped
5 | (1/1) Accurately ripped
6 | (1/1) Accurately ripped
7 | (1/1) Accurately ripped
8 | (1/1) Accurately ripped
9 | (1/1) Accurately ripped
10 | (1/1) Accurately ripped


==== Log checksum AE0E2335817018149E4167F51D33102D2A8FF5E1A0BB72ACD708C04CE194AA24 ====

Thanks to the Original ripper zapahgary !