Subcategories

Gary Burton - Who Is Gary Burton? + Subtle Swing & 5 Bonus Tracks (2013) {Essential Jazz Classics EJC 55627 rec 1960-62}

Posted By: ruskaval
Gary Burton - Who Is Gary Burton? + Subtle Swing & 5 Bonus Tracks (2013) {Essential Jazz Classics EJC 55627 rec 1960-62}

Gary Burton - Who Is Gary Burton? + Subtle Swing & 5 Bonus Tracks (2013) {Essential Jazz Classics EJC 55627 rec 1960-62}
EAC rip (secure mode) | FLAC (tracks)+CUE+LOG -> 480 Mb | MP3 @320 -> 184 Mb
Full Artwork @ 600 dpi (jpg) -> 345 Mb | 5% repair rar
© 1960-62, 2013 RCA Victor / Essential Jazz Classics | EJC 55627
Jazz / Bop / Post Bop / Vibes

This edition pesents the complete Gary Burton LP Who Is Gary Burton? (RCA Victor LSP-2665), appearing here for the first time ever on CD. It showcases Burton in a septet format accompanied by such stars as Clark Terry, Phil Woods, Tommy Flanagan, and the Dave Brubeck Quartet's drummer, Joe Morello. The only five quintet tracks from Joe Morello's LP It's About Time, recorded the previous year and also featuring Burton and Woods, have been added here as a bonus. Also are include the complete original LP Subtle Swing (Sesac PM3901/3902), featuring Burton in a quintet format with the leader of the album, guitarist Hank Garland.
Gary Burton - Who Is Gary Burton? + Subtle Swing & 5 Bonus Tracks (2013) {Essential Jazz Classics EJC 55627 rec 1960-62}


PERSONNEL:
GARY BURTON, vibraphone
CLARK TERRY, trumpet
PHIL WOODS, alto sax
CHRIS SWNSEN, valvule trombone
TOMMY FLANAGAN, piano
JOHN NEVES, bass
JOE MORELLO, drums

New York, September 14 (tracks 1 & 7) & September 15 (tracks 2-6), 1962.
original sessions produced by Marty Gold.

Bonus tracks:


[8-12] Gary Burton (vib), Phil Woods (as, arr), John Bunch (p), Gene Cherico (b), Joe Morello (d).
Original sessions engineered by Ernie Oelrich and produced by George Avakian.
New York, June 6 (tracks 8-9) & June 15 (tracks 10-12), 1961.
Originally issued on the Joe Morello LP It's About Time (RCA Victor LSP2486).


Gary Burton - Who Is Gary Burton? + Subtle Swing & 5 Bonus Tracks (2013) {Essential Jazz Classics EJC 55627 rec 1960-62}


[13-22] Subtle Swing: Gary Burton (vib), Hank Garland (g), William Pursell (p), Bob Moore (b), Murray Harman (d).
Nashville, Tennessee, August 29, 1960.

INCLUDES 16 PAGE BOOKLET
Gary Burton - Who Is Gary Burton? + Subtle Swing & 5 Bonus Tracks (2013) {Essential Jazz Classics EJC 55627 rec 1960-62}


tracklist:
01 - Storm
02 - I've Just Seen Her
03 - Fly Time Fly
04 - Conception
05 - Get Away Blues
06 - My Funny Valentine
07 - One Note
08 - Time After Time
09 - Every Time
10 - Summertime
11 - Mother Time
12 - Just In Time
13 - What Am I To Do_
14 - Not For Me
15 - You're Here Again
16 - Just For Tonight
17 - Pop Goes The Weasel
18 - It's Love Of Course
19 - Unless You're In Love
20 - Close Your Eyes
21 - Rainy Afternoon
22 - Call D. Law

Exact Audio Copy V1.1 from 23. June 2015

EAC extraction logfile from 8. May 2016, 17:44

Gary Burton / Who Is Gary Burton? + Subtle Swing & 5 Bonus Tracks

Used drive : TSSTcorpCDDVDW SE-208DB Adapter: 1 ID: 0

Read mode : Secure
Utilize accurate stream : Yes
Defeat audio cache : Yes
Make use of C2 pointers : No

Read offset correction : 6
Overread into Lead-In and Lead-Out : No
Fill up missing offset samples with silence : Yes
Delete leading and trailing silent blocks : No
Null samples used in CRC calculations : Yes
Used interface : Native Win32 interface for Win NT & 2000
Gap handling : Appended to previous track

Used output format : User Defined Encoder
Selected bitrate : 1024 kBit/s
Quality : High
Add ID3 tag : No
Command line compressor : C:\Program Files (x86)\FLAC Frontend\tools\flac.exe
Additional command line options : -8 -V -T "ARTIST=%artist%" -T "TITLE=%title%" -T "ALBUM=%albumtitle%" -T "DATE=%year%" -T "TRACKNUMBER=%tracknr%" -T "TOTALTRACKS=%numtracks%" -T "GENRE=%genre%" -T "ALBUMARTIST=%albumartist%" -T "ALBUM ARTIST=%albumartist%" -T "COMMENT=EAC Secure Mode, Test & Copy, AccurateRip, FLAC -8" %source%


TOC of the extracted CD

Track | Start | Length | Start sector | End sector
––––––––––––––––––––––––––––-
1 | 0:00.00 | 4:17.07 | 0 | 19281
2 | 4:17.07 | 4:18.22 | 19282 | 38653
3 | 8:35.29 | 4:28.69 | 38654 | 58822
4 | 13:04.23 | 4:01.16 | 58823 | 76913
5 | 17:05.39 | 5:44.08 | 76914 | 102721
6 | 22:49.47 | 5:26.08 | 102722 | 127179
7 | 28:15.55 | 4:52.13 | 127180 | 149092
8 | 33:07.68 | 3:54.39 | 149093 | 166681
9 | 37:02.32 | 2:52.31 | 166682 | 179612
10 | 39:54.63 | 4:02.33 | 179613 | 197795
11 | 43:57.21 | 4:03.31 | 197796 | 216051
12 | 48:00.52 | 4:08.00 | 216052 | 234651
13 | 52:08.52 | 2:35.48 | 234652 | 246324
14 | 54:44.25 | 2:40.12 | 246325 | 258336
15 | 57:24.37 | 3:19.53 | 258337 | 273314
16 | 60:44.15 | 2:03.74 | 273315 | 282613
17 | 62:48.14 | 2:10.71 | 282614 | 292434
18 | 64:59.10 | 2:47.37 | 292435 | 304996
19 | 67:46.47 | 3:05.32 | 304997 | 318903
20 | 70:52.04 | 2:12.34 | 318904 | 328837
21 | 73:04.38 | 2:45.20 | 328838 | 341232
22 | 75:49.58 | 2:31.17 | 341233 | 352574


Track 1

Filename D:\_EAC\Gary Burton - Who Is Gary Burton + Subtle Swing & 5 Bonus Tracks (2013) [FLAC]\01 - Storm.wav

Pre-gap length 0:00:02.00

Peak level 49.7 %
Extraction speed 1.3 X
Track quality 100.0 %
Test CRC 6D368B10
Copy CRC 6D368B10
Accurately ripped (confidence 2) [60420C0E] (AR v2)
Copy OK

Track 2

Filename D:\_EAC\Gary Burton - Who Is Gary Burton + Subtle Swing & 5 Bonus Tracks (2013) [FLAC]\02 - I've Just Seen Her.wav

Peak level 49.9 %
Extraction speed 1.3 X
Track quality 99.9 %
Test CRC 5DC0E8AF
Copy CRC 5DC0E8AF
Accurately ripped (confidence 2) [68FCE33C] (AR v2)
Copy OK

Track 3

Filename D:\_EAC\Gary Burton - Who Is Gary Burton + Subtle Swing & 5 Bonus Tracks (2013) [FLAC]\03 - Fly Time Fly.wav

Peak level 54.1 %
Extraction speed 1.4 X
Track quality 99.9 %
Test CRC 2D0EB232
Copy CRC 2D0EB232
Accurately ripped (confidence 2) [6E5B2BDC] (AR v2)
Copy OK

Track 4

Filename D:\_EAC\Gary Burton - Who Is Gary Burton + Subtle Swing & 5 Bonus Tracks (2013) [FLAC]\04 - Conception.wav

Peak level 52.1 %
Extraction speed 1.7 X
Track quality 100.0 %
Test CRC 60CFC613
Copy CRC 60CFC613
Accurately ripped (confidence 2) [517A68DD] (AR v2)
Copy OK

Track 5

Filename D:\_EAC\Gary Burton - Who Is Gary Burton + Subtle Swing & 5 Bonus Tracks (2013) [FLAC]\05 - Get Away Blues.wav

Peak level 89.1 %
Extraction speed 1.9 X
Track quality 100.0 %
Test CRC 33C2F17A
Copy CRC 33C2F17A
Accurately ripped (confidence 2) [1875B306] (AR v2)
Copy OK

Track 6

Filename D:\_EAC\Gary Burton - Who Is Gary Burton + Subtle Swing & 5 Bonus Tracks (2013) [FLAC]\06 - My Funny Valentine.wav

Peak level 51.9 %
Extraction speed 2.0 X
Track quality 100.0 %
Test CRC 52DBBC08
Copy CRC 52DBBC08
Accurately ripped (confidence 2) [E3883364] (AR v2)
Copy OK

Track 7

Filename D:\_EAC\Gary Burton - Who Is Gary Burton + Subtle Swing & 5 Bonus Tracks (2013) [FLAC]\07 - One Note.wav

Peak level 63.2 %
Extraction speed 1.9 X
Track quality 99.9 %
Test CRC 585BC0A0
Copy CRC 585BC0A0
Accurately ripped (confidence 2) [D5D78FB8] (AR v2)
Copy OK

Track 8

Filename D:\_EAC\Gary Burton - Who Is Gary Burton + Subtle Swing & 5 Bonus Tracks (2013) [FLAC]\08 - Time After Time.wav

Peak level 75.7 %
Extraction speed 2.1 X
Track quality 100.0 %
Test CRC 147D9AB4
Copy CRC 147D9AB4
Accurately ripped (confidence 2) [CEC82B37] (AR v2)
Copy OK

Track 9

Filename D:\_EAC\Gary Burton - Who Is Gary Burton + Subtle Swing & 5 Bonus Tracks (2013) [FLAC]\09 - Every Time.wav

Peak level 82.7 %
Extraction speed 2.1 X
Track quality 100.0 %
Test CRC BC5A6837
Copy CRC BC5A6837
Accurately ripped (confidence 2) [DBA5CC58] (AR v2)
Copy OK

Track 10

Filename D:\_EAC\Gary Burton - Who Is Gary Burton + Subtle Swing & 5 Bonus Tracks (2013) [FLAC]\10 - Summertime.wav

Peak level 80.3 %
Extraction speed 2.3 X
Track quality 100.0 %
Test CRC 16C3E279
Copy CRC 16C3E279
Accurately ripped (confidence 2) [07CE5BAD] (AR v2)
Copy OK

Track 11

Filename D:\_EAC\Gary Burton - Who Is Gary Burton + Subtle Swing & 5 Bonus Tracks (2013) [FLAC]\11 - Mother Time.wav

Peak level 63.6 %
Extraction speed 2.3 X
Track quality 100.0 %
Test CRC 3F7BF507
Copy CRC 3F7BF507
Accurately ripped (confidence 2) [4151D14B] (AR v2)
Copy OK

Track 12

Filename D:\_EAC\Gary Burton - Who Is Gary Burton + Subtle Swing & 5 Bonus Tracks (2013) [FLAC]\12 - Just In Time.wav

Peak level 66.1 %
Extraction speed 2.1 X
Track quality 99.9 %
Test CRC D6442F57
Copy CRC D6442F57
Accurately ripped (confidence 2) [BDFD1F26] (AR v2)
Copy OK

Track 13

Filename D:\_EAC\Gary Burton - Who Is Gary Burton + Subtle Swing & 5 Bonus Tracks (2013) [FLAC]\13 - What Am I To Do_.wav

Peak level 98.8 %
Extraction speed 2.3 X
Track quality 100.0 %
Test CRC 4AC2806F
Copy CRC 4AC2806F
Accurately ripped (confidence 2) [D7D34615] (AR v2)
Copy OK

Track 14

Filename D:\_EAC\Gary Burton - Who Is Gary Burton + Subtle Swing & 5 Bonus Tracks (2013) [FLAC]\14 - Not For Me.wav

Peak level 98.8 %
Extraction speed 2.3 X
Track quality 100.0 %
Test CRC 8BDF6A09
Copy CRC 8BDF6A09
Accurately ripped (confidence 2) [5C880D4A] (AR v2)
Copy OK

Track 15

Filename D:\_EAC\Gary Burton - Who Is Gary Burton + Subtle Swing & 5 Bonus Tracks (2013) [FLAC]\15 - You're Here Again.wav

Peak level 98.8 %
Extraction speed 2.4 X
Track quality 100.0 %
Test CRC 8AE0D280
Copy CRC 8AE0D280
Accurately ripped (confidence 2) [3EEDC8AD] (AR v2)
Copy OK

Track 16

Filename D:\_EAC\Gary Burton - Who Is Gary Burton + Subtle Swing & 5 Bonus Tracks (2013) [FLAC]\16 - Just For Tonight.wav

Peak level 98.8 %
Extraction speed 2.3 X
Track quality 100.0 %
Test CRC 4F869157
Copy CRC 4F869157
Accurately ripped (confidence 2) [BB364C1C] (AR v2)
Copy OK

Track 17

Filename D:\_EAC\Gary Burton - Who Is Gary Burton + Subtle Swing & 5 Bonus Tracks (2013) [FLAC]\17 - Pop Goes The Weasel.wav

Peak level 98.8 %
Extraction speed 2.3 X
Track quality 100.0 %
Test CRC 55EA3204
Copy CRC 55EA3204
Accurately ripped (confidence 2) [E3B8544D] (AR v2)
Copy OK

Track 18

Filename D:\_EAC\Gary Burton - Who Is Gary Burton + Subtle Swing & 5 Bonus Tracks (2013) [FLAC]\18 - It's Love Of Course.wav

Peak level 98.8 %
Extraction speed 2.5 X
Track quality 100.0 %
Test CRC 4FCB44A5
Copy CRC 4FCB44A5
Accurately ripped (confidence 2) [6A13FC7E] (AR v2)
Copy OK

Track 19

Filename D:\_EAC\Gary Burton - Who Is Gary Burton + Subtle Swing & 5 Bonus Tracks (2013) [FLAC]\19 - Unless You're In Love.wav

Peak level 98.8 %
Extraction speed 2.6 X
Track quality 100.0 %
Test CRC 0D2385BC
Copy CRC 0D2385BC
Accurately ripped (confidence 2) [BDD59342] (AR v2)
Copy OK

Track 20

Filename D:\_EAC\Gary Burton - Who Is Gary Burton + Subtle Swing & 5 Bonus Tracks (2013) [FLAC]\20 - Close Your Eyes.wav

Peak level 98.8 %
Extraction speed 2.0 X
Track quality 99.9 %
Test CRC 3E1843E8
Copy CRC 3E1843E8
Accurately ripped (confidence 2) [4416C0CE] (AR v2)
Copy OK

Track 21

Filename D:\_EAC\Gary Burton - Who Is Gary Burton + Subtle Swing & 5 Bonus Tracks (2013) [FLAC]\21 - Rainy Afternoon.wav

Peak level 98.1 %
Extraction speed 2.6 X
Track quality 100.0 %
Test CRC C8A51356
Copy CRC C8A51356
Accurately ripped (confidence 2) [62D06834] (AR v2)
Copy OK

Track 22

Filename D:\_EAC\Gary Burton - Who Is Gary Burton + Subtle Swing & 5 Bonus Tracks (2013) [FLAC]\22 - Call D. Law.wav

Peak level 98.8 %
Extraction speed 2.6 X
Track quality 100.0 %
Test CRC 589C4831
Copy CRC 589C4831
Accurately ripped (confidence 2) [CB12A227] (AR v2)
Copy OK


All tracks accurately ripped

No errors occurred

End of status report

==== Log checksum 5D67445A2FEF1F340BB447292FD0A432965D4F89CA5BA45FEF8130C09269F395 ====


Gary Burton - Who Is Gary Burton? + Subtle Swing & 5 Bonus Tracks (2013) {Essential Jazz Classics EJC 55627 rec 1960-62}

Gary Burton - Who Is Gary Burton? + Subtle Swing & 5 Bonus Tracks (2013) {Essential Jazz Classics EJC 55627 rec 1960-62}


thanks to Mal for artwork…