Subcategories

George Haslam, Richard Leigh Harris, Steve Kershaw featuring Lol Coxhill - From Whichford Hill (2008)

Posted By: Domestos
George Haslam, Richard Leigh Harris, Steve Kershaw featuring Lol Coxhill - From Whichford Hill (2008)

George Haslam, Richard Leigh Harris, Steve Kershaw featuring Lol Coxhill - From Whichford Hill (2008)
EAC Rip | FLAC (tracks+.cue, log) ~ 293.24 Mb | 57:38 | Cover
Avant-Garde Jazz, Free Improvisation | Label: Slam Productions - SLAMCD 323

When the Oxford Jazz Masters Series was conceived Lol Coxhill was naturally in the first list of guest “Masters”; we made sure that such a concert would be recorded for future release – and here it is. Live at the Holywell Music Room, Oxford, March 2006. With George Haslam, Richard Leigh Harris and Steve Kershaw.

Baritone Saxophone, Tárogató – George Haslam (tracks: 1, 2, 4, 5)
Double Bass – Steve Kershaw (tracks: 1, 2, 4, 5)
Piano – Richard Leigh Harris (tracks: 1, 2, 4, 5)
Soprano Saxophone – Lol Coxhill

Recorded on 12 March 2006 at the Holywell Music Room, Oxford

Track List:
1 From Whichford Hill 13:33
2 The Waltz Of The Happy Buddhas 8:27
3 Alone And Unnoted 13:15
4 All In One Uphill 15:47
5 Forward; Forward; Forward, Stupid Criminals! 10:46

Exact Audio Copy V1.0 beta 3 from 29. August 2011

EAC extraction logfile from 16. March 2018, 13:16

George Haslam / From Whichford Hill

Used drive : ASUS DRW-24F1ST a Adapter: 0 ID: 0

Read mode : Secure
Utilize accurate stream : Yes
Defeat audio cache : Yes
Make use of C2 pointers : No

Read offset correction : 6
Overread into Lead-In and Lead-Out : No
Fill up missing offset samples with silence : Yes
Delete leading and trailing silent blocks : No
Null samples used in CRC calculations : Yes
Used interface : Native Win32 interface for Win NT & 2000
Gap handling : Appended to previous track

Used output format : User Defined Encoder
Selected bitrate : 320 kBit/s
Quality : High
Add ID3 tag : No
Command line compressor : D:\Programs\Exact Audio Copy\Flac\flac.exe
Additional command line options : -V -8 -T "Genre=%genre%" -T "Artist=%artist%" -T "Title=%title%" -T "Album=%albumtitle%" -T "Date=%year%" -T "Tracknumber=%tracknr%" -T "Comment=%comment%" %source%

TOC of the extracted CD

Track | Start | Length | Start sector | End sector
––––––––––––––––––––––––––––-
1 | 0:00.00 | 11:33.53 | 0 | 52027
2 | 11:33.53 | 8:03.21 | 52028 | 88273
3 | 19:36.74 | 12:35.39 | 88274 | 144937
4 | 32:12.38 | 15:21.74 | 144938 | 214086
5 | 47:34.37 | 10:03.09 | 214087 | 259320

Track 1

Filename C:\Users\user\Intel\Downloads\01 From Whichford Hill.wav

Pre-gap length 0:00:02.00

Peak level 100.0 %
Extraction speed 2.0 X
Track quality 100.0 %
Test CRC D96C6109
Copy CRC D96C6109
Track not present in AccurateRip database
Copy OK

Track 2

Filename C:\Users\user\Intel\Downloads\02 The Waltz Of The Happy Buddhas.wav

Peak level 99.1 %
Extraction speed 2.4 X
Track quality 100.0 %
Test CRC 1237790B
Copy CRC 1237790B
Track not present in AccurateRip database
Copy OK

Track 3

Filename C:\Users\user\Intel\Downloads\03 Alone And Unnoted.wav

Peak level 99.9 %
Extraction speed 2.9 X
Track quality 100.0 %
Test CRC 245963DA
Copy CRC 245963DA
Track not present in AccurateRip database
Copy OK

Track 4

Filename C:\Users\user\Intel\Downloads\04 All In One Uphill.wav

Peak level 100.0 %
Extraction speed 3.2 X
Track quality 99.9 %
Test CRC 53462884
Copy CRC 53462884
Track not present in AccurateRip database
Copy OK

Track 5

Filename C:\Users\user\Intel\Downloads\05 Forward, Forward, Forward, Stupid Criminals.wav

Peak level 99.9 %
Extraction speed 3.6 X
Track quality 100.0 %
Test CRC 36EF6EDB
Copy CRC 36EF6EDB
Track not present in AccurateRip database
Copy OK

None of the tracks are present in the AccurateRip database

No errors occurred

End of status report

==== Log checksum 9343E21838D0D5ECC38FD98CC282474671708B0455329DD1A5B7B5F46592F0F7 ====

All thanks go to the 4idyach

More Music in My Blog
Follow My RSS Channel