Subcategories

George Hamilton IV - Abilene (1963) & Canadian Pacific (1969) {2on1 Morello Records MRLL 75 rel 2017}

Posted By: ruskaval
George Hamilton IV - Abilene (1963) & Canadian Pacific (1969) {2on1 Morello Records MRLL 75 rel 2017}

George Hamilton IV - Abilene (1963) & Canadian Pacific (1969) {2on1 Morello Records MRLL 75 rel 2017}
EAC rip (secure mode) | FLAC (tracks)+CUE+LOG -> 418 Mb | MP3 @320 -> 148 Mb
Full Artwork @ 300 dpi (png) -> 32 Mb | 5% repair rar
© 1963, 1969, 2017 Morello Records / RCA Victor / Sony Music | MRLL 75
Country / Country Folk / Folk / Country-Pop / Nashville Sound

A pair of albums from the overlooked George Hamilton IV – back to back on a single CD! First up is Abilene – a seminal album from the great George Hamilton IV – a richly-voiced singer on 60s RCA, and one who was maybe a key link between Nashville and some of the folk boom of the time! George's music is definitely country, but it's also got maybe some of the younger appeal of the other scene – still given some of the RCA polish that Chet Atkins could bring, but delivered with a voice that might have been equally at home in a coffee house. Titles include the classic "Abilene", plus "The Little Lunch Box", "The Everglades", "Tender Hearted Baby", "Jimmy Brown The Newsboy", and "Come On Home Boy".

Despite an unassuming cover and title, Canadian Pacific is a surprisingly hip record, especially for late 60s RCA – as George Hamilton moves past the usual Nashville songwriters, to feature work by Leonard Cohen, Gordon Lightfoot, Joni Mitchell, and Bruce Cockburn! That choice of material showcases the ties that George always had to some of the more folk-oriented scene – even though he was always handled by RCA in a country sort of way – and it's great to hear Hamilton's versions of tunes like "Sisters Of Mercy", "Both Sides Now", "Together Alone", "Long Thin Dawn", "Good Mornin Rain", and "Home From The Forest".
George Hamilton IV - Abilene (1963) & Canadian Pacific (1969) {2on1 Morello Records MRLL 75 rel 2017}

• George Hamilton IV was born July 19th 1937 and died September 17th 2014.

• His two most popular and best-selling albums coupled together for the first time on one CD.

• “Canadian Pacific” appears for the first time on CD.

• George’s success was internationally widespread, with Canada, Europe and the British Isles all becoming regular stomping grounds – with the last, well and truly a second home. It was such activities that earned him the title International Ambassador of Country Music.

• The “Abilene” album was released in 1963. The title track reached No. 1 on the Billboard Country Singles charts remaining there for 4 weeks and staying on the charts for a total of 24 weeks.

• “Canadian Pacific” was released in 1969 and due to its continuing popularity entered the UK album charts two years later in 1971. The album featured all Canadian songwriters, Gordon Lightfoot, Leonard Cohen, Buffy Sainte-Marie, Joni Mitchell, Hank Snow, Bruce Cockburn, Ian Tyson and the writer of the title track, Ray Griff. The album contains three Billboard country hits, ‘Steel Rail Blues’, ‘Early Mornin’ Rain’ and ‘Canadian Pacific’.
George Hamilton IV - Abilene (1963) & Canadian Pacific (1969) {2on1 Morello Records MRLL 75 rel 2017}


Track Listing

Abilene (1963)

1. The Roving Gambler
2. China Doll
3. (I Want to Go) Where Nobody Knows Me
4. The Everglades
5. Oh So Many Years
6. Come On Home Boy
7. Jimmy Brown The Newsboy
8. Abilene
9. The Little Lunch Box
10. If You Don't Know I Ain't Gonna Tell You
11. Tender Hearted Baby
12. You Are My Sunshine

Canadian Pacific (1969)
13. Canadian Pacific
14. I'm Gonna Be A Country Boy Again
15. Shake The Dust
16. Together Alone
17. Steel Rail Blues
18. Both Sides Now
19. Sisters Of Mercy
20. Early Mornin' Rain
21. My Nova Scotia Home
22. Summer Wages
23. Long Thin Dawn
24. Home From The Forest

Exact Audio Copy V1.3 from 2. September 2016

EAC extraction logfile from 23. November 2017, 20:19

George Hamilton IV / Abilene / Canadian Pacific

Used drive : TSSTcorpCDDVDW SH-224BB Adapter: 1 ID: 0

Read mode : Secure
Utilize accurate stream : Yes
Defeat audio cache : Yes
Make use of C2 pointers : No

Read offset correction : 6
Overread into Lead-In and Lead-Out : No
Fill up missing offset samples with silence : Yes
Delete leading and trailing silent blocks : No
Null samples used in CRC calculations : Yes
Used interface : Native Win32 interface for Win NT & 2000
Gap handling : Appended to previous track

Used output format : User Defined Encoder
Selected bitrate : 768 kBit/s
Quality : High
Add ID3 tag : No
Command line compressor : C:\Program Files (x86)\Exact Audio Copy\Flac\flac.exe
Additional command line options : -8 -V -T "ARTIST=%artist%" -T "TITLE=%title%" -T "ALBUM=%albumtitle%" -T "DATE=%year%" -T "TRACKNUMBER=%tracknr%" -T "TOTALTRACKS=%numtracks%" -T "GENRE=%genre%" -T "ALBUMARTIST=%albumartist%" -T "ALBUM ARTIST=%albumartist%" -T "COMMENT=EAC Secure Mode, Test & Copy, AccurateRip, FLAC -8" %source%


TOC of the extracted CD

Track | Start | Length | Start sector | End sector
––––––––––––––––––––––––––––-
1 | 0:00.00 | 2:23.69 | 0 | 10793
2 | 2:23.69 | 2:39.46 | 10794 | 22764
3 | 5:03.40 | 2:36.14 | 22765 | 34478
4 | 7:39.54 | 2:12.02 | 34479 | 44380
5 | 9:51.56 | 2:48.61 | 44381 | 57041
6 | 12:40.42 | 2:45.14 | 57042 | 69430
7 | 15:25.56 | 2:26.18 | 69431 | 80398
8 | 17:51.74 | 2:14.27 | 80399 | 90475
9 | 20:06.26 | 2:03.43 | 90476 | 99743
10 | 22:09.69 | 2:48.06 | 99744 | 112349
11 | 24:58.00 | 1:57.19 | 112350 | 121143
12 | 26:55.19 | 2:13.04 | 121144 | 131122
13 | 29:08.23 | 3:24.36 | 131123 | 146458
14 | 32:32.59 | 1:58.36 | 146459 | 155344
15 | 34:31.20 | 2:35.39 | 155345 | 167008
16 | 37:06.59 | 3:12.72 | 167009 | 181480
17 | 40:19.56 | 2:39.19 | 181481 | 193424
18 | 42:59.00 | 3:24.36 | 193425 | 208760
19 | 46:23.36 | 3:02.42 | 208761 | 222452
20 | 49:26.03 | 2:47.52 | 222453 | 235029
21 | 52:13.55 | 2:25.02 | 235030 | 245906
22 | 54:38.57 | 3:32.70 | 245907 | 261876
23 | 58:11.52 | 2:40.27 | 261877 | 273903
24 | 60:52.04 | 3:20.10 | 273904 | 288913


Track 1

Filename C:\Rips\George Hamilton IV - Abilene (1963) & Canadian Pacific (1969) [FLAC] (2on1 2017)\01 - The Roving Gambler.wav

Pre-gap length 0:00:02.00

Peak level 100.0 %
Extraction speed 1.6 X
Track quality 100.0 %
Test CRC 1A8FD35B
Copy CRC 1A8FD35B
Track not present in AccurateRip database
Copy OK

Track 2

Filename C:\Rips\George Hamilton IV - Abilene (1963) & Canadian Pacific (1969) [FLAC] (2on1 2017)\02 - China Doll.wav

Pre-gap length 0:00:01.57

Peak level 100.0 %
Extraction speed 1.8 X
Track quality 100.0 %
Test CRC 33C694A5
Copy CRC 33C694A5
Track not present in AccurateRip database
Copy OK

Track 3

Filename C:\Rips\George Hamilton IV - Abilene (1963) & Canadian Pacific (1969) [FLAC] (2on1 2017)\03 - (I Want To Go) Where Nobody Knows Me.wav

Pre-gap length 0:00:01.57

Peak level 100.0 %
Extraction speed 1.8 X
Track quality 100.0 %
Test CRC D7043C57
Copy CRC D7043C57
Track not present in AccurateRip database
Copy OK

Track 4

Filename C:\Rips\George Hamilton IV - Abilene (1963) & Canadian Pacific (1969) [FLAC] (2on1 2017)\04 - The Everglades.wav

Pre-gap length 0:00:01.57

Peak level 100.0 %
Extraction speed 1.9 X
Track quality 100.0 %
Test CRC F89785BB
Copy CRC F89785BB
Track not present in AccurateRip database
Copy OK

Track 5

Filename C:\Rips\George Hamilton IV - Abilene (1963) & Canadian Pacific (1969) [FLAC] (2on1 2017)\05 - Oh So Many Years.wav

Pre-gap length 0:00:01.57

Peak level 100.0 %
Extraction speed 2.1 X
Track quality 100.0 %
Test CRC 35AAEB48
Copy CRC 35AAEB48
Track not present in AccurateRip database
Copy OK

Track 6

Filename C:\Rips\George Hamilton IV - Abilene (1963) & Canadian Pacific (1969) [FLAC] (2on1 2017)\06 - Come On Home Boy.wav

Pre-gap length 0:00:01.57

Peak level 100.0 %
Extraction speed 2.2 X
Track quality 100.0 %
Test CRC 49B7DEA5
Copy CRC 49B7DEA5
Track not present in AccurateRip database
Copy OK

Track 7

Filename C:\Rips\George Hamilton IV - Abilene (1963) & Canadian Pacific (1969) [FLAC] (2on1 2017)\07 - Jimmy Brown The Newsboy.wav

Pre-gap length 0:00:01.57

Peak level 100.0 %
Extraction speed 2.2 X
Track quality 100.0 %
Test CRC F5C910B4
Copy CRC F5C910B4
Track not present in AccurateRip database
Copy OK

Track 8

Filename C:\Rips\George Hamilton IV - Abilene (1963) & Canadian Pacific (1969) [FLAC] (2on1 2017)\08 - Abilene.wav

Pre-gap length 0:00:01.57

Peak level 100.0 %
Extraction speed 2.2 X
Track quality 100.0 %
Test CRC 27074433
Copy CRC 27074433
Track not present in AccurateRip database
Copy OK

Track 9

Filename C:\Rips\George Hamilton IV - Abilene (1963) & Canadian Pacific (1969) [FLAC] (2on1 2017)\09 - The Little Lunch Box.wav

Pre-gap length 0:00:01.57

Peak level 100.0 %
Extraction speed 2.2 X
Track quality 100.0 %
Test CRC 36BBD5DA
Copy CRC 36BBD5DA
Track not present in AccurateRip database
Copy OK

Track 10

Filename C:\Rips\George Hamilton IV - Abilene (1963) & Canadian Pacific (1969) [FLAC] (2on1 2017)\10 - If You Dont Know I Aint Gonna Tell You.wav

Pre-gap length 0:00:01.57

Peak level 100.0 %
Extraction speed 2.5 X
Track quality 100.0 %
Test CRC 29A4220A
Copy CRC 29A4220A
Track not present in AccurateRip database
Copy OK

Track 11

Filename C:\Rips\George Hamilton IV - Abilene (1963) & Canadian Pacific (1969) [FLAC] (2on1 2017)\11 - Tender Hearted Baby.wav

Pre-gap length 0:00:01.57

Peak level 100.0 %
Extraction speed 2.4 X
Track quality 100.0 %
Test CRC BDB053A6
Copy CRC BDB053A6
Track not present in AccurateRip database
Copy OK

Track 12

Filename C:\Rips\George Hamilton IV - Abilene (1963) & Canadian Pacific (1969) [FLAC] (2on1 2017)\12 - You Are My Sunshine.wav

Pre-gap length 0:00:01.57

Peak level 100.0 %
Extraction speed 2.5 X
Track quality 100.0 %
Test CRC 7BBE9ACF
Copy CRC 7BBE9ACF
Track not present in AccurateRip database
Copy OK

Track 13

Filename C:\Rips\George Hamilton IV - Abilene (1963) & Canadian Pacific (1969) [FLAC] (2on1 2017)\13 - Canadian Pacific.wav

Pre-gap length 0:00:01.57

Peak level 100.0 %
Extraction speed 2.1 X
Track quality 99.9 %
Test CRC 6B397F56
Copy CRC 6B397F56
Track not present in AccurateRip database
Copy OK

Track 14

Filename C:\Rips\George Hamilton IV - Abilene (1963) & Canadian Pacific (1969) [FLAC] (2on1 2017)\14 - I'm Gonna Be A Country Boy Again.wav

Pre-gap length 0:00:01.57

Peak level 100.0 %
Extraction speed 2.5 X
Track quality 100.0 %
Test CRC F8EF4E23
Copy CRC F8EF4E23
Track not present in AccurateRip database
Copy OK

Track 15

Filename C:\Rips\George Hamilton IV - Abilene (1963) & Canadian Pacific (1969) [FLAC] (2on1 2017)\15 - Shake The Dust.wav

Pre-gap length 0:00:01.57

Peak level 100.0 %
Extraction speed 2.8 X
Track quality 100.0 %
Test CRC D61AC64B
Copy CRC D61AC64B
Track not present in AccurateRip database
Copy OK

Track 16

Filename C:\Rips\George Hamilton IV - Abilene (1963) & Canadian Pacific (1969) [FLAC] (2on1 2017)\16 - Together Alone.wav

Pre-gap length 0:00:01.57

Peak level 100.0 %
Extraction speed 2.9 X
Track quality 100.0 %
Test CRC 2F1990DF
Copy CRC 2F1990DF
Track not present in AccurateRip database
Copy OK

Track 17

Filename C:\Rips\George Hamilton IV - Abilene (1963) & Canadian Pacific (1969) [FLAC] (2on1 2017)\17 - Steel Rail Blues.wav

Pre-gap length 0:00:01.57

Peak level 100.0 %
Extraction speed 2.9 X
Track quality 100.0 %
Test CRC 977A8425
Copy CRC 977A8425
Track not present in AccurateRip database
Copy OK

Track 18

Filename C:\Rips\George Hamilton IV - Abilene (1963) & Canadian Pacific (1969) [FLAC] (2on1 2017)\18 - Both Sides Now.wav

Pre-gap length 0:00:01.57

Peak level 100.0 %
Extraction speed 2.3 X
Track quality 99.9 %
Test CRC 0702D1D4
Copy CRC 0702D1D4
Track not present in AccurateRip database
Copy OK

Track 19

Filename C:\Rips\George Hamilton IV - Abilene (1963) & Canadian Pacific (1969) [FLAC] (2on1 2017)\19 - Sisters Of Mercy.wav

Pre-gap length 0:00:01.57

Peak level 100.0 %
Extraction speed 2.2 X
Track quality 99.9 %
Test CRC CDE84961
Copy CRC CDE84961
Track not present in AccurateRip database
Copy OK

Track 20

Filename C:\Rips\George Hamilton IV - Abilene (1963) & Canadian Pacific (1969) [FLAC] (2on1 2017)\20 - Early Mornin' Rain.wav

Pre-gap length 0:00:01.57

Peak level 100.0 %
Extraction speed 3.1 X
Track quality 100.0 %
Test CRC B4E2A161
Copy CRC B4E2A161
Track not present in AccurateRip database
Copy OK

Track 21

Filename C:\Rips\George Hamilton IV - Abilene (1963) & Canadian Pacific (1969) [FLAC] (2on1 2017)\21 - My Nova Scotia Home.wav

Pre-gap length 0:00:01.57

Peak level 100.0 %
Extraction speed 3.1 X
Track quality 100.0 %
Test CRC 1768CF62
Copy CRC 1768CF62
Track not present in AccurateRip database
Copy OK

Track 22

Filename C:\Rips\George Hamilton IV - Abilene (1963) & Canadian Pacific (1969) [FLAC] (2on1 2017)\22 - Summer Wages.wav

Pre-gap length 0:00:01.57

Peak level 100.0 %
Extraction speed 3.4 X
Track quality 100.0 %
Test CRC 7CDAF086
Copy CRC 7CDAF086
Track not present in AccurateRip database
Copy OK

Track 23

Filename C:\Rips\George Hamilton IV - Abilene (1963) & Canadian Pacific (1969) [FLAC] (2on1 2017)\23 - Long Thin Dawn.wav

Pre-gap length 0:00:01.57

Peak level 100.0 %
Extraction speed 2.2 X
Track quality 99.9 %
Test CRC 9C0C7588
Copy CRC 9C0C7588
Track not present in AccurateRip database
Copy OK

Track 24

Filename C:\Rips\George Hamilton IV - Abilene (1963) & Canadian Pacific (1969) [FLAC] (2on1 2017)\24 - Home From The Forest.wav

Pre-gap length 0:00:01.57

Peak level 100.0 %
Extraction speed 3.5 X
Track quality 100.0 %
Test CRC 62DA09E7
Copy CRC 62DA09E7
Track not present in AccurateRip database
Copy OK


None of the tracks are present in the AccurateRip database

No errors occurred

End of status report

–– CUETools DB Plugin V2.1.6

[CTDB TOCID: l9Miu5ed1wTSoNXOtvyHph30cOY-] found
Submit result: already submitted
Track | CTDB Status
1 | (1/1) Accurately ripped
2 | (1/1) Accurately ripped
3 | (1/1) Accurately ripped
4 | (1/1) Accurately ripped
5 | (1/1) Accurately ripped
6 | (1/1) Accurately ripped
7 | (1/1) Accurately ripped
8 | (1/1) Accurately ripped
9 | (1/1) Accurately ripped
10 | (1/1) Accurately ripped
11 | (1/1) Accurately ripped
12 | (1/1) Accurately ripped
13 | (1/1) Accurately ripped
14 | (1/1) Accurately ripped
15 | (1/1) Accurately ripped
16 | (1/1) Accurately ripped
17 | (1/1) Accurately ripped
18 | (1/1) Accurately ripped
19 | (1/1) Accurately ripped
20 | (1/1) Accurately ripped
21 | (1/1) Accurately ripped
22 | (1/1) Accurately ripped
23 | (1/1) Accurately ripped
24 | (1/1) Accurately ripped


==== Log checksum 4E6C644C8438772D4EC9320B1BD68C76AD51DAFE0F4679EBDDC5DC88EB1975EC ====


George Hamilton IV - Abilene (1963) & Canadian Pacific (1969) {2on1 Morello Records MRLL 75 rel 2017}

George Hamilton IV - Abilene (1963) & Canadian Pacific (1969) {2on1 Morello Records MRLL 75 rel 2017}



===