George Jones - A Picture Of Me (Without You) (1972) & Nothing Ever Hurt Me (2009)

Posted By: rotyguuw
George Jones - A Picture Of Me (Without You) (1972) & Nothing Ever Hurt Me (2009)

George Jones - A Picture Of Me (Without You) (1972) & Nothing Ever Hurt Me (2009)
1 CD | EAC rip | FLAC (tracks + cue + log) | Scans Included | 335 MB
Genre: Country | Label: AMERICAN BEAT

With no biographical material needed for the iconic George Jones, let s get right to the music: 'A Picture Of Me (Without You)' is quite simply a George Jones masterpiece! Working with producer Billy Sherrill for the first time, Jones found the perfect foil to his now-famous hard honky tonk soul, Sherrill didn t try to tame Jones, but just lasso him in enough to make beautiful music. With many of the finest Nashville songwriters contributing songs, this five-star release (All Music Guide) is called by many the perfect George Jones album. Not to be outdone by its predecessor, Nothing 'Ever Hurt Me (Half As Bad As You)' (Jones second album with producer Billy Sherrill) picks up right where 'A Picture Of Me' left off and never looks back. Another five-star album (All Music Guide), Jones also scored a pair of Top 10 hits with this release (the title track and 'What MyWoman Can t Do'). This is George Jones at his best, and it's on American Beat Records!

Tracklisting

A Picture Of Me (Without You) (1972)

1. A Picture of Me (Without You)
2. The Man Worth Lovin' You
3. She Knows What She's Crying About
4. Second Handed Flower
5. That Singing Friend of Mine
6. She Loves Me (Right Out of Mind)
7. Tomorrow Never Comes
8. Another Way To Say Goodbye
9. On the Back Row
10. Let There Be a Woman
11. We Found a Match

Nothing Ever Hurt Me (Half As Bad As Losing You) (1973)

12. Nothing Ever Hurt Me (Half As Bad As Losing You)
13. You're Looking At a Happy Man
14. Never Having You
15. Made For the Blues
16. What's Your Mama's Name
17. Mom and Dad's Waltz
18. You'll Never Grow Old (To Me)
19. What My Woman Can't Do
20. My Loving Wife
21. Love Lives Again
22. Wine (You've Used Me Long Enough)

Exact Audio Copy V0.99 prebeta 4 from 23. January 2008

EAC extraction logfile from 30. July 2010, 10:26

George Jones / A Picture Of Me & Nothing Ever Hurt Me

Used drive : BENQ DVD DC DW1670 Adapter: 1 ID: 0

Read mode : Secure
Utilize accurate stream : Yes
Defeat audio cache : Yes
Make use of C2 pointers : No

Read offset correction : 102
Overread into Lead-In and Lead-Out : No
Fill up missing offset samples with silence : Yes
Delete leading and trailing silent blocks : No
Null samples used in CRC calculations : Yes
Used interface : Installed external ASPI interface
Gap handling : Appended to previous track

Used output format : User Defined Encoder
Selected bitrate : 256 kBit/s
Quality : High
Add ID3 tag : No
Command line compressor : C:\Program\FLAC\flac.exe
Additional command line options : -8 -V -T "ARTIST=%a" -T "TITLE=%t" -T "ALBUM=%g" -T "DATE=%y" -T "TRACKNUMBER=%n" -T "GENRE=%m" -T "COMMENT=EAC FLAC -8" %s


TOC of the extracted CD

Track | Start | Length | Start sector | End sector
––––––––––––––––––––––––––––-
1 | 0:00.00 | 2:31.24 | 0 | 11348
2 | 2:31.24 | 2:37.02 | 11349 | 23125
3 | 5:08.26 | 2:44.19 | 23126 | 35444
4 | 7:52.45 | 3:12.73 | 35445 | 49917
5 | 11:05.43 | 3:02.67 | 49918 | 63634
6 | 14:08.35 | 2:58.24 | 63635 | 77008
7 | 17:06.59 | 2:18.11 | 77009 | 87369
8 | 19:24.70 | 2:47.41 | 87370 | 99935
9 | 22:12.36 | 3:05.36 | 99936 | 113846
10 | 25:17.72 | 2:33.35 | 113847 | 125356
11 | 27:51.32 | 2:50.10 | 125357 | 138116
12 | 30:41.42 | 2:19.41 | 138117 | 148582
13 | 33:01.08 | 2:09.17 | 148583 | 158274
14 | 35:10.25 | 2:34.53 | 158275 | 169877
15 | 37:45.03 | 2:36.59 | 169878 | 181636
16 | 40:21.62 | 2:40.43 | 181637 | 193679
17 | 43:02.30 | 2:51.64 | 193680 | 206568
18 | 45:54.19 | 2:52.71 | 206569 | 219539
19 | 48:47.15 | 2:35.59 | 219540 | 231223
20 | 51:22.74 | 2:47.49 | 231224 | 243797
21 | 54:10.48 | 2:21.71 | 243798 | 254443
22 | 56:32.44 | 2:35.40 | 254444 | 266108


Track 1

Filename C:\Documents and Settings\ellroy\Skrivbord\George Jones - A Picture Of Me (1972) & Nothing Ever Hurt Me (1973) [FLAC] (2on1 2009)\01 - A Picture Of Me (Without You).wav

Pre-gap length 0:00:02.00

Peak level 99.9 %
Track quality 100.0 %
Test CRC E82D2FFA
Copy CRC E82D2FFA
Track not present in AccurateRip database
Copy OK

Track 2

Filename C:\Documents and Settings\ellroy\Skrivbord\George Jones - A Picture Of Me (1972) & Nothing Ever Hurt Me (1973) [FLAC] (2on1 2009)\02 - The Man Worth Lovin' You.wav

Pre-gap length 0:00:00.89

Peak level 100.0 %
Track quality 100.0 %
Test CRC ACAA5663
Copy CRC ACAA5663
Track not present in AccurateRip database
Copy OK

Track 3

Filename C:\Documents and Settings\ellroy\Skrivbord\George Jones - A Picture Of Me (1972) & Nothing Ever Hurt Me (1973) [FLAC] (2on1 2009)\03 - She Knows What She's Crying About.wav

Pre-gap length 0:00:00.32

Peak level 100.0 %
Track quality 100.0 %
Test CRC 98F76DCC
Copy CRC 98F76DCC
Track not present in AccurateRip database
Copy OK

Track 4

Filename C:\Documents and Settings\ellroy\Skrivbord\George Jones - A Picture Of Me (1972) & Nothing Ever Hurt Me (1973) [FLAC] (2on1 2009)\04 - Second Handed Flowers.wav

Pre-gap length 0:00:00.45

Peak level 100.0 %
Track quality 100.0 %
Test CRC F2D1BC72
Copy CRC F2D1BC72
Track not present in AccurateRip database
Copy OK

Track 5

Filename C:\Documents and Settings\ellroy\Skrivbord\George Jones - A Picture Of Me (1972) & Nothing Ever Hurt Me (1973) [FLAC] (2on1 2009)\05 - That Singing Friend Of Mine.wav

Pre-gap length 0:00:00.66

Peak level 99.9 %
Track quality 100.0 %
Test CRC 315F7CEC
Copy CRC 315F7CEC
Track not present in AccurateRip database
Copy OK

Track 6

Filename C:\Documents and Settings\ellroy\Skrivbord\George Jones - A Picture Of Me (1972) & Nothing Ever Hurt Me (1973) [FLAC] (2on1 2009)\06 - She Loves Me (Right Out Of My Mind).wav

Pre-gap length 0:00:00.64

Peak level 100.0 %
Track quality 99.9 %
Test CRC 95A78435
Copy CRC 95A78435
Track not present in AccurateRip database
Copy OK

Track 7

Filename C:\Documents and Settings\ellroy\Skrivbord\George Jones - A Picture Of Me (1972) & Nothing Ever Hurt Me (1973) [FLAC] (2on1 2009)\07 - Tomorrow Never Comes.wav

Pre-gap length 0:00:00.09

Peak level 100.0 %
Track quality 99.9 %
Test CRC 91B231F4
Copy CRC 91B231F4
Track not present in AccurateRip database
Copy OK

Track 8

Filename C:\Documents and Settings\ellroy\Skrivbord\George Jones - A Picture Of Me (1972) & Nothing Ever Hurt Me (1973) [FLAC] (2on1 2009)\08 - Another Way To Say Goodbye.wav

Pre-gap length 0:00:00.46

Peak level 100.0 %
Track quality 100.0 %
Test CRC 257B1D8D
Copy CRC 257B1D8D
Track not present in AccurateRip database
Copy OK

Track 9

Filename C:\Documents and Settings\ellroy\Skrivbord\George Jones - A Picture Of Me (1972) & Nothing Ever Hurt Me (1973) [FLAC] (2on1 2009)\09 - On The Back Row.wav

Pre-gap length 0:00:00.42

Peak level 99.9 %
Track quality 100.0 %
Test CRC 710624C5
Copy CRC 710624C5
Track not present in AccurateRip database
Copy OK

Track 10

Filename C:\Documents and Settings\ellroy\Skrivbord\George Jones - A Picture Of Me (1972) & Nothing Ever Hurt Me (1973) [FLAC] (2on1 2009)\10 - Let There Be A Woman.wav

Pre-gap length 0:00:00.98

Peak level 99.9 %
Track quality 100.0 %
Test CRC 1ACA4DAD
Copy CRC 1ACA4DAD
Track not present in AccurateRip database
Copy OK

Track 11

Filename C:\Documents and Settings\ellroy\Skrivbord\George Jones - A Picture Of Me (1972) & Nothing Ever Hurt Me (1973) [FLAC] (2on1 2009)\11 - We Found A Match.wav

Pre-gap length 0:00:00.42

Peak level 100.0 %
Track quality 100.0 %
Test CRC 83434FC0
Copy CRC 83434FC0
Track not present in AccurateRip database
Copy OK

Track 12

Filename C:\Documents and Settings\ellroy\Skrivbord\George Jones - A Picture Of Me (1972) & Nothing Ever Hurt Me (1973) [FLAC] (2on1 2009)\12 - Nothing Ever Hurt Me (Half As Bad As Losing You).wav

Pre-gap length 0:00:00.22

Peak level 100.0 %
Track quality 100.0 %
Test CRC 0EF454FF
Copy CRC 0EF454FF
Track not present in AccurateRip database
Copy OK

Track 13

Filename C:\Documents and Settings\ellroy\Skrivbord\George Jones - A Picture Of Me (1972) & Nothing Ever Hurt Me (1973) [FLAC] (2on1 2009)\13 - You're Looking At A Happy Man.wav

Pre-gap length 0:00:00.04

Peak level 100.0 %
Track quality 100.0 %
Test CRC 5C85ACFF
Copy CRC 5C85ACFF
Track not present in AccurateRip database
Copy OK

Track 14

Filename C:\Documents and Settings\ellroy\Skrivbord\George Jones - A Picture Of Me (1972) & Nothing Ever Hurt Me (1973) [FLAC] (2on1 2009)\14 - Never Having You.wav

Pre-gap length 0:00:00.88

Peak level 99.9 %
Track quality 99.9 %
Test CRC B493EA81
Copy CRC B493EA81
Track not present in AccurateRip database
Copy OK

Track 15

Filename C:\Documents and Settings\ellroy\Skrivbord\George Jones - A Picture Of Me (1972) & Nothing Ever Hurt Me (1973) [FLAC] (2on1 2009)\15 - Made For The Blues.wav

Pre-gap length 0:00:00.81

Peak level 100.0 %
Track quality 100.0 %
Test CRC F218EBA7
Copy CRC F218EBA7
Track not present in AccurateRip database
Copy OK

Track 16

Filename C:\Documents and Settings\ellroy\Skrivbord\George Jones - A Picture Of Me (1972) & Nothing Ever Hurt Me (1973) [FLAC] (2on1 2009)\16 - What's Your Mama's Name.wav

Pre-gap length 0:00:00.18

Peak level 100.0 %
Track quality 100.0 %
Test CRC 3FC0FE01
Copy CRC 3FC0FE01
Track not present in AccurateRip database
Copy OK

Track 17

Filename C:\Documents and Settings\ellroy\Skrivbord\George Jones - A Picture Of Me (1972) & Nothing Ever Hurt Me (1973) [FLAC] (2on1 2009)\17 - Mom And Dads Waltz.wav

Pre-gap length 0:00:00.96

Peak level 100.0 %
Track quality 100.0 %
Test CRC 2F5D5F49
Copy CRC 2F5D5F49
Track not present in AccurateRip database
Copy OK

Track 18

Filename C:\Documents and Settings\ellroy\Skrivbord\George Jones - A Picture Of Me (1972) & Nothing Ever Hurt Me (1973) [FLAC] (2on1 2009)\18 - You'll Never Grow Old (To Me).wav

Pre-gap length 0:00:01.76

Peak level 99.9 %
Track quality 100.0 %
Test CRC 83D8F109
Copy CRC 83D8F109
Track not present in AccurateRip database
Copy OK

Track 19

Filename C:\Documents and Settings\ellroy\Skrivbord\George Jones - A Picture Of Me (1972) & Nothing Ever Hurt Me (1973) [FLAC] (2on1 2009)\19 - What My Woman Can't Do.wav

Pre-gap length 0:00:00.13

Peak level 89.6 %
Track quality 100.0 %
Test CRC 0BADB442
Copy CRC 0BADB442
Track not present in AccurateRip database
Copy OK

Track 20

Filename C:\Documents and Settings\ellroy\Skrivbord\George Jones - A Picture Of Me (1972) & Nothing Ever Hurt Me (1973) [FLAC] (2on1 2009)\20 - My Loving Wife.wav

Pre-gap length 0:00:00.84

Peak level 99.9 %
Track quality 100.0 %
Test CRC EC5B81F1
Copy CRC EC5B81F1
Track not present in AccurateRip database
Copy OK

Track 21

Filename C:\Documents and Settings\ellroy\Skrivbord\George Jones - A Picture Of Me (1972) & Nothing Ever Hurt Me (1973) [FLAC] (2on1 2009)\21 - Love Lives Again.wav

Pre-gap length 0:00:01.25

Peak level 99.9 %
Track quality 100.0 %
Test CRC DC5612C0
Copy CRC DC5612C0
Track not present in AccurateRip database
Copy OK

Track 22

Filename C:\Documents and Settings\ellroy\Skrivbord\George Jones - A Picture Of Me (1972) & Nothing Ever Hurt Me (1973) [FLAC] (2on1 2009)\22 - Wine (You've Used Me Long Enough).wav

Pre-gap length 0:00:00.74

Peak level 99.9 %
Track quality 100.0 %
Test CRC EDBBD5FF
Copy CRC EDBBD5FF
Track not present in AccurateRip database
Copy OK


None of the tracks are present in the AccurateRip database

No errors occurred

End of status report