Subcategories

Gilad Atzmon - In Loving Memory Of America (2009)

Posted By: Domestos
Gilad Atzmon - In Loving Memory Of America (2009)

Gilad Atzmon - In Loving Memory Of America (2009)
EAC Rip | FLAC (image+.cue, log) ~ 283.22 Mb | 51:30 | Cover
Modern Creative | Country: London, England | Label: Enja Records ‎– TIP 888 850 2

This is an outstanding album. Reed man Gilad Atzmon has taken five standards, re-interpreting the versions recorded with strings by Charlie Parker, added six of his own compositions, and created an original, supremely enjoyable and affecting piece of work. The album's title refers to an imagined land—the country that Atzmon envisaged when, as a 17 year-old in Israel, he first heard Charlie Parker playing "April in Paris" and fell in love with jazz and America. According to his liner notes, this is not the America that Atzmon sees today, where jazz is no longer a revolutionary music, but it is still the home of his "priests" and "heroes." In Loving Memory of America is a fitting tribute to those artists.

This is not an album that slavishly copies the sound of Parker with an orchestra. That sound is an inspiration for the album, and Atzmon's arrangements of the standards bear a clear resemblance to the originals, but there is no attempt to play solos note for note, to recreate the sound of the '50s orchestra or to ignore the 60 years that have passed since the first of Parker's recordings. Indeed, two of Atzmon's own compositions—"In Loving Memory of America" and "Refuge," a reworking of "My Refuge" from Refuge (Enja, 2007)—show some of the composer's contemporary influences, and stand in marked contrast to the rest of the album, the former layering free-form sax, scat singing, street sounds and Fender Rhodes over a heavy percussive beat.

Instead of using a full string section Atzmon collaborates here with the Sigamos String Quartet. The result is a more open, pared-down, sound which gives the jazz musicians space while still managing to create a rich and full sound on tracks including "musiK."

The album's rhythm section adapts beautifully to everything Atzmon's arrangements ask of them. This is particularly true of "What is This Thing Called Love". Drummer Asaf Sirkis restrained funk and bassist Yaron Stavi underpin Frank Harrison's Fender Rhodes, Atzmon's sax and a beautiful, flowing performance by the strings to create perhaps the finest track on the album. By contrast, "Call Me Stupid, Ungrateful, Vicious and Insatiable," an Atzmon composition which also appears as a song on singer Sarah Gillespie's Stalking Juliet (EGEA, 2009), rests the rhythm section in favor of emotive interplay between Atzmon's clarinet and the Sigamos Quartet. "Tu Tu Tango" references "Everything Happens to Me" and creates images of Leonard Bernstein's West Side Story, before and after its tango rhythms take centre stage.

This is an imaginative, emotionally engaging tribute to Atzmon's earliest jazz influences, featuring some extremely skillful and stylish playing—a class act from everyone involved. ~ Review By BRUCE LINDSAY

Gilad Atzmon saxophones, clarinet
Frank Harrison piano
Yaron Stavi bass
Asaf Sirkis drums

Sigamos String Quartet:
Ros Stephen violin
Emil Chakalov violin
Rachel Robson viola
Daisy Vatalaro cello

Track List:
1. Everything Happens To Me
2. If I Should Lose You
3. musiK
4. What Is This Thing Called Love
5. Call Me Stupid, Ungrateful, Vicious and Insatiable
6. I Didn't Know What Time It Was
7. In The Small Hours
8. Tu Tu Tango
9. April In Paris
10. In Loving Memory of America
11. Refuge

Exact Audio Copy V0.99 prebeta 5 from 4. May 2009

EAC extraction logfile from 18. October 2009, 12:40

Gilad Atzmon / In Loving Memory of America

Used drive : TSSTcorpCD/DVDW SH-S182M Adapter: 2 ID: 0

Read mode : Secure
Utilize accurate stream : Yes
Defeat audio cache : Yes
Make use of C2 pointers : No

Read offset correction : 6
Overread into Lead-In and Lead-Out : No
Fill up missing offset samples with silence : Yes
Delete leading and trailing silent blocks : No
Null samples used in CRC calculations : Yes
Used interface : Installed external ASPI interface

Used output format : User Defined Encoder
Selected bitrate : 1024 kBit/s
Quality : High
Add ID3 tag : No
Command line compressor : C:\Program Files\FLAC\flac.exe
Additional command line options : -6 -V -T "ARTIST=%a" -T "TITLE=%t" -T "ALBUM=%g" -T "DATE=%y" -T "TRACKNUMBER=%n" -T "GENRE=%m" -T "COMMENT=EAC FLAC -6" %s

TOC of the extracted CD

Track | Start | Length | Start sector | End sector
––––––––––––––––––––––––––––-
1 | 0:00.00 | 4:01.02 | 0 | 18076
2 | 4:01.02 | 3:46.59 | 18077 | 35085
3 | 7:47.61 | 6:16.64 | 35086 | 63349
4 | 14:04.50 | 7:30.35 | 63350 | 97134
5 | 21:35.10 | 4:44.35 | 97135 | 118469
6 | 26:19.45 | 6:32.00 | 118470 | 147869
7 | 32:51.45 | 5:22.22 | 147870 | 172041
8 | 38:13.67 | 4:57.36 | 172042 | 194352
9 | 43:11.28 | 3:19.35 | 194353 | 209312
10 | 46:30.63 | 1:42.14 | 209313 | 216976
11 | 48:13.02 | 3:17.10 | 216977 | 231761

Range status and errors

Selected range

Filename C:\Documents and Settings\Igor\My Documents\My Music\eac\Gilad Atzmon - In Loving Memory of America.wav

Peak level 94.7 %
Range quality 100.0 %
Test CRC 3F0AB3C5
Copy CRC 3F0AB3C5
Copy OK

No errors occurred

AccurateRip summary

Track 1 not present in database
Track 2 not present in database
Track 3 not present in database
Track 4 not present in database
Track 5 not present in database
Track 6 not present in database
Track 7 not present in database
Track 8 not present in database
Track 9 not present in database
Track 10 not present in database
Track 11 not present in database

None of the tracks are present in the AccurateRip database

End of status report

All thanks go to the ivoronen

More Music in My Blog
Follow My RSS Channel