Subcategories

David Gilmour - Live In Gdansk (2008) [3CD+2DVD] {Limited Edition} + Wot's...Uh The Deal? (missing "Gdansk" track) [repost]

Posted By: ruskaval
David Gilmour - Live In Gdansk (2008) [3CD+2DVD] {Limited Edition} + Wot's...Uh The Deal? (missing "Gdansk" track) [repost]

David Gilmour - Live In Gdansk (2008) [3CD+2DVD] {Columbia Limited Edition} + Wot's…Uh The Deal? (The missing "Gdansk" track)
EAC rip (secure mode) | FLAC (tracks)+CUE+LOG -> 1.37 Gb | MP3 @320 -> 555 Mb
2xDVD9 -> 11.7 Gb | All Regions | NTSC 16:9 | English (Dolby AC3, 2 ch / Dolby AC3, 6 ch) | ~ 4h49m | ISO Images
Subs: English, Francais, Espanol, Portugues, Japanese, Chinese
Full Artwork @ 600 dpi (png) -> 705 Mb | 5% repair rar
© 2008 Columbia / DG / Sony BMG Music | 88697345482 DC1 / 88697 36939 2
Rock / Art Rock / Prog Rock

David Gilmour's Live in Gdansk was recorded and filmed in 2006 at the Polish city's shipyards, the very same historic location where Lech Walesa's Solidarity movement began its populist assault on the country's repressive Soviet-installed regime in 1980. By all accounts of the time it was a truly awesome multimedia spectacle. But there are strange and sad ironies that accompany this release as well. For starters, it was released in the U.K. exactly a week after the death of Richard Wright, Gilmour's longtime bandmate in Pink Floyd, and his keyboardist here.
David Gilmour - Live In Gdansk (2008) [3CD+2DVD] {Limited Edition} + Wot's...Uh The Deal? (missing "Gdansk" track) [repost]

Secondly, it appears during a period of increased tension between Russia and the United States over the latter's proposed missile defense system to be placed in Poland (by the U.S.) and the country's intended membership in NATO. But there is nothing bittersweet about the music to be found on this double-disc package (one of six different packages that document the event and the tour – apparently nobody told Gilmour the recording industry was in an economic crisis). On this version, two and a half hours document the entire concert. Gilmour's band – Wright, Roxy Music guitarist Phil Manzanera, keyboardist Jon Carin, bassist Guy Pratt, drummer Steve DiStanislao, and saxophonist Dick Parry – is accompanied by the Baltic Philharmonic Symphony Orchestra, including its 40-piece string section, conducted by Zbigniew Preisner (who did the arrangements on Gilmour's On an Island album).
David Gilmour - Live In Gdansk (2008) [3CD+2DVD] {Limited Edition} + Wot's...Uh The Deal? (missing "Gdansk" track) [repost]

While cynics can debate the pretentious of this date forever, everyone else can enjoy an utterly engaging, entertaining, and sometimes emotionally moving performance of Gilmour's entire On an Island album and a boxful of Pink Floyd hits to boot. The first disc begins with Floyd's Dark Side of the Moon suite of "Speak to Me," "Breathe," and "Time," and comes to a close with the reprise of the opening track. With the orchestra accompanying the band, the dreaminess and spaciness of the original music miraculously comes through, and Gilmour is in fine voice as well. The rest of disc one is taken up by an almost totally in-sequence performance of On an Island. The live version of the album rocks more, perhaps because of the steady presence of Manzanera, who adds extra punch to Gilmour's airy bluesy one on guitar. This is especially true on "Take a Breath," when his crunchy, crackling power chords come off like something from his own Diamond Head album; his solo against the counterpoint of the orchestra makes it one of the set's true rockist highlights.
David Gilmour - Live In Gdansk (2008) [3CD+2DVD] {Limited Edition} + Wot's...Uh The Deal? (missing "Gdansk" track) [repost]

Disc two is comprised entirely of performances of Pink Floyd tunes from albums as diverse as Atom Heart Mother ( "Fat Old Sun" ), Wish You Were Here ( "Shine on You Crazy Diamond" and its title track), The Piper at the Gates of Dawn ( "Astronomy Domine" ), Meddle ( "Echoes" ), The Wall( "Comfortably Numb" ), and The Division Bell ( "A Great Day for Freedom" ). The performances are not terribly spontaneous in part because of the orchestral arrangements, but they are flawless (again, Manzanera's presence adds some real muscle) and, given the sheer quality of the sound, they have plenty of presence and warmth despite being recorded in front of a concert audience. This set may be strictly for Gilmour and Pink Floyd fans, but as such, for all its packaging pomp (it's green though: carbon-neutral cardboard wallets for all the different packages), it feels like something historic and beautifully considered as well as executed. It would have been amazing to be in that audience. [This five-disc Special Edition includes two CDs, two DVDs, and an additional bonus CD that consists of BBC and Live at AOL sessions as well as the Barn Jam.]
David Gilmour - Live In Gdansk (2008) [3CD+2DVD] {Limited Edition} + Wot's...Uh The Deal? (missing "Gdansk" track) [repost]


tracklist:
DISC 1 - CD

01. Speak To Me (1:22)
02. Breathe (In The Air) (2:48)
03. Time (5:37)
04. Breathe (In The Air) (reprise) (1:31)
05. Castellorizon (3:46)
06. On An Island (7:26)
07. The Blue (6:38)
08. Red Sky At Night (3:02)
09. This Heaven (4:32)
10. Then I Close My Eyes (7:41)
11. Smile (4:25)
12. Take A Breath (6:47)
13. A Pocketful Of Stones (5:40)
14. Where We Start (8:01)

DISC 2 - CD
01. Shine On You Crazy Diamond (12:06)
02. Astronomy Domine (5:02)
03. Fat Old Sun (6:39)
04. High Hopes (9:57)
05. Echoes (25:25)
06. Wish You Were Here (5:15)
07. A Great Day For Freedom (5:56)
08. Comfortably Numb (9:22)

DISC 3 - DVD
* Live In Gdansk - Concert (152 mins)
01. Castellorizon
02. On An Island
03. The Blue
04. Red Sky At Night
05. This Heaven
06. Then I Close My Eyes
07. Smile
08. Take A Breath
09. A Pocketful Of Stones
10. Where We Start
11. Astronomy Domine
12. High Hopes
13. Echoes
14. A Great Day For Freedom
15. Comfortably Numb
* Gdansk Diary - Documentary (37 mins)

DISC 4 - DVD
* Live At The Mermaid Theatre, London, March 2006
01. Shine On You Crazy Diamond
02. Wearing The Inside Out
03. Comfortably Numb
* Live From The AOL Sessions, New York, April 2006
04. On An Island
05. High Hopes
* Live From Abbey Road, London, August 2006
06. The Blue
07. Take A Breath
08. Echoes (Acoustic)
* Recorded Live In The UK, January 2007
09. Barn Jam 166
10. Barn Jam 192
11. Barn Jam 121
* On An Island - Album (5.1 Surround Sound) [AUDIO ONLY]
01. Castellorizon
02. On An Island
03. The Blue
04. Take A Breath
05. Red Sky At Night
06. This Heaven
07. Then I Close My Eyes
08. Smile
09. A Pocketful Of Stones
10. Where We Start

DISC 5 - CD
* Bonus Tracks From The 'On An Island' Tour, 2006
01. Shine On You Crazy Diamond (13:08)
02. Dominoes (4:52)
03. The Blue (6:20)
04. Take A Breath (6:43)
05. Wish You Were Here (5:17)
06. Coming Back To Life (7:09)
07. Find The Cost Of Freedom (1:27)
08. This Heaven (4:27)
09. Wearing The Inside Out (7:31)
10. A Pocketful Of Stones (6:26)
11. Where We Start (7:36)
12. On The Turning Away (6:06)

David Gilmour - Live In Gdansk (2008) [3CD+2DVD] {Limited Edition} + Wot's...Uh The Deal? (missing "Gdansk" track) [repost]

David Gilmour - Wot's…Uh The Deal? Live In Gdansk (2008) (The Missing Track)

"Wot's…Uh The Deal?" is the missing track from the CD release of David Gilmour's 2008 album, "Live In Gdansk". This track was only included on the vinyl release of the album & also on this bonus CD.

01 - Wot's…Uh The Deal?

David Gilmour - Live In Gdansk (2008) [3CD+2DVD] {Limited Edition} + Wot's...Uh The Deal? (missing "Gdansk" track) [repost]

David Gilmour - Live In Gdansk (2008) [3CD+2DVD] {Limited Edition} + Wot's...Uh The Deal? (missing "Gdansk" track) [repost]


Exact Audio Copy V0.99 prebeta 4 from 23. January 2008

EAC extraction logfile from 27. September 2008, 12:01

David Gilmour / Live In Gdansk (Disc 1)

Used drive : HL-DT-STDVDRAM GSA-H10N Adapter: 0 ID: 0

Read mode : Secure
Utilize accurate stream : Yes
Defeat audio cache : Yes
Make use of C2 pointers : No

Read offset correction : 667
Overread into Lead-In and Lead-Out : No
Fill up missing offset samples with silence : Yes
Delete leading and trailing silent blocks : No
Null samples used in CRC calculations : Yes
Used interface : Installed external ASPI interface
Gap handling : Appended to previous track

Used output format : User Defined Encoder
Selected bitrate : 32 kBit/s
Quality : High
Add ID3 tag : No
Command line compressor : D:\Program Files\FLAC\flac.exe
Additional command line options : -8 -V -T "ARTIST=%a" -T "INFO=" -T "TITLE=%t" -T "ALBUM=%g" -T "DATE=%y" -T "TRACKNUMBER=%n" -T "T/R=R" -T "GENRE=%m" -T "COMMENT=EAC FLAC -8" %s


TOC of the extracted CD

Track | Start | Length | Start sector | End sector
––––––––––––––––––––––––––––-
1 | 0:00.00 | 1:22.65 | 0 | 6214
2 | 1:22.65 | 2:48.51 | 6215 | 18865
3 | 4:11.41 | 5:37.55 | 18866 | 44195
4 | 9:49.21 | 1:31.63 | 44196 | 51083
5 | 11:21.09 | 3:46.74 | 51084 | 68107
6 | 15:08.08 | 7:26.31 | 68108 | 101588
7 | 22:34.39 | 6:38.50 | 101589 | 131488
8 | 29:13.14 | 3:02.48 | 131489 | 145186
9 | 32:15.62 | 4:32.67 | 145187 | 165653
10 | 36:48.54 | 7:41.71 | 165654 | 200299
11 | 44:30.50 | 4:25.45 | 200300 | 220219
12 | 48:56.20 | 6:47.03 | 220220 | 250747
13 | 55:43.23 | 5:40.55 | 250748 | 276302
14 | 61:24.03 | 8:01.10 | 276303 | 312387


Track 1

Filename G:\MUSIC\David Gilmour - Live In Gdansk (2008) (5-Disc)\Disc 1 - CD\01 - Speak To Me.wav

Pre-gap length 0:00:02.00

Peak level 85.6 %
Track quality 100.0 %
Test CRC 21FD73B8
Copy CRC 21FD73B8
Track not present in AccurateRip database
Copy OK

Track 2

Filename G:\MUSIC\David Gilmour - Live In Gdansk (2008) (5-Disc)\Disc 1 - CD\02 - Breathe (In The Air).wav

Peak level 100.0 %
Track quality 99.9 %
Test CRC 1CAE2AAE
Copy CRC 1CAE2AAE
Track not present in AccurateRip database
Copy OK

Track 3

Filename G:\MUSIC\David Gilmour - Live In Gdansk (2008) (5-Disc)\Disc 1 - CD\03 - Time.wav

Peak level 100.0 %
Track quality 100.0 %
Test CRC 98018223
Copy CRC 98018223
Track not present in AccurateRip database
Copy OK

Track 4

Filename G:\MUSIC\David Gilmour - Live In Gdansk (2008) (5-Disc)\Disc 1 - CD\04 - Breathe (In The Air) (reprise).wav

Peak level 100.0 %
Track quality 100.0 %
Test CRC 61BE6BC5
Copy CRC 61BE6BC5
Track not present in AccurateRip database
Copy OK

Track 5

Filename G:\MUSIC\David Gilmour - Live In Gdansk (2008) (5-Disc)\Disc 1 - CD\05 - Castellorizon.wav

Peak level 82.7 %
Track quality 100.0 %
Test CRC 9844C041
Copy CRC 9844C041
Track not present in AccurateRip database
Copy OK

Track 6

Filename G:\MUSIC\David Gilmour - Live In Gdansk (2008) (5-Disc)\Disc 1 - CD\06 - On An Island.wav

Peak level 100.0 %
Track quality 100.0 %
Test CRC 9505988E
Copy CRC 9505988E
Track not present in AccurateRip database
Copy OK

Track 7

Filename G:\MUSIC\David Gilmour - Live In Gdansk (2008) (5-Disc)\Disc 1 - CD\07 - The Blue.wav

Peak level 100.0 %
Track quality 100.0 %
Test CRC D817A525
Copy CRC D817A525
Track not present in AccurateRip database
Copy OK

Track 8

Filename G:\MUSIC\David Gilmour - Live In Gdansk (2008) (5-Disc)\Disc 1 - CD\08 - Red Sky At Night.wav

Peak level 76.4 %
Track quality 99.9 %
Test CRC 61D3C8E6
Copy CRC 61D3C8E6
Track not present in AccurateRip database
Copy OK

Track 9

Filename G:\MUSIC\David Gilmour - Live In Gdansk (2008) (5-Disc)\Disc 1 - CD\09 - This Heaven.wav

Peak level 100.0 %
Track quality 100.0 %
Test CRC A9FF4797
Copy CRC A9FF4797
Track not present in AccurateRip database
Copy OK

Track 10

Filename G:\MUSIC\David Gilmour - Live In Gdansk (2008) (5-Disc)\Disc 1 - CD\10 - Then I Close My Eyes.wav

Peak level 92.2 %
Track quality 100.0 %
Test CRC 24678188
Copy CRC 24678188
Track not present in AccurateRip database
Copy OK

Track 11

Filename G:\MUSIC\David Gilmour - Live In Gdansk (2008) (5-Disc)\Disc 1 - CD\11 - Smile.wav

Peak level 100.0 %
Track quality 100.0 %
Test CRC 151E98B5
Copy CRC 151E98B5
Track not present in AccurateRip database
Copy OK

Track 12

Filename G:\MUSIC\David Gilmour - Live In Gdansk (2008) (5-Disc)\Disc 1 - CD\12 - Take A Breath.wav

Peak level 100.0 %
Track quality 100.0 %
Test CRC E8084F70
Copy CRC E8084F70
Track not present in AccurateRip database
Copy OK

Track 13

Filename G:\MUSIC\David Gilmour - Live In Gdansk (2008) (5-Disc)\Disc 1 - CD\13 - A Pocketful Of Stones.wav

Peak level 93.9 %
Track quality 100.0 %
Test CRC FAE58732
Copy CRC FAE58732
Track not present in AccurateRip database
Copy OK

Track 14

Filename G:\MUSIC\David Gilmour - Live In Gdansk (2008) (5-Disc)\Disc 1 - CD\14 - Where We Start.wav

Peak level 100.0 %
Track quality 100.0 %
Test CRC 62CE2A0E
Copy CRC 62CE2A0E
Track not present in AccurateRip database
Copy OK


None of the tracks are present in the AccurateRip database

No errors occurred

End of status report


Exact Audio Copy V0.99 prebeta 4 from 23. January 2008

EAC extraction logfile from 27. September 2008, 12:35

David Gilmour / Live In Gdansk (Disc 2)

Used drive : HL-DT-STDVDRAM GSA-H10N Adapter: 0 ID: 0

Read mode : Secure
Utilize accurate stream : Yes
Defeat audio cache : Yes
Make use of C2 pointers : No

Read offset correction : 667
Overread into Lead-In and Lead-Out : No
Fill up missing offset samples with silence : Yes
Delete leading and trailing silent blocks : No
Null samples used in CRC calculations : Yes
Used interface : Installed external ASPI interface
Gap handling : Appended to previous track

Used output format : User Defined Encoder
Selected bitrate : 32 kBit/s
Quality : High
Add ID3 tag : No
Command line compressor : D:\Program Files\FLAC\flac.exe
Additional command line options : -8 -V -T "ARTIST=%a" -T "INFO=" -T "TITLE=%t" -T "ALBUM=%g" -T "DATE=%y" -T "TRACKNUMBER=%n" -T "T/R=R" -T "GENRE=%m" -T "COMMENT=EAC FLAC -8" %s


TOC of the extracted CD

Track | Start | Length | Start sector | End sector
––––––––––––––––––––––––––––-
1 | 0:00.00 | 12:06.64 | 0 | 54513
2 | 12:06.64 | 5:02.27 | 54514 | 77190
3 | 17:09.16 | 6:39.43 | 77191 | 107158
4 | 23:48.59 | 9:57.25 | 107159 | 151958
5 | 33:46.09 | 25:25.40 | 151959 | 266373
6 | 59:11.49 | 5:15.28 | 266374 | 290026
7 | 64:27.02 | 5:56.08 | 290027 | 316734
8 | 70:23.10 | 9:22.23 | 316735 | 358907


Track 1

Filename G:\MUSIC\David Gilmour - Live In Gdansk (2008) (5-Disc)\Disc 2 - CD\01 - Shine On You Crazy Diamond.wav

Pre-gap length 0:00:02.00

Peak level 100.0 %
Track quality 99.9 %
Test CRC 44BDBD9B
Copy CRC 44BDBD9B
Track not present in AccurateRip database
Copy OK

Track 2

Filename G:\MUSIC\David Gilmour - Live In Gdansk (2008) (5-Disc)\Disc 2 - CD\02 - Astronomy Domine.wav

Peak level 100.0 %
Track quality 100.0 %
Test CRC E1415E9A
Copy CRC E1415E9A
Track not present in AccurateRip database
Copy OK

Track 3

Filename G:\MUSIC\David Gilmour - Live In Gdansk (2008) (5-Disc)\Disc 2 - CD\03 - Fat Old Sun.wav

Peak level 100.0 %
Track quality 100.0 %
Test CRC 11C03756
Copy CRC 11C03756
Track not present in AccurateRip database
Copy OK

Track 4

Filename G:\MUSIC\David Gilmour - Live In Gdansk (2008) (5-Disc)\Disc 2 - CD\04 - High Hopes.wav

Peak level 100.0 %
Track quality 100.0 %
Test CRC 0D079E75
Copy CRC 0D079E75
Track not present in AccurateRip database
Copy OK

Track 5

Filename G:\MUSIC\David Gilmour - Live In Gdansk (2008) (5-Disc)\Disc 2 - CD\05 - Echoes.wav

Peak level 100.0 %
Track quality 100.0 %
Test CRC EE17B242
Copy CRC EE17B242
Track not present in AccurateRip database
Copy OK

Track 6

Filename G:\MUSIC\David Gilmour - Live In Gdansk (2008) (5-Disc)\Disc 2 - CD\06 - Wish You Were Here.wav

Peak level 100.0 %
Track quality 100.0 %
Test CRC F8F05989
Copy CRC F8F05989
Track not present in AccurateRip database
Copy OK

Track 7

Filename G:\MUSIC\David Gilmour - Live In Gdansk (2008) (5-Disc)\Disc 2 - CD\07 - A Great Day For Freedom.wav

Peak level 100.0 %
Track quality 100.0 %
Test CRC 7D5ABE0D
Copy CRC 7D5ABE0D
Track not present in AccurateRip database
Copy OK

Track 8

Filename G:\MUSIC\David Gilmour - Live In Gdansk (2008) (5-Disc)\Disc 2 - CD\08 - Comfortably Numb.wav

Peak level 100.0 %
Track quality 100.0 %
Test CRC 19A84BF7
Copy CRC 19A84BF7
Track not present in AccurateRip database
Copy OK


None of the tracks are present in the AccurateRip database

No errors occurred

End of status report


Exact Audio Copy V0.99 prebeta 4 from 23. January 2008

EAC extraction logfile from 27. September 2008, 13:21

David Gilmour / Live In Gdansk (Disc 5)

Used drive : HL-DT-STDVDRAM GSA-H10N Adapter: 0 ID: 0

Read mode : Secure
Utilize accurate stream : Yes
Defeat audio cache : Yes
Make use of C2 pointers : No

Read offset correction : 667
Overread into Lead-In and Lead-Out : No
Fill up missing offset samples with silence : Yes
Delete leading and trailing silent blocks : No
Null samples used in CRC calculations : Yes
Used interface : Installed external ASPI interface
Gap handling : Appended to previous track

Used output format : User Defined Encoder
Selected bitrate : 32 kBit/s
Quality : High
Add ID3 tag : No
Command line compressor : D:\Program Files\FLAC\flac.exe
Additional command line options : -8 -V -T "ARTIST=%a" -T "INFO=" -T "TITLE=%t" -T "ALBUM=%g" -T "DATE=%y" -T "TRACKNUMBER=%n" -T "T/R=R" -T "GENRE=%m" -T "COMMENT=EAC FLAC -8" %s


TOC of the extracted CD

Track | Start | Length | Start sector | End sector
––––––––––––––––––––––––––––-
1 | 0:00.00 | 13:08.67 | 0 | 59166
2 | 13:08.67 | 4:52.54 | 59167 | 81120
3 | 18:01.46 | 6:20.55 | 81121 | 109675
4 | 24:22.26 | 6:43.06 | 109676 | 139906
5 | 31:05.32 | 5:17.10 | 139907 | 163691
6 | 36:22.42 | 7:09.50 | 163692 | 195916
7 | 43:32.17 | 1:27.14 | 195917 | 202455
8 | 44:59.31 | 4:27.18 | 202456 | 222498
9 | 49:26.49 | 7:31.68 | 222499 | 256391
10 | 56:58.42 | 6:26.55 | 256392 | 285396
11 | 63:25.22 | 7:36.46 | 285397 | 319642
12 | 71:01.68 | 6:06.09 | 319643 | 347101


Track 1

Filename G:\MUSIC\David Gilmour - Live In Gdansk (2008) (5-Disc)\Disc 5 - CD\01 - Shine On You Crazy Diamond.wav

Pre-gap length 0:00:02.00

Peak level 100.0 %
Track quality 100.0 %
Test CRC 1DDAB200
Copy CRC 1DDAB200
Track not present in AccurateRip database
Copy OK

Track 2

Filename G:\MUSIC\David Gilmour - Live In Gdansk (2008) (5-Disc)\Disc 5 - CD\02 - Dominoes.wav

Peak level 100.0 %
Track quality 100.0 %
Test CRC 65740EC9
Copy CRC 65740EC9
Track not present in AccurateRip database
Copy OK

Track 3

Filename G:\MUSIC\David Gilmour - Live In Gdansk (2008) (5-Disc)\Disc 5 - CD\03 - The Blue.wav

Peak level 100.0 %
Track quality 100.0 %
Test CRC D52F6DD9
Copy CRC D52F6DD9
Track not present in AccurateRip database
Copy OK

Track 4

Filename G:\MUSIC\David Gilmour - Live In Gdansk (2008) (5-Disc)\Disc 5 - CD\04 - Take A Breath.wav

Peak level 100.0 %
Track quality 100.0 %
Test CRC 595C5EEB
Copy CRC 595C5EEB
Track not present in AccurateRip database
Copy OK

Track 5

Filename G:\MUSIC\David Gilmour - Live In Gdansk (2008) (5-Disc)\Disc 5 - CD\05 - Wish You Were Here.wav

Peak level 100.0 %
Track quality 99.9 %
Test CRC D1229C9F
Copy CRC D1229C9F
Track not present in AccurateRip database
Copy OK

Track 6

Filename G:\MUSIC\David Gilmour - Live In Gdansk (2008) (5-Disc)\Disc 5 - CD\06 - Coming Back To Life.wav

Peak level 100.0 %
Track quality 99.9 %
Test CRC F71FF304
Copy CRC F71FF304
Track not present in AccurateRip database
Copy OK

Track 7

Filename G:\MUSIC\David Gilmour - Live In Gdansk (2008) (5-Disc)\Disc 5 - CD\07 - Find The Cost Of Freedom.wav

Peak level 52.1 %
Track quality 100.0 %
Test CRC 650183DE
Copy CRC 650183DE
Track not present in AccurateRip database
Copy OK

Track 8

Filename G:\MUSIC\David Gilmour - Live In Gdansk (2008) (5-Disc)\Disc 5 - CD\08 - This Heaven.wav

Peak level 100.0 %
Track quality 100.0 %
Test CRC D0C23AD5
Copy CRC D0C23AD5
Track not present in AccurateRip database
Copy OK

Track 9

Filename G:\MUSIC\David Gilmour - Live In Gdansk (2008) (5-Disc)\Disc 5 - CD\09 - Wearing The Inside Out.wav

Peak level 100.0 %
Track quality 100.0 %
Test CRC 1BA1962D
Copy CRC 1BA1962D
Track not present in AccurateRip database
Copy OK

Track 10

Filename G:\MUSIC\David Gilmour - Live In Gdansk (2008) (5-Disc)\Disc 5 - CD\10 - A Pocketful Of Stones.wav

Peak level 100.0 %
Track quality 100.0 %
Test CRC CBE47833
Copy CRC CBE47833
Track not present in AccurateRip database
Copy OK

Track 11

Filename G:\MUSIC\David Gilmour - Live In Gdansk (2008) (5-Disc)\Disc 5 - CD\11 - Where We Start.wav

Peak level 100.0 %
Track quality 100.0 %
Test CRC B2EC8E07
Copy CRC B2EC8E07
Track not present in AccurateRip database
Copy OK

Track 12

Filename G:\MUSIC\David Gilmour - Live In Gdansk (2008) (5-Disc)\Disc 5 - CD\12 - On The Turning Away.wav

Peak level 100.0 %
Track quality 100.0 %
Test CRC 752C9D3F
Copy CRC 752C9D3F
Track not present in AccurateRip database
Copy OK


None of the tracks are present in the AccurateRip database

No errors occurred

End of status report

Exact Audio Copy V0.99 prebeta 4 from 23. January 2008

EAC extraction logfile from 6. January 2009, 9:09

David Gilmour / Wot's…Uh The Deal Live In Gdansk

Used drive : HL-DT-STDVDRAM GSA-H10N Adapter: 0 ID: 0

Read mode : Secure
Utilize accurate stream : Yes
Defeat audio cache : Yes
Make use of C2 pointers : No

Read offset correction : 667
Overread into Lead-In and Lead-Out : No
Fill up missing offset samples with silence : Yes
Delete leading and trailing silent blocks : No
Null samples used in CRC calculations : Yes
Used interface : Installed external ASPI interface
Gap handling : Appended to previous track

Used output format : User Defined Encoder
Selected bitrate : 32 kBit/s
Quality : High
Add ID3 tag : No
Command line compressor : D:\Program Files\FLAC\flac.exe
Additional command line options : -8 -V -T "ARTIST=%a" -T "INFO=" -T "TITLE=%t" -T "ALBUM=%g" -T "DATE=%y" -T "TRACKNUMBER=%n" -T "T/R=R" -T "GENRE=%m" -T "COMMENT=EAC FLAC -8" %s


TOC of the extracted CD

Track | Start | Length | Start sector | End sector
––––––––––––––––––––––––––––-
1 | 0:00.00 | 5:37.73 | 0 | 25347


Track 1

Filename G:\MUSIC\David Gilmour - Wot's…Uh The Deal, Live In Gdansk (2008) [FLAC]\01 - Wot's…Uh The Deal.wav

Pre-gap length 0:00:02.00

Peak level 96.4 %
Track quality 100.0 %
Test CRC BAADA1FE
Copy CRC BAADA1FE
Track not present in AccurateRip database
Copy OK


None of the tracks are present in the AccurateRip database

No errors occurred

End of status report


David Gilmour - Live In Gdansk (2008) [3CD+2DVD] {Limited Edition} + Wot's...Uh The Deal? (missing "Gdansk" track) [repost]

David Gilmour - Live In Gdansk (2008) [3CD+2DVD] {Limited Edition} + Wot's...Uh The Deal? (missing "Gdansk" track) [repost]

David Gilmour - Live In Gdansk (2008) [3CD+2DVD] {Limited Edition} + Wot's...Uh The Deal? (missing "Gdansk" track) [repost]

David Gilmour - Live In Gdansk (2008) [3CD+2DVD] {Limited Edition} + Wot's...Uh The Deal? (missing "Gdansk" track) [repost]

David Gilmour - Live In Gdansk (2008) [3CD+2DVD] {Limited Edition} + Wot's...Uh The Deal? (missing "Gdansk" track) [repost]

David Gilmour - Live In Gdansk (2008) [3CD+2DVD] {Limited Edition} + Wot's...Uh The Deal? (missing "Gdansk" track) [repost]

David Gilmour - Live In Gdansk (2008) [3CD+2DVD] {Limited Edition} + Wot's...Uh The Deal? (missing "Gdansk" track) [repost]


All thanks goes to the original releaser!