Subcategories

Gordon Lightfoot - Gord's Gold, Volume II (1988)

Posted By: firepower
Gordon Lightfoot - Gord's Gold, Volume II (1988)

Gordon Lightfoot - Gord's Gold, Volume II (1988)
EAC, FLAC image, CUE+LOG - 400 MB | MP3 320 CBR - 158 MB
Complete 600dpi Art, JPG - 58 MB or TIF - 172 MB
Folk Rock | 1988 Warner Bros 9 25784-2 | 5% recovery record | Source: My CD

The second volume of Gord's Gold follows the same tradition of the first but in this case, it doesn't make sense, for re-recording tunes which were already in an updated sound defeats the purpose. I suppose Lightfoot just wasn't too thrilled with the original mixes so rather than remixing, he chose to do them over again. Included are such new verions of "The Wreck on the Edmund Fitzgerald," "I'm Not Supposed to Care," "Cherokee Bend" and "Race Among the Ruins" along with one new tune, "If I Should Please You," which had often been performed in concert but never recorded for an album. A rather poor excuse for a greatest-hits release.
Gordon Lightfoot - Gord's Gold, Volume II (1988)

Tracklist:

01 - If It Should Please You
02 - Endless Wire
03 - Hangdog Hotel Room
04 - I'm Not Supposed To Care
05 - High & Dry
06 - The Wreck Of The Edmund Fitzgerald
07 - The Pony Man
08 - Race Among The Ruins
09 - Christian Island
10 - All The Lovely Ladies
11 - Alberta Bound
12 - Cherokee Bend
13 - Triangle
14 - Shadows
15 - Make Way (For The Lady)
16 - Ghosts Of Cape Horn
17 - Baby Step Back
18 - It's Worth Believin'
Gordon Lightfoot - Gord's Gold, Volume II (1988)

Gordon Lightfoot - Gord's Gold, Volume II (1988)

Exact Audio Copy V1.0 beta 2 from 29. April 2011

EAC extraction logfile from 20. April 2016, 19:09

Gordon Lightfoot / Gord's Gold Volume II

Used drive : LITE-ON LTR-52327S Adapter: 0 ID: 1

Read mode : Secure
Utilize accurate stream : Yes
Defeat audio cache : Yes
Make use of C2 pointers : No

Read offset correction : 6
Overread into Lead-In and Lead-Out : No
Fill up missing offset samples with silence : Yes
Delete leading and trailing silent blocks : No
Null samples used in CRC calculations : Yes
Used interface : Native Win32 interface for Win NT & 2000

Used output format : User Defined Encoder
Selected bitrate : 768 kBit/s
Quality : High
Add ID3 tag : No
Command line compressor : C:\Program Files (x86)\EAC 1.0 beta 2\Exact Audio Copy\Flac\flac.exe
Additional command line options : -0 -V -T "ARTIST=%artist%" -T "TITLE=%title%" -T "ALBUM=%albumtitle%" -T "DATE=%year%" -T "TRACKNUMBER=%tracknr%" -T "GENRE=%genre%" -T "COMMENT=ExactAudioCopy v1.0b2 rip by firepower at Avaxhome" -T "BAND=%albuminterpret%"


TOC of the extracted CD

Track | Start | Length | Start sector | End sector
––––––––––––––––––––––––––––-
1 | 0:00.33 | 2:54.50 | 33 | 13132
2 | 2:55.08 | 4:18.17 | 13133 | 32499
3 | 7:13.25 | 2:50.65 | 32500 | 45314
4 | 10:04.15 | 3:22.43 | 45315 | 60507
5 | 13:26.58 | 2:30.12 | 60508 | 71769
6 | 15:56.70 | 6:18.33 | 71770 | 100152
7 | 22:15.28 | 3:37.37 | 100153 | 116464
8 | 25:52.65 | 3:26.70 | 116465 | 131984
9 | 29:19.60 | 3:16.20 | 131985 | 146704
10 | 32:36.05 | 2:51.70 | 146705 | 159599
11 | 35:28.00 | 3:01.68 | 159600 | 173242
12 | 38:29.68 | 5:00.25 | 173243 | 195767
13 | 43:30.18 | 3:57.32 | 195768 | 213574
14 | 47:27.50 | 3:02.60 | 213575 | 227284
15 | 50:30.35 | 3:45.58 | 227285 | 244217
16 | 54:16.18 | 4:08.10 | 244218 | 262827
17 | 58:24.28 | 3:58.52 | 262828 | 280729
18 | 62:23.05 | 3:22.30 | 280730 | 295909


Range status and errors

Selected range

Filename J:\Avaxhome\firepower\Gordon Lightfoot - Gord's Gold Volume II.wav

Peak level 97.0 %
Extraction speed 6.8 X
Range quality 99.9 %
Test CRC 522A6E49
Copy CRC 522A6E49
Copy OK

No errors occurred


AccurateRip summary

Track 1 accurately ripped (confidence 17) [C17DE507] (AR v2)
Track 2 accurately ripped (confidence 17) [CD08DE07] (AR v2)
Track 3 accurately ripped (confidence 18) [742D119E] (AR v2)
Track 4 accurately ripped (confidence 19) [9C88F699] (AR v2)
Track 5 accurately ripped (confidence 19) [C6D15865] (AR v2)
Track 6 accurately ripped (confidence 19) [04A8C416] (AR v2)
Track 7 accurately ripped (confidence 19) [7E37875E] (AR v2)
Track 8 accurately ripped (confidence 18) [DB66E618] (AR v2)
Track 9 accurately ripped (confidence 17) [48F5D4DC] (AR v2)
Track 10 accurately ripped (confidence 18) [FAF697F6] (AR v2)
Track 11 accurately ripped (confidence 18) [35D6D76C] (AR v2)
Track 12 accurately ripped (confidence 18) [E2AE9D3A] (AR v2)
Track 13 accurately ripped (confidence 18) [6CFB375E] (AR v2)
Track 14 accurately ripped (confidence 18) [348E0CAA] (AR v2)
Track 15 accurately ripped (confidence 19) [16B614BA] (AR v2)
Track 16 accurately ripped (confidence 19) [279B3561] (AR v2)
Track 17 accurately ripped (confidence 17) [900E3117] (AR v2)
Track 18 accurately ripped (confidence 19) [2C58A2BA] (AR v2)

All tracks accurately ripped

End of status report

==== Log checksum D76660235E85F52D9745AB10E7D5506D3E47C8E525D54782F27074EE08FFC75A ====

Notes:
USA edition
This issue has a very small booklet.
There is no artwork included in the music archives.
JPG and TIF are available as separate archives.
JPG setting is 100. FLAC is level 0.
Scans are 600dpi using a Mustek A3 1200S scanner.
All files are fully tagged.
5% recovery record
-NF-

I do not get comment notifications with Disqus like I did with the old format, therefore, I am not likely to see comments because I have hundreds of posts and will not open each one to see if there is a comment. Please PM me instead.

Password = avaxhome