Subcategories

Gorillaz - Song Machine, Season One - Strange Timez [Deluxe] (2020)

Posted By: El Misha
Gorillaz - Song Machine, Season One - Strange Timez [Deluxe] (2020)

Gorillaz - Song Machine, Season One - Strange Timez [Deluxe] (2020)
Alternative, Pop, Rock, Electronic, Hip-Hop | FLAC (tracks) | Cover | 01:05:00 | 400 MB + 5% Recovery
Label: Parlophone UK | Tracks: 17 | Rls.date: 2020

The seventh studio album from the Damon Albarn-fronted virtual band Gorillaz, Song Machine, Season One: Strange Timez pulls together the group's series of "Song Machine" singles. With a heavy focus on collaboration, the project offers feature work from artists including Elton John, Beck, Kano, and St. Vincent, dipping into genres from punk to hip-hop over its 42-minute runtime.



Tracklist:

1. Song Machine: Strange Timez (feat. Robert Smith) (03:47)
2. The Valley of The Pagans (feat. Beck) (03:00)
3. The Lost Chord (feat. Leee John) (04:03)
4. Pac-Man (feat. ScHoolboy Q) (03:12)
5. Chalk Tablet Towers (feat. St Vincent) (03:02)
6. The Pink Phantom (feat. Elton John and 6LACK) (04:13)
7. Aries (feat. Peter Hook and Georgia) (04:13)
8. Friday 13th (feat. Octavian) (03:35)
9. Dead Butterflies (feat. Kano and Roxani Arias) (04:33)
10. Désolé (feat. Fatoumata Diawara) [Extended Version] (05:33)
11. Momentary Bliss (feat. slowthai and Slaves) (03:41)
12. Opium (feat. EARTHGANG) (06:50)
13. Simplicity (feat. Joan As Police Woman) (02:44)
14. Severed Head (feat. Goldlink and Unknown Mortal Orchestra) (03:34)
15. With Love To An Ex (feat. Moonchild Sanelly) (03:01)
16. MLS (feat. JPEGMAFIA and CHAI) (03:13)
17. How Far? (feat. Tony Allen and Skepta) (02:46)

–––––––––––-

DON'T MODIFY THIS FILE

–––––––––––-

PERFORMER: auCDtect Task Manager, ver. 1.6.0 RC1 build 1.6.0.1
Copyright © 2008-2010 y-soft. All rights reserved
http://y-soft.org

ANALYZER: auCDtect: CD records authenticity detector, version 0.8.2
Copyright © 2004 Oleg Berngardt. All rights reserved.
Copyright © 2004 Alexander Djourik. All rights reserved.


FILE: 01 Strange Timez (feat. Robert Smith).flac
Size: 23443817 Hash: 93389553CF8108E3735F808504FCA89F Accuracy: -m0
Conclusion: MPEG 95%
Signature: E7391E00EF93B5DB13F48E61A939656DDF41204A
FILE: 02 The Valley of The Pagans (feat. Beck).flac
Size: 21595239 Hash: A259CEAA6C40C8158271ABAB60D9D4D7 Accuracy: -m0
Conclusion: MPEG 95%
Signature: 73FBE9BB37244EE48627C852B7103EC33F3F3E33
FILE: 03 The Lost Chord (feat. Leee John).flac
Size: 25906215 Hash: 2E9ADA588C42DFE6F4491D15EAFAE391 Accuracy: -m0
Conclusion: MPEG 95%
Signature: BB5D59516F2699C0472F131DC89FA52407466347
FILE: 04 Pac-Man (feat. ScHoolboy Q).flac
Size: 21146621 Hash: AA0201DAAC6CBE71047DC962A10CF84D Accuracy: -m0
Conclusion: CDDA 100%
Signature: CD2C65BDD10BCD02972D28898715457E6543C2B1
FILE: 05 Chalk Tablet Towers (feat. St Vincent).flac
Size: 20259284 Hash: E2F441502CBE44325E5A77113750A326 Accuracy: -m0
Conclusion: MPEG 95%
Signature: 22BEF8AB0A421591765C5CD438AA1FB862279849
FILE: 06 The Pink Phantom (feat. Elton John and 6LACK).flac
Size: 25656597 Hash: 1507822375D7454CF68494675840CE29 Accuracy: -m0
Conclusion: MPEG 95%
Signature: 77B5711A4D3B3C7C477FB2B5A2EA71A0967CC5DC
FILE: 07 Aries (feat. Peter Hook and Georgia).flac
Size: 29262282 Hash: F246FA68C3EDCC642E207D78248C9BB5 Accuracy: -m0
Conclusion: CDDA 100%
Signature: 56807B8B79CECCC58BB04639AC1F8BD9CD713F8B
FILE: 08 Friday 13th (feat. Octavian).flac
Size: 24063028 Hash: 0A8E9594C0A17018C8101496A91454D5 Accuracy: -m0
Conclusion: CDDA 100%
Signature: 877783C0AA7264CE0B000BFA62B7630484ADDA0B
FILE: 09 Dead Butterflies (feat. Kano and Roxani Arias).flac
Size: 25136184 Hash: B1C5126E712128E95CD0C5D8AAE76C78 Accuracy: -m0
Conclusion: MPEG 95%
Signature: F29445DC22BE154096C5E5A8FDB5F80A0B43B90E
FILE: 10 Désolé (feat. Fatoumata Diawara) (Extended Version).flac
Size: 38758020 Hash: 60732CD40D325C893C0E2F5F8FB5E1A1 Accuracy: -m0
Conclusion: CDDA 100%
Signature: 035AE5152D5A7F56F9F2A9ADFAEA4D1E2A4749AC
FILE: 11 Momentary Bliss (feat. slowthai and Slaves).flac
Size: 24945797 Hash: 61B5F70F9D1F9505D87FB7B121E0C581 Accuracy: -m0
Conclusion: CDDA 99%
Signature: 1F584000D791FF176CBD1362A853DB846765AABC
FILE: 12 Opium (feat. EARTHGANG).flac
Size: 43129798 Hash: D1A450F4A766745E3AED541901FBEF4F Accuracy: -m0
Conclusion: MPEG 95%
Signature: 945B2A1B3C1B0D6467D95BB77489BC8444BD3CF9
FILE: 13 Simplicity (feat. Joan As Police Woman).flac
Size: 15824887 Hash: A7DC07A16DA862F91A474600DCBC38C4 Accuracy: -m0
Conclusion: MPEG 95%
Signature: FEDC8A742252B9E7A4701A303412E6EE9CA49AEF
FILE: 14 Severed Head (feat. Goldlink and Unknown Mortal Orchestra).flac
Size: 20443148 Hash: 1048F0B94AF90AC5D6E1BD45CC2A954F Accuracy: -m0
Conclusion: MPEG 95%
Signature: C79AB6565BAA57D540C68240A4AD6E381FF1B268
FILE: 15 With Love To An Ex (feat. Moonchild Sanelly).flac
Size: 19428319 Hash: AA1035786BCAC78C4BEEE250854A740E Accuracy: -m0
Conclusion: MPEG 95%
Signature: A01BBD1FA7DCF6A586B54CFF84D4CD7EA7BA7CEE
FILE: 16 MLS (feat. JPEGMAFIA and CHAI).flac
Size: 20122665 Hash: 9E14BE5123001B54951C8B572B50282F Accuracy: -m0
Conclusion: MPEG 95%
Signature: C05ABA00EBC2730741E4D24AB7F0675933543F74
FILE: 17 How Far (feat. Tony Allen and Skepta).flac
Size: 19288118 Hash: E9A9EFA13073C683F5DF7EDACE620AB3 Accuracy: -m0
Conclusion: CDDA 100%
Signature: 8350B4960FF046531789DBC467BFF17E709D59F2


foobar2000 1.4 / Dynamic Range Meter 1.1.1
log date: 2020-10-22 19:48:48

––––––––––––––––––––––––––––––––––––––––
Analyzed: Gorillaz / Song Machine, Season One: Strange Timez (Deluxe)
––––––––––––––––––––––––––––––––––––––––

DR Peak RMS Duration Track
––––––––––––––––––––––––––––––––––––––––
DR7 0.00 dB -8.91 dB 3:48 01-Strange Timez (feat. Robert Smith)
DR7 0.00 dB -7.72 dB 3:01 02-The Valley of The Pagans (feat. Beck)
DR6 0.00 dB -8.28 dB 4:04 03-The Lost Chord (feat. Leee John)
DR6 -0.12 dB -8.18 dB 3:13 04-Pac-Man (feat. ScHoolboy Q)
DR6 0.00 dB -7.39 dB 3:03 05-Chalk Tablet Towers (feat. St Vincent)
DR7 0.00 dB -9.57 dB 4:13 06-The Pink Phantom (feat. Elton John and 6LACK)
DR7 -0.12 dB -8.28 dB 4:13 07-Aries (feat. Peter Hook and Georgia)
DR7 -0.12 dB -9.73 dB 3:35 08-Friday 13th (feat. Octavian)
DR7 0.00 dB -9.66 dB 4:34 09-Dead Butterflies (feat. Kano and Roxani Arias)
DR6 -0.12 dB -8.41 dB 5:33 10-Désolé (feat. Fatoumata Diawara) (Extended Version)
DR7 -0.12 dB -9.51 dB 3:41 11-Momentary Bliss (feat. slowthai and Slaves)
DR7 0.00 dB -9.58 dB 6:51 12-Opium (feat. EARTHGANG)
DR7 0.00 dB -7.34 dB 2:44 13-Simplicity (feat. Joan As Police Woman)
DR6 0.00 dB -7.55 dB 3:34 14-Severed Head (feat. Goldlink and Unknown Mortal Orchestra)
DR7 0.00 dB -8.80 dB 3:01 15-With Love To An Ex (feat. Moonchild Sanelly)
DR9 0.00 dB -9.61 dB 3:13 16-MLS (feat. JPEGMAFIA and CHAI)
DR7 -0.12 dB -8.30 dB 2:46 17-How Far? (feat. Tony Allen and Skepta)
––––––––––––––––––––––––––––––––––––––––

Number of tracks: 17
Official DR value: DR7

Samplerate: 44100 Hz
Channels: 2
Bits per sample: 16
Bitrate: 882 kbps
Codec: FLAC
================================================================================



All thanks to original releaser!