Subcategories

Christoph Graupner - Das kleine Konzert, Max - Zwei Ouvertüren & Kantate «Es begab sich» (1999)

Posted By: luckburz
Christoph Graupner - Das kleine Konzert, Max - Zwei Ouvertüren & Kantate «Es begab sich» (1999)

Christoph Graupner - Zwei Ouvertüren & Kantate «Es begab sich»
Das Kleine Konzert - Hermann Max
EAC+LOG+CUE | FLAC: 290 MB | Full Artwork | 5% Recovery Info
Label/Cat#: CPO # 999 592-2 | Country/Year: Germany 1999
Genre: Classical | Style: Baroque

MD5 [X] CUE [X] LOG [X] INFO TEXT [X] ARTWORK [X]

selfrip [X] not my rip []

Christoph Graupner - Das kleine Konzert, Max - Zwei Ouvertüren & Kantate «Es begab sich» (1999)


Exact Audio Copy V1.0 beta 3 from 29. August 2011

EAC extraction logfile from 15. July 2012, 16:28

Das Kleine Konzert, Hermann Max / Christoph Graupner: Zwei Ouverturen & Kantate «Es begab sich»

Used drive : PIONEER BD-RW BDR-206 Adapter: 2 ID: 3

Read mode : Secure
Utilize accurate stream : Yes
Defeat audio cache : Yes
Make use of C2 pointers : No

Read offset correction : 667
Overread into Lead-In and Lead-Out : No
Fill up missing offset samples with silence : Yes
Delete leading and trailing silent blocks : No
Null samples used in CRC calculations : Yes
Used interface : Native Win32 interface for Win NT & 2000

Used output format : User Defined Encoder
Selected bitrate : 896 kBit/s
Quality : High
Add ID3 tag : No
Command line compressor : C:\Program Files\FLAC\flac.exe
Additional command line options : -5 -T "Artist=%artist%" -T "Title=%title%" -T "Album=%albumtitle%" -T "Date=%year%" -T "Tracknumber=%tracknr%" -T "Genre=%genre%" %source% -o %dest%


TOC of the extracted CD

Track | Start | Length | Start sector | End sector
––––––––––––––––––––––––––––-
1 | 0:00.00 | 6:40.34 | 0 | 30033
2 | 6:40.34 | 1:37.01 | 30034 | 37309
3 | 8:17.35 | 0:56.70 | 37310 | 41579
4 | 9:14.30 | 2:13.45 | 41580 | 51599
5 | 11:28.00 | 1:33.30 | 51600 | 58604
6 | 13:01.30 | 2:13.45 | 58605 | 68624
7 | 15:15.00 | 2:27.00 | 68625 | 79649
8 | 17:42.00 | 1:13.00 | 79650 | 85124
9 | 18:55.00 | 1:27.00 | 85125 | 91649
10 | 20:22.00 | 1:43.00 | 91650 | 99374
11 | 22:05.00 | 3:34.40 | 99375 | 115464
12 | 25:39.40 | 1:42.35 | 115465 | 123149
13 | 27:22.00 | 5:10.30 | 123150 | 146429
14 | 32:32.30 | 3:12.45 | 146430 | 160874
15 | 35:45.00 | 7:43.00 | 160875 | 195599
16 | 43:28.00 | 2:13.00 | 195600 | 205574
17 | 45:41.00 | 3:08.00 | 205575 | 219674
18 | 48:49.00 | 4:16.00 | 219675 | 238874
19 | 53:05.00 | 3:32.00 | 238875 | 254774
20 | 56:37.00 | 2:20.00 | 254775 | 265274
21 | 58:57.00 | 0:52.00 | 265275 | 269174
22 | 59:49.00 | 2:31.40 | 269175 | 280539
23 | 62:20.40 | 2:11.35 | 280540 | 290399


Range status and errors

Selected range

Filename I:\=== VINYL RIPS ===\=== EAC===\X FRESH RIP\Graupner- Das Kleine Konzert, Max - Zwei Ouverturen & Kantate «Es begab sich».wav

Peak level 99.9 %
Extraction speed 1.3 X
Range quality 100.0 %
Test CRC 25DF4D0F
Copy CRC 25DF4D0F
Copy OK

No errors occurred


AccurateRip summary

Track 1 cannot be verified as accurate (confidence 5) [DB9BA63C], AccurateRip returned [ADEC1494] (AR v2)
Track 2 cannot be verified as accurate (confidence 5) [BDE1F703], AccurateRip returned [104F70E2] (AR v2)
Track 3 cannot be verified as accurate (confidence 5) [1B02D550], AccurateRip returned [705A0A7B] (AR v2)
Track 4 cannot be verified as accurate (confidence 5) [ADDF0EFA], AccurateRip returned [7178FB44] (AR v2)
Track 5 cannot be verified as accurate (confidence 5) [18F1705C], AccurateRip returned [C078DBF4] (AR v2)
Track 6 cannot be verified as accurate (confidence 5) [6F884C2B], AccurateRip returned [2EDB5839] (AR v2)
Track 7 cannot be verified as accurate (confidence 5) [04BB9D57], AccurateRip returned [534FDFF1] (AR v2)
Track 8 cannot be verified as accurate (confidence 5) [8F6979AA], AccurateRip returned [E48E96A8] (AR v2)
Track 9 cannot be verified as accurate (confidence 4) [7174060E], AccurateRip returned [6633BB13] (AR v2)
Track 10 cannot be verified as accurate (confidence 5) [649D477D], AccurateRip returned [056FF014] (AR v2)
Track 11 cannot be verified as accurate (confidence 5) [22081D58], AccurateRip returned [C9A2DC99] (AR v2)
Track 12 cannot be verified as accurate (confidence 5) [F0DE4256], AccurateRip returned [1E68738A] (AR v2)
Track 13 cannot be verified as accurate (confidence 5) [F10358B7], AccurateRip returned [88740E50] (AR v2)
Track 14 cannot be verified as accurate (confidence 5) [18DF9F25], AccurateRip returned [63B79C0F] (AR v2)
Track 15 cannot be verified as accurate (confidence 5) [96429412], AccurateRip returned [82421756] (AR v2)
Track 16 cannot be verified as accurate (confidence 5) [FCF9376B], AccurateRip returned [8411E4ED] (AR v2)
Track 17 cannot be verified as accurate (confidence 5) [43FE1011], AccurateRip returned [4C7FA744] (AR v2)
Track 18 cannot be verified as accurate (confidence 5) [80D6BDBB], AccurateRip returned [970B9206] (AR v2)
Track 19 cannot be verified as accurate (confidence 5) [5E5AE194], AccurateRip returned [6CAFCDA5] (AR v2)
Track 20 cannot be verified as accurate (confidence 5) [925C55E9], AccurateRip returned [2BDC05BB] (AR v2)
Track 21 cannot be verified as accurate (confidence 5) [008B4468], AccurateRip returned [DC194A08] (AR v2)
Track 22 cannot be verified as accurate (confidence 5) [4FE2ACAA], AccurateRip returned [E05752FD] (AR v2)
Track 23 cannot be verified as accurate (confidence 5) [F29065A9], AccurateRip returned [4D740BE9] (AR v2)

No tracks could be verified as accurate
You may have a different pressing from the one(s) in the database

End of status report

–– CUETools DB Plugin V2.1.3

[CTDB TOCID: dMSr5MBo_UlxhYtpErnWaKjIZ38-] found, Submit result: dMSr5MBo_UlxhYtpErnWaKjIZ38- has been confirmed
[224af777] (1/1) Accurately ripped


==== Log checksum D945286D5D90F9B771AB100CDBB34CD1B9A47D110199EF0C1DDF5DADDC43475D ====

foobar2000 1.1.7 / Dynamic Range Meter 1.1.1
log date: 2012-07-19 15:59:10

––––––––––––––––––––––––––––––––––––––––
Analyzed: Das Kleine Konzert, Hermann Max / Christoph Graupner: Zwei Ouverturen & Kantate «Es begab sich»
––––––––––––––––––––––––––––––––––––––––

DR Peak RMS Duration Track
––––––––––––––––––––––––––––––––––––––––
DR14 0.00 dB -18.46 dB 6:40 01-Ouverture G-Dur: 1. Ouverture
DR12 -2.23 dB -18.87 dB 1:37 02-Ouverture G-Dur: 2. Air en Rondeau
DR10 -12.55 dB -28.09 dB 0:57 03-Ouverture G-Dur: 3. Air
DR13 -6.04 dB -22.56 dB 2:14 04-Ouverture G-Dur: 4. Menuet 1 & 2
DR12 -3.60 dB -20.42 dB 1:33 05-Ouverture G-Dur: 5. Réjouissance
DR12 -17.54 dB -34.10 dB 2:14 06-Ouverture G-Dur: 6. Uccellino chiuso
DR12 -4.20 dB -19.52 dB 2:27 07-Ouverture G-Dur: 7. Air alla polonese
DR13 -3.52 dB -21.07 dB 1:13 08-Ouverture G-Dur: 8. Menuet
DR14 -2.16 dB -21.29 dB 1:27 09-Kantate «Es begab sich»: 1. (Dictum, Tombeau) «Esbegab sich, daß Jesus»
DR14 -4.86 dB -24.26 dB 1:43 10-Kantate «Es begab sich»: 2. (Recit) «Mein Herz, was siehest du?»
DR15 -6.79 dB -27.48 dB 3:35 11-Kantate «Es begab sich»: 3. (Aria, Tombeau) «Ein Jüngling liegt, ach, auf de…
DR13 -6.31 dB -23.70 dB 1:42 12-Kantate «Es begab sich»: 4. (Recit) «O Mensch, nimm deiner wahr»
DR13 -4.07 dB -22.51 dB 5:10 13-Kantate «Es begab sich» 5. (Arie) «Schicke dich, mein Herz, zum Sterben»
DR13 -2.00 dB -23.82 dB 3:13 14-Kantate «Es begab sich» 6. (Choral) «Amen, mein lieber Gott, frommer Gott»
DR14 -2.81 dB -19.97 dB 7:43 15-Ouverture D-Dur: 1. Ouverture
DR12 -1.42 dB -21.71 dB 2:13 16-Ouverture D-Dur: 2. Rondeau
DR12 -3.34 dB -20.40 dB 3:08 17-Ouverture D-Dur: 3. Polonaise
DR12 -5.83 dB -20.80 dB 4:16 18-Ouverture D-Dur: 4. La Costanza
DR14 -1.27 dB -20.57 dB 3:32 19-Ouverture D-Dur: 5. Menuet 1 & 2
DR14 -1.01 dB -19.47 dB 2:20 20-Ouverture D-Dur: 6. Il Sospetto
DR13 -2.49 dB -19.97 dB 0:52 21-Ouverture D-Dur: 7. La Noia
DR13 -2.14 dB -19.98 dB 2:32 22-Ouverture D-Dur: 8. Villanella
DR12 -0.69 dB -17.48 dB 2:11 23-Ouverture D-Dur: 9. Menuet 1 & 2
––––––––––––––––––––––––––––––––––––––––

Number of tracks: 23
Official DR value: DR13

Samplerate: 44100 Hz
Channels: 2
Bits per sample: 16
Bitrate: 630 kbps
Codec: FLAC
================================================================================



CD Info:

Christoph Graupner - Two Overtures / Cantata

Das Kleine Konzert / Hermann Max

Label: CPO
Catalog#: 999 592-2
Format: CD, Album
Country: Germany
Released: 1999
Genre: Classical
Style: Baroque

Tracklist:

1 - Ouverture G-Dur: 1. Ouverture 6:40
2 - Ouverture G-Dur: 2. Air en Rondeau 1:37
3 - Ouverture G-Dur: 3. Air 0:57
4 - Ouverture G-Dur: 4. Menuet 1 & 2 2:14
5 - Ouverture G-Dur: 5. Réjouissance 1:33
6 - Ouverture G-Dur: 6. Uccellino chiuso 2:14
7 - Ouverture G-Dur: 7. Air alla polonese 2:27
8 - Ouverture G-Dur: 8. Menuet 1:13
9 - Kantate «Es begab sich»: 1. (Dictum, Tombeau) «Esbegab sich, daß Jesus» 1:27
10 - Kantate «Es begab sich»: 2. (Recit) «Mein Herz, was siehest du?» 1:43
11 - Kantate «Es begab sich»: 3. (Aria, Tombeau) «Ein Jüngling liegt, ach, auf de… 3:35
12 - Kantate «Es begab sich»: 4. (Recit) «O Mensch, nimm deiner wahr» 1:42
13 - Kantate «Es begab sich» 5. (Arie) «Schicke dich, mein Herz, zum Sterben» 5:10
14 - Kantate «Es begab sich» 6. (Choral) «Amen, mein lieber Gott, frommer Gott» 3:13
15 - Ouverture D-Dur: 1. Ouverture 7:43
16 - Ouverture D-Dur: 2. Rondeau 2:13
17 - Ouverture D-Dur: 3. Polonaise 3:08
18 - Ouverture D-Dur: 4. La Costanza 4:16
19 - Ouverture D-Dur: 5. Menuet 1 & 2 3:32
20 - Ouverture D-Dur: 6. Il Sospetto 2:20
21 - Ouverture D-Dur: 7. La Noia 0:52
22 - Ouverture D-Dur: 8. Villanella 2:32
23 - Ouverture D-Dur: 9. Menuet 1 & 2 2:11

Barbara Schlick, Soprano
Hein Meens, Tenor
Stephen Varcoe, Bass
Rheinische Kantorei (14)

Recording: Westdeutscher Rundfunk Köln, 15-21 April, 1996, Zeughaus Neuss & 26 - 30 September, 1983, St. Antoniuskirche Siegburg

Christoph Graupner - Das kleine Konzert, Max - Zwei Ouvertüren & Kantate «Es begab sich» (1999)


Christoph Graupner (January 13, 1683 in Kirchberg – May 10, 1760 in Darmstadt) was a German harpsichordist and composer of high Baroque music who lived and worked at the same time as Johann Sebastian Bach, Georg Philipp Telemann and George Frideric Handel. wikipedia

More Graupner Uploads:

Christoph Graupner - Ensemble il capriccio - Bassoon and Violin Concertos (2011)
Christoph Graupner - Orchestral Works Vol. 1 (2002)
Christoph Graupner - Orchestral Works Vol. 2 (2004)
Christoph Graupner - Orchestral Works Vol. 3 (2010)

Christoph Graupner - Das kleine Konzert, Max - Zwei Ouvertüren & Kantate «Es begab sich» (1999)

// classical music \\
// all of my uploads \\
________________

Download:

Filepost FLAC
Filepost Artwork
________________