Subcategories

Great Jazz Trio - Standard Collection Vol.1: Summertime (1988)

Posted By: Bezz
Great Jazz Trio - Standard Collection Vol.1: Summertime (1988)

Great Jazz Trio - Standard Collection Vol.1: Summertime (1988)
EAC rip | FLAC+CUE+LOG | Scans | 276 Mb(Incl. Recovery)
Genre ~ Post-Bop, Standards | Label ~ Lime Tree Records

Hank Jones has been known to be a quintessential sideman and occasional leader during his lengthy career as a premier jazz pianist. His most frequent project has been as the ostensible leader of the co-op group known as the Great Jazz Trio, a classic example of how the piano-bass-drums format has remained timeless, enduring, and ever challenging. Formed in the spring of 1975, the initial threesome performed together for the first time at the Village Vanguard nightclub in New York City for one week, was given its name by owner Max Gordon, and consisted of Jones, drummer Tony Williams, and bassist Ron Carter. These musicians from three generations with ties to Miles Davis formed a unique bond playing standards and originals of each bandmember. The trio got together again in May of 1976, and this time headed for a studio to record an album with Japanese alto saxophonist Sadao Watanabe, resulting in the album I'm Old Fashioned. In February of 1977 the trio was again booked in the Village Vanguard for a week, and they recorded three days of the extended engagement, making several live volumes of their music available on vinyl for the Japanese based East Wind label, issued in the U.S. on Inner City. Concurrent studio efforts including Love for Sale (1976,) Kindness, Joy, Love & Happiness, and Direct from LA (1977,) and Milestones (1978) cemented the reputation of the original combo. The Japanese continued their interest in booking the group for concert tours, and documenting the music of the GJT, with many more releases on East Wind and Denon only available as imports in the new CD era up to 2008, with another string of Great Standards, Vol. I-V for Alfa Jazz. Many of the recordings used cover art surrounding Major League Baseball images, especially action photos with the Boston Red Sox (Williams was born in Boston, as opposed to Metro-Detroiters Jones and Carter) the most famous being pitcher Roger Moret on the cover of the 1978 LP At the Village Vanguard. Since the passing of Tony Williams and Ron Carter's increased interest in a solo career, the personnel of the Great Jazz Trio has changed, but Hank Jones has always spearheaded the effort. Among some of the partners the pianist has employed; bassists Buster Williams, Eddie Gomez, John Patitucci, and Richard Davis, along with drummers Al Foster, Elvin Jones, and Jack DeJohnette. The band in one configuration or another has lasted over four decades, recording on average one album per year.
This album was recorded in 1988 by Lime Tree Records
Tracklist

01. After You've Gone - 5:38
02. Summertime - 5:47
03. The Days Of Wine and Roses - 4:08
04. As Time Goes By - 7:20
05. You'd Be So Nice To Come Home To - 4:34
06. Summer Knows - 4:48
07. Georgia On My Mind - 5:05
08. Prelude To A Kiss - 3:16
09. St. Louis Blues - 5:51
10. Danny Boy - 7:39

Exact Audio Copy V1.0 beta 3 from 29. August 2011

EAC extraction logfile from 16. March 2012, 19:59

Great Jazz Trio / Standard Collection Vol.1

Used drive : HL-DT-STDVD-RAM GSA-H55N Adapter: 0 ID: 2

Read mode : Secure
Utilize accurate stream : Yes
Defeat audio cache : Yes
Make use of C2 pointers : No

Read offset correction : 102
Overread into Lead-In and Lead-Out : Yes
Fill up missing offset samples with silence : Yes
Delete leading and trailing silent blocks : No
Null samples used in CRC calculations : Yes
Used interface : Native Win32 interface for Win NT & 2000
Gap handling : Appended to previous track

Used output format : User Defined Encoder
Selected bitrate : 128 kBit/s
Quality : High
Add ID3 tag : No
Command line compressor : G:\Program Files\Exact Audio Copy\Encoder\flac.exe
Additional command line options : -V -8 -T "Genre=%genre%" -T "Artist=%artist%" -T "Title=%title%" -T "Album=%albumtitle%" -T "Date=%year%" -T "Tracknumber=%tracknr%" -T "Comment=EAC1.0b3 FLAC -8" %source%

TOC of the extracted CD

Track | Start | Length | Start sector | End sector
––––––––––––––––––––––––––––-
1 | 0:00.00 | 5:38.02 | 0 | 25351
2 | 5:38.02 | 5:47.20 | 25352 | 51396
3 | 11:25.22 | 4:07.53 | 51397 | 69974
4 | 15:33.00 | 7:20.12 | 69975 | 102986
5 | 22:53.12 | 4:34.05 | 102987 | 123541
6 | 27:27.17 | 4:47.43 | 123542 | 145109
7 | 32:14.60 | 5:05.32 | 145110 | 168016
8 | 37:20.17 | 3:16.28 | 168017 | 182744
9 | 40:36.45 | 5:51.22 | 182745 | 209091
10 | 46:27.67 | 7:38.45 | 209092 | 243486

Track 1

Filename F:\WAV\01 - After You've Gone.wav

Pre-gap length 0:00:02.00

Peak level 87.0 %
Extraction speed 4.6 X
Track quality 100.0 %
Test CRC 7ED5EBDB
Copy CRC 7ED5EBDB
Track not present in AccurateRip database
Copy OK

Track 2

Filename F:\WAV\02 - Summertime.wav

Peak level 58.6 %
Extraction speed 4.8 X
Track quality 99.9 %
Test CRC 4E6CDE33
Copy CRC 4E6CDE33
Track not present in AccurateRip database
Copy OK

Track 3

Filename F:\WAV\03 - The Days Of Wine and Roses.wav

Pre-gap length 0:00:01.17

Peak level 69.6 %
Extraction speed 5.5 X
Track quality 100.0 %
Test CRC E18C5812
Copy CRC E18C5812
Track not present in AccurateRip database
Copy OK

Track 4

Filename F:\WAV\04 - As Time Goes By.wav

Peak level 80.4 %
Extraction speed 5.5 X
Track quality 100.0 %
Test CRC CB038706
Copy CRC CB038706
Track not present in AccurateRip database
Copy OK

Track 5

Filename F:\WAV\05 - You'd Be So Nice To Come Home To.wav

Pre-gap length 0:00:01.42

Peak level 98.9 %
Extraction speed 6.4 X
Track quality 100.0 %
Test CRC 79DA1098
Copy CRC 79DA1098
Track not present in AccurateRip database
Copy OK

Track 6

Filename F:\WAV\06 - Summer Knows.wav

Pre-gap length 0:00:01.00

Peak level 47.7 %
Extraction speed 4.5 X
Track quality 100.0 %
Test CRC 0E6EE465
Copy CRC 0E6EE465
Track not present in AccurateRip database
Copy OK

Track 7

Filename F:\WAV\07 - Georgia On My Mind.wav

Peak level 58.3 %
Extraction speed 5.1 X
Track quality 99.9 %
Test CRC 0F87102D
Copy CRC 0F87102D
Track not present in AccurateRip database
Copy OK

Track 8

Filename F:\WAV\08 - Prelude To A Kiss.wav

Peak level 56.5 %
Extraction speed 5.5 X
Track quality 100.0 %
Test CRC 178BA4D1
Copy CRC 178BA4D1
Track not present in AccurateRip database
Copy OK

Track 9

Filename F:\WAV\09 - St. Louis Blues.wav

Peak level 100.0 %
Extraction speed 6.2 X
Track quality 100.0 %
Test CRC 5503E2EB
Copy CRC 5503E2EB
Track not present in AccurateRip database
Copy OK

Track 10

Filename F:\WAV\10 - Danny Boy.wav

Pre-gap length 0:00:01.00

Peak level 30.8 %
Extraction speed 5.8 X
Track quality 100.0 %
Test CRC 8922524C
Copy CRC 8922524C
Track not present in AccurateRip database
Copy OK

None of the tracks are present in the AccurateRip database

No errors occurred

End of status report

==== Log checksum 3C7BCA2388CF938B0CE9BDAD7775470F9E447E825F4912C00BCC7986B0BCFEF2 ====

Great Jazz Trio - Standard Collection Vol.1: Summertime (1988)

Great Jazz Trio - Standard Collection Vol.1: Summertime (1988)

Special thanks to simple.i!

Welcome to my blog for more wonderful music

PLEASE DO NOT PROVIDE MIRROR LINKS!