Subcategories

V.A. - Greatest hits of the 80's (8CD Box, 1998)

Posted By: Speedyclick
V.A. - Greatest hits of the 80's (8CD Box, 1998)

V.A. - Greatest hits of the 80's (8CD Box, 1998)
EAC Rips | FLAC (image & cue & log) & mp3 @ 320 kbps | tracks: 144 | Scans | 9:57:44 | ~ 4,01 Gb & 1,38 Gb
Label: DISKY | Original recordings | Genre: Pop

A wonderful collection of 144 original hits from the golden decade of the 80's. Almost 10 hours of great music full of rhythm, melody and nostalgia. An endless parade of memories with the greater names of the musical scene. A happy Christmas gift in lossless. Enjoy.

V.A. - Greatest hits of the 80's (8CD Box, 1998)

CD1 (1:10:29 | ~ 467 mB & 166 mB)

TRACKLIST
01. Hot Chocolate - No Doubt About It
02. Leo Sayer - More Than I Can Say
03. Jona Lewie - Stop the Cavalry
04. Stars on 45 - Stars on 45 Medley
05. Kim Wilde - Kids in America
06. Kim Carnes - Bette Davis Eyes
07. Max Werner - Rain in May
08. Sheena Easton - Morning Train (Nine to Five)
09. Tony Esposito - Papa Chico
10. Moses - We Just
11. Culture Club - Do You Really Want to Hurt Me
12. Ultravox - Hymn
13. Kajagoogoo - Too Shy
14. The Waterboys - The Whole of the Moon
15. Tracey Ullman - Breakaway
16. Belouis Some - Imagination
17. The J. Geils Band - Centerfold
18. Katrina and the Waves - Walking on Sunshine

Exact Audio Copy V1.0 beta 3 from 29. August 2011

EAC extraction logfile from 8. December 2011, 16:10

Various Artists / Greatest Hits of the 80's Vol1 CD1

Used drive : HL-DT-STDVDRAM GH10N Adapter: 1 ID: 1

Read mode : Secure
Utilize accurate stream : Yes
Defeat audio cache : Yes
Make use of C2 pointers : No

Read offset correction : 667
Overread into Lead-In and Lead-Out : No
Fill up missing offset samples with silence : Yes
Delete leading and trailing silent blocks : No
Null samples used in CRC calculations : Yes
Used interface : Native Win32 interface for Win NT & 2000

Used output format : User Defined Encoder
Selected bitrate : 1024 kBit/s
Quality : High
Add ID3 tag : Yes
Command line compressor : C:\Program Files\Exact Audio Copy New\Flac\flac.exe
Additional command line options : -V -5 -T "artist=%artist%" -T "title=%title%" -T "album=%albumtitle%" -T "tracknumber=%tracknr2%" -T "genre=%genre%" -5 %source%


TOC of the extracted CD

Track | Start | Length | Start sector | End sector
––––––––––––––––––––––––––––-
1 | 0:00.00 | 4:28.58 | 0 | 20157
2 | 4:28.58 | 3:42.60 | 20158 | 36867
3 | 8:11.43 | 2:56.72 | 36868 | 50139
4 | 11:08.40 | 4:51.43 | 50140 | 72007
5 | 16:00.08 | 3:28.72 | 72008 | 87679
6 | 19:29.05 | 3:46.07 | 87680 | 104636
7 | 23:15.12 | 3:36.39 | 104637 | 120875
8 | 26:51.51 | 3:22.41 | 120876 | 136066
9 | 30:14.17 | 4:01.41 | 136067 | 154182
10 | 34:15.58 | 4:48.73 | 154183 | 175855
11 | 39:04.56 | 4:25.20 | 175856 | 195750
12 | 43:30.01 | 4:26.27 | 195751 | 215727
13 | 47:56.28 | 3:41.23 | 215728 | 232325
14 | 51:37.51 | 5:02.06 | 232326 | 254981
15 | 56:39.57 | 2:36.57 | 254982 | 266738
16 | 59:16.39 | 3:36.42 | 266739 | 282980
17 | 62:53.06 | 3:38.66 | 282981 | 299396
18 | 66:31.72 | 3:57.03 | 299397 | 317174


Range status and errors

Selected range

Filename R:\EAC Rips\TASOS\Hits Of The 80's\Hits Of The 80s Vol 1\H80-1-1\Various Artists - Greatest Hits of the 80's Vol1 CD1.wav

Peak level 99.4 %
Extraction speed 2.9 X
Range quality 100.0 %
Test CRC 7CC938F7
Copy CRC 7CC938F7
Copy OK

No errors occurred


AccurateRip summary

Track 1 accurately ripped (confidence 15) [D62E32C1] (AR v2)
Track 2 accurately ripped (confidence 15) [0230B504] (AR v2)
Track 3 accurately ripped (confidence 15) [2C388BF0] (AR v2)
Track 4 accurately ripped (confidence 15) [BD313CD1] (AR v2)
Track 5 accurately ripped (confidence 16) [704E0BAD] (AR v2)
Track 6 accurately ripped (confidence 16) [D73A113D] (AR v2)
Track 7 accurately ripped (confidence 15) [CE3B3233] (AR v2)
Track 8 accurately ripped (confidence 16) [1269001E] (AR v2)
Track 9 accurately ripped (confidence 15) [E030C5F8] (AR v2)
Track 10 accurately ripped (confidence 15) [EF19911F] (AR v2)
Track 11 accurately ripped (confidence 16) [816025C2] (AR v2)
Track 12 accurately ripped (confidence 16) [D28D6EB9] (AR v2)
Track 13 accurately ripped (confidence 16) [E91F44DF] (AR v2)
Track 14 accurately ripped (confidence 15) [62D225CD] (AR v2)
Track 15 accurately ripped (confidence 16) [49CF6FB7] (AR v2)
Track 16 accurately ripped (confidence 16) [66367266] (AR v2)
Track 17 accurately ripped (confidence 16) [E6C0F8E1] (AR v2)
Track 18 accurately ripped (confidence 15) [0C74F08D] (AR v2)

All tracks accurately ripped

End of status report

–– CUETools DB Plugin V2.1.3

[CTDB TOCID: _thbSHs7tXClzIrsCpkSZnWFFB0-] found, Submit result: _thbSHs7tXClzIrsCpkSZnWFFB0- has been confirmed
[2d4e6565] (127/127) Accurately ripped


==== Log checksum 9ABB20E2843D80F9D2349CCD3B4C873492D6129782AFCFEB85FA9A2B8941DD7B ====

V.A. - Greatest hits of the 80's (8CD Box, 1998)

CD2 (1:16:56 | ~ 527 mB & 181 mB)

TRACKLIST
01. Spandau Ballet - TRUE
02. Blondie - The Tide Is High
03. Renee and Renato - Save Your Love
04. Laid Back - Sunshine Reggae
05. Gazebo - I Like Chopin
06. Culture Club - Karma Chameleon
07. Public Image Ltd. - This Is Not a Love Song
08. The Flying Pickets - Only You
09. The Firm - Star Trekkin'
10. Pat Benatar - Love Is a Battlefield
11. Duran Duran - The Reflex
12. Ultravox - Dancing With Tears in My Eyes
13. The Proclaimers - Letter From America
14. Samantha Fox - Nothing's Gonna Stop Me Now
15. Centerfold - Dictator
16. Aled Jones - Walking in the Air
17. Billy Idol - Hot in the City
18. Eddy Grant - Electric Avenue

Exact Audio Copy V1.0 beta 3 from 29. August 2011

EAC extraction logfile from 8. December 2011, 16:44

Various Artists / Greatest Hits of the 80's CD2

Used drive : HL-DT-STDVDRAM GH10N Adapter: 1 ID: 1

Read mode : Secure
Utilize accurate stream : Yes
Defeat audio cache : Yes
Make use of C2 pointers : No

Read offset correction : 667
Overread into Lead-In and Lead-Out : No
Fill up missing offset samples with silence : Yes
Delete leading and trailing silent blocks : No
Null samples used in CRC calculations : Yes
Used interface : Native Win32 interface for Win NT & 2000

Used output format : User Defined Encoder
Selected bitrate : 1024 kBit/s
Quality : High
Add ID3 tag : Yes
Command line compressor : C:\Program Files\Exact Audio Copy New\Flac\flac.exe
Additional command line options : -V -5 -T "artist=%artist%" -T "title=%title%" -T "album=%albumtitle%" -T "tracknumber=%tracknr2%" -T "genre=%genre%" -5 %source%


TOC of the extracted CD

Track | Start | Length | Start sector | End sector
––––––––––––––––––––––––––––-
1 | 0:00.00 | 5:32.01 | 0 | 24900
2 | 5:32.01 | 3:52.21 | 24901 | 42321
3 | 9:24.22 | 3:08.14 | 42322 | 56435
4 | 12:32.36 | 4:16.23 | 56436 | 75658
5 | 16:48.59 | 8:56.36 | 75659 | 115894
6 | 25:45.20 | 3:59.59 | 115895 | 133878
7 | 29:45.04 | 4:13.34 | 133879 | 152887
8 | 33:58.38 | 3:25.27 | 152888 | 168289
9 | 37:23.65 | 3:34.42 | 168290 | 184381
10 | 40:58.32 | 5:23.06 | 184382 | 208612
11 | 46:21.38 | 4:24.63 | 208613 | 228475
12 | 50:46.26 | 4:05.54 | 228476 | 246904
13 | 54:52.05 | 4:02.52 | 246905 | 265106
14 | 58:54.57 | 3:45.04 | 265107 | 281985
15 | 62:39.61 | 3:28.11 | 281986 | 297596
16 | 66:07.72 | 3:25.36 | 297597 | 313007
17 | 69:33.33 | 3:36.64 | 313008 | 329271
18 | 73:10.22 | 3:45.66 | 329272 | 346212


Range status and errors

Selected range

Filename R:\EAC Rips\TASOS\Hits Of The 80's\Hits Of The 80s Vol 1\H80-1-2\Various Artists - Greatest Hits of the 80's CD2.wav

Peak level 100.0 %
Extraction speed 4.2 X
Range quality 100.0 %
Test CRC 4F87BC67
Copy CRC 4F87BC67
Copy OK

No errors occurred


AccurateRip summary

Track 1 accurately ripped (confidence 9) [46FF396A] (AR v2)
Track 2 accurately ripped (confidence 9) [FA3BB775] (AR v2)
Track 3 accurately ripped (confidence 9) [EB1AE780] (AR v2)
Track 4 accurately ripped (confidence 9) [B09FEB60] (AR v2)
Track 5 accurately ripped (confidence 9) [4F33ED9C] (AR v2)
Track 6 accurately ripped (confidence 9) [E0F63180] (AR v2)
Track 7 accurately ripped (confidence 8) [AF3AD45A] (AR v2)
Track 8 accurately ripped (confidence 9) [56CD1D38] (AR v2)
Track 9 accurately ripped (confidence 9) [D96F457C] (AR v2)
Track 10 accurately ripped (confidence 9) [EFCD3B68] (AR v2)
Track 11 accurately ripped (confidence 9) [024AA17E] (AR v2)
Track 12 accurately ripped (confidence 9) [B345B5E6] (AR v2)
Track 13 accurately ripped (confidence 9) [C65C0DC7] (AR v2)
Track 14 accurately ripped (confidence 9) [664731C1] (AR v2)
Track 15 accurately ripped (confidence 9) [9E96CBE2] (AR v2)
Track 16 accurately ripped (confidence 9) [F212B9B5] (AR v2)
Track 17 accurately ripped (confidence 9) [35C68194] (AR v2)
Track 18 accurately ripped (confidence 9) [A5389FD2] (AR v2)

All tracks accurately ripped

End of status report

–– CUETools DB Plugin V2.1.3

[CTDB TOCID: la8XfU46diZ5rnse25kwdv9ua8Y-] found, Submit result: la8XfU46diZ5rnse25kwdv9ua8Y- has been confirmed
[19aaca76] (123/123) Accurately ripped


==== Log checksum 5BF496DF4A7C9E42EF7A1243389B096042D3789C1B340A77A16E013485F77F22 ====

V.A. - Greatest hits of the 80's (8CD Box, 1998)

CD3 (1:13:25 | ~ 493 mB & 173 mB)

TRACKLIST
01. Talk Talk - Such a Shame
02. Billy Idol - Eyes Without a Face
03. Limahl - Never Ending Story
04. Duran Duran - Wild Boys
05. Pat Benatar - We Belong
06. Nick Straker - A Walk in the Park
07. Ashford & Simpson - Solid
08. Talking Heads - Road to Nowhere
09. Michael Zager Band - Let's All Chant
10. Paul Hardcastle - Nineteen
11. Billy Ocean - Caribbean Queen (No More Love on the Run)
12. Marillion - Kayleigh
13. Sandra - Maria Magdalena
14. Kate Bush - Running Up That Hill
15. Midge Ure - If I Was
16. Dr. Hook - Sexy Eyes
17. Hot Chocolate - Girl Crazy
18. Kajagoogoo - Big Apple

Exact Audio Copy V1.0 beta 3 from 29. August 2011

EAC extraction logfile from 9. December 2011, 4:31

Various Artists / Greatest Hits of the 80's CD3

Used drive : HL-DT-STDVDRAM GH10N Adapter: 1 ID: 1

Read mode : Secure
Utilize accurate stream : Yes
Defeat audio cache : Yes
Make use of C2 pointers : No

Read offset correction : 667
Overread into Lead-In and Lead-Out : No
Fill up missing offset samples with silence : Yes
Delete leading and trailing silent blocks : No
Null samples used in CRC calculations : Yes
Used interface : Native Win32 interface for Win NT & 2000

Used output format : User Defined Encoder
Selected bitrate : 1024 kBit/s
Quality : High
Add ID3 tag : Yes
Command line compressor : C:\Program Files\Exact Audio Copy New\Flac\flac.exe
Additional command line options : -V -5 -T "artist=%artist%" -T "title=%title%" -T "album=%albumtitle%" -T "tracknumber=%tracknr2%" -T "genre=%genre%" -5 %source%


TOC of the extracted CD

Track | Start | Length | Start sector | End sector
––––––––––––––––––––––––––––-
1 | 0:00.00 | 5:42.30 | 0 | 25679
2 | 5:42.30 | 4:11.21 | 25680 | 44525
3 | 9:53.51 | 3:28.64 | 44526 | 60189
4 | 13:22.40 | 4:20.17 | 60190 | 79706
5 | 17:42.57 | 3:38.14 | 79707 | 96070
6 | 21:20.71 | 4:08.65 | 96071 | 114735
7 | 25:29.61 | 5:09.06 | 114736 | 137916
8 | 30:38.67 | 4:03.66 | 137917 | 156207
9 | 34:42.58 | 3:02.45 | 156208 | 169902
10 | 37:45.28 | 3:40.29 | 169903 | 186431
11 | 41:25.57 | 4:06.22 | 186432 | 204903
12 | 45:32.04 | 3:34.40 | 204904 | 220993
13 | 49:06.44 | 4:00.38 | 220994 | 239031
14 | 53:07.07 | 4:59.60 | 239032 | 261516
15 | 58:06.67 | 4:45.44 | 261517 | 282935
16 | 62:52.36 | 2:58.23 | 282936 | 296308
17 | 65:50.59 | 3:23.45 | 296309 | 311578
18 | 69:14.29 | 4:10.48 | 311579 | 330376


Range status and errors

Selected range

Filename R:\EAC Rips\TASOS\Hits Of The 80's\Hits Of The 80s Vol 1\H80-1-3\Various Artists - Greatest Hits of the 80's CD3.wav

Peak level 99.8 %
Extraction speed 6.2 X
Range quality 100.0 %
Test CRC 59BF7D6B
Copy CRC 59BF7D6B
Copy OK

No errors occurred


AccurateRip summary

Track 1 cannot be verified as accurate (confidence 125) [51AF6318], AccurateRip returned [B832360B] (AR v2)
Track 2 cannot be verified as accurate (confidence 126) [669CBBEB], AccurateRip returned [B6CC6289] (AR v2)
Track 3 cannot be verified as accurate (confidence 126) [92A78FD1], AccurateRip returned [202C1C46] (AR v2)
Track 4 cannot be verified as accurate (confidence 125) [80EE6F12], AccurateRip returned [30C19C94] (AR v2)
Track 5 cannot be verified as accurate (confidence 125) [FEF36A09], AccurateRip returned [F5E0046B] (AR v2)
Track 6 cannot be verified as accurate (confidence 122) [E9D824E5], AccurateRip returned [E15C23FC] (AR v2)
Track 7 cannot be verified as accurate (confidence 123) [5426C3E2], AccurateRip returned [1FFFCC0B] (AR v2)
Track 8 cannot be verified as accurate (confidence 123) [64BA5D95], AccurateRip returned [6124741E] (AR v2)
Track 9 cannot be verified as accurate (confidence 125) [22CA7E4C], AccurateRip returned [6BB53E1B] (AR v2)
Track 10 cannot be verified as accurate (confidence 122) [B51CF63A], AccurateRip returned [47112487] (AR v2)
Track 11 cannot be verified as accurate (confidence 123) [D169D13C], AccurateRip returned [27E8F46D] (AR v2)
Track 12 cannot be verified as accurate (confidence 124) [FE037736], AccurateRip returned [2E31CC1A] (AR v2)
Track 13 cannot be verified as accurate (confidence 124) [95BCEA59], AccurateRip returned [9D0AFDDD] (AR v2)
Track 14 cannot be verified as accurate (confidence 122) [F410562D], AccurateRip returned [F777EADC] (AR v2)
Track 15 cannot be verified as accurate (confidence 122) [5BC51400], AccurateRip returned [23FBC004] (AR v2)
Track 16 cannot be verified as accurate (confidence 124) [DC99136A], AccurateRip returned [DFDC97C0] (AR v2)
Track 17 cannot be verified as accurate (confidence 123) [BBF26787], AccurateRip returned [84D4BB88] (AR v2)
Track 18 cannot be verified as accurate (confidence 122) [964D3FFB], AccurateRip returned [6EB73BF4] (AR v2)

No tracks could be verified as accurate
You may have a different pressing from the one(s) in the database

End of status report

–– CUETools DB Plugin V2.1.3

[CTDB TOCID: 33x4tekGGeI7lWzFKuQhFrF.w8M-] found, Submit result: 33x4tekGGeI7lWzFKuQhFrF.w8M- has been uploaded
[46af1361] (123/123) No match


==== Log checksum F0B6490B015B248B052174AC4FB188AFA8E36C03A37877D63B57EC69532D37C1 ====

V.A. - Greatest hits of the 80's (8CD Box, 1998)

CD4 (1:16:38 | ~ 524 mB & 180 mB)

TRACKLIST
01. Feargal Sharkey - A Good Heart
02. Samantha Fox - Touch Me (I Want Your Body)
03. Sandra - In The Heat Of The Night
04. Billy Ocean - When The Going Gets Tough, The Tough Get Going
05. Human League - Human
06. Cutting Crew - (I Just) Died In Your Arms Tonight
07. Spandau Ballet - Gold
08. Boy George - Everything I Own
09. Living In A Box - Living In A Box
10. Billy Idol - Sweet Sixteen
11. Johnny Hates Jazz - Shattered Dreams
12. T'Pau - China In Your Hand
13. Climie Fisher - Love Changes (Everything)
14. Bobby McFerrin - Don't Worry Be Happy
15. Jaki Graham - Round And Around
16. Kim Wilde - Cambodia
17. Paul Hardcastle - Don't Waste My Time
18. Thomas Dolby - I Scare Myself

Exact Audio Copy V1.0 beta 3 from 29. August 2011

EAC extraction logfile from 16. December 2011, 8:15

Various / Greatest Hits Of The 80's CD4

Used drive : HL-DT-STDVDRAM GH10N Adapter: 1 ID: 1

Read mode : Secure
Utilize accurate stream : Yes
Defeat audio cache : Yes
Make use of C2 pointers : No

Read offset correction : 667
Overread into Lead-In and Lead-Out : No
Fill up missing offset samples with silence : Yes
Delete leading and trailing silent blocks : No
Null samples used in CRC calculations : Yes
Used interface : Native Win32 interface for Win NT & 2000

Used output format : User Defined Encoder
Selected bitrate : 1024 kBit/s
Quality : High
Add ID3 tag : Yes
Command line compressor : C:\Program Files\Exact Audio Copy New\Flac\flac.exe
Additional command line options : -V -5 -T "artist=%artist%" -T "title=%title%" -T "album=%albumtitle%" -T "tracknumber=%tracknr2%" -T "genre=%genre%" -5 %source%


TOC of the extracted CD

Track | Start | Length | Start sector | End sector
––––––––––––––––––––––––––––-
1 | 0:00.00 | 4:40.58 | 0 | 21057
2 | 4:40.58 | 3:45.69 | 21058 | 38001
3 | 8:26.52 | 5:18.49 | 38002 | 61900
4 | 13:45.26 | 4:10.06 | 61901 | 80656
5 | 17:55.32 | 4:27.60 | 80657 | 100741
6 | 22:23.17 | 4:41.06 | 100742 | 121822
7 | 27:04.23 | 3:52.36 | 121823 | 139258
8 | 30:56.59 | 3:57.35 | 139259 | 157068
9 | 34:54.19 | 3:04.15 | 157069 | 170883
10 | 37:58.34 | 4:14.51 | 170884 | 189984
11 | 42:13.10 | 3:30.09 | 189985 | 205743
12 | 45:43.19 | 4:03.60 | 205744 | 224028
13 | 49:47.04 | 4:28.58 | 224029 | 244186
14 | 54:15.62 | 3:54.71 | 244187 | 261807
15 | 58:10.58 | 4:21.15 | 261808 | 281397
16 | 62:31.73 | 3:57.64 | 281398 | 299236
17 | 66:29.62 | 4:28.58 | 299237 | 319394
18 | 70:58.45 | 5:39.52 | 319395 | 344871


Range status and errors

Selected range

Filename R:\EAC Rips\TASOS\Hits Of The 80's\Hits Of The 80s Vol 1\H80-1-4\Various - Greatest Hits Of The 80's CD4.wav

Peak level 99.9 %
Extraction speed 4.1 X
Range quality 99.9 %
Test CRC ACE5BF99
Copy CRC ACE5BF99
Copy OK

No errors occurred


AccurateRip summary

Track 1 accurately ripped (confidence 18) [F98C56B4] (AR v2)
Track 2 accurately ripped (confidence 18) [2A147255] (AR v2)
Track 3 accurately ripped (confidence 17) [A6933532] (AR v2)
Track 4 accurately ripped (confidence 17) [593E16C9] (AR v2)
Track 5 accurately ripped (confidence 17) [12E107C9] (AR v2)
Track 6 accurately ripped (confidence 18) [A0D3A66C] (AR v2)
Track 7 accurately ripped (confidence 18) [14692EB5] (AR v2)
Track 8 accurately ripped (confidence 19) [D03EEE29] (AR v2)
Track 9 accurately ripped (confidence 17) [1C6E3CA0] (AR v2)
Track 10 accurately ripped (confidence 18) [6EBB1B61] (AR v2)
Track 11 accurately ripped (confidence 16) [E4113F25] (AR v2)
Track 12 accurately ripped (confidence 17) [537C037B] (AR v2)
Track 13 accurately ripped (confidence 19) [E969EB14] (AR v2)
Track 14 accurately ripped (confidence 19) [B11F7382] (AR v2)
Track 15 accurately ripped (confidence 16) [1D75BAC6] (AR v2)
Track 16 accurately ripped (confidence 18) [A5F601E7] (AR v2)
Track 17 accurately ripped (confidence 16) [7F78B5B1] (AR v2)
Track 18 accurately ripped (confidence 16) [58B45392] (AR v2)

All tracks accurately ripped

End of status report

–– CUETools DB Plugin V2.1.3

[CTDB TOCID: ASlLzQkdejsoS6sNOme0E_zjqFY-] found, Submit result: ASlLzQkdejsoS6sNOme0E_zjqFY- has been confirmed
[91fe5d74] (103/104) Accurately ripped
[9a680ec2] (001/104) Differs in 2 samples @73:06:14
You can use CUETools to repair this rip.


==== Log checksum 13813F9A0BEE195997BC3E530BD68D2D4ED8B087946737BFD3ECB25A0C0D9C8B ====

V.A. - Greatest hits of the 80's (8CD Box, 1998)

CD5 (1:19:39 | ~ 552 mB & 188 mB)

TRACKLIST
01. Mel & Kim - Showing Out (Get Fresh at the Weekend)
02. B.V.S.M.P. - I Need You
03. Baltimora - Tarzan Boy
04. Bruce & Bongo - Geil
05. MC Miker G & DJ Sven - Holiday Rap
06. George Baker Selection - Santa Lucia by Night
07. Sydney Youngblood - If Only I Could
08. Jellybean - The Real Thing
09. Adeva - Respect
10. FPI Project - Rich in Paradise
11. Scotch - Disco Band
12. King MC - What Have I Done for You Lately
13. Nu Shooz - I Can't Wait
14. Culture Club - Time (Clock of the Heart)
15. Dexys Midnight Runners - Geno
16. David Grant & Jaki Graham - Mated
17. Go West - We Close Our Eyes
18. Fun Fun - Hit Mix: Happy Station / Color My Love / Baila Bolero / Give Me Your Love

Exact Audio Copy V1.0 beta 3 from 29. August 2011

EAC extraction logfile from 17. December 2011, 6:16

Various Artists / Greatest Hits of the 80's CD5

Used drive : HL-DT-STDVDRAM GH10N Adapter: 1 ID: 1

Read mode : Secure
Utilize accurate stream : Yes
Defeat audio cache : Yes
Make use of C2 pointers : No

Read offset correction : 667
Overread into Lead-In and Lead-Out : No
Fill up missing offset samples with silence : Yes
Delete leading and trailing silent blocks : No
Null samples used in CRC calculations : Yes
Used interface : Native Win32 interface for Win NT & 2000

Used output format : User Defined Encoder
Selected bitrate : 1024 kBit/s
Quality : High
Add ID3 tag : Yes
Command line compressor : C:\Program Files\Exact Audio Copy New\Flac\flac.exe
Additional command line options : -V -5 -T "artist=%artist%" -T "title=%title%" -T "album=%albumtitle%" -T "tracknumber=%tracknr2%" -T "genre=%genre%" -5 %source%


TOC of the extracted CD

Track | Start | Length | Start sector | End sector
––––––––––––––––––––––––––––-
1 | 0:00.00 | 4:10.39 | 0 | 18788
2 | 4:10.39 | 5:05.31 | 18789 | 41694
3 | 9:15.70 | 3:26.09 | 41695 | 57153
4 | 12:42.04 | 4:03.26 | 57154 | 75404
5 | 16:45.30 | 4:27.48 | 75405 | 95477
6 | 21:13.03 | 4:14.36 | 95478 | 114563
7 | 25:27.39 | 3:29.74 | 114564 | 130312
8 | 28:57.38 | 5:36.27 | 130313 | 155539
9 | 34:33.65 | 4:04.55 | 155540 | 173894
10 | 38:38.45 | 5:51.48 | 173895 | 200267
11 | 44:30.18 | 5:01.22 | 200268 | 222864
12 | 49:31.40 | 6:03.59 | 222865 | 250148
13 | 55:35.24 | 3:41.46 | 250149 | 266769
14 | 59:16.70 | 3:44.29 | 266770 | 283598
15 | 63:01.24 | 3:28.11 | 283599 | 299209
16 | 66:29.35 | 3:49.31 | 299210 | 316415
17 | 70:18.66 | 3:42.08 | 316416 | 333073
18 | 74:00.74 | 5:38.66 | 333074 | 358489


Range status and errors

Selected range

Filename R:\EAC Rips\TASOS\Hits Of The 80's\Hits Of The 80s Vol 1\H80-1-5\Various Artists - Greatest Hits of the 80's CD5.wav

Peak level 99.8 %
Extraction speed 4.1 X
Range quality 100.0 %
Test CRC AF1EF659
Copy CRC AF1EF659
Copy OK

No errors occurred


AccurateRip summary

Track 1 accurately ripped (confidence 16) [05E34881] (AR v2)
Track 2 accurately ripped (confidence 17) [8C2EA984] (AR v2)
Track 3 accurately ripped (confidence 17) [3D165A9D] (AR v2)
Track 4 accurately ripped (confidence 16) [0FCDDFF5] (AR v2)
Track 5 accurately ripped (confidence 17) [896416D6] (AR v2)
Track 6 accurately ripped (confidence 16) [3BEB7BD3] (AR v2)
Track 7 accurately ripped (confidence 17) [9B128CD6] (AR v2)
Track 8 accurately ripped (confidence 16) [7FE8EA15] (AR v2)
Track 9 accurately ripped (confidence 16) [AA3773CC] (AR v2)
Track 10 accurately ripped (confidence 16) [60D786FD] (AR v2)
Track 11 accurately ripped (confidence 17) [3A317727] (AR v2)
Track 12 accurately ripped (confidence 16) [6B7913CE] (AR v2)
Track 13 accurately ripped (confidence 17) [D05CBE6E] (AR v2)
Track 14 accurately ripped (confidence 16) [789EF8FB] (AR v2)
Track 15 accurately ripped (confidence 16) [6B77A028] (AR v2)
Track 16 accurately ripped (confidence 16) [AA54AEEE] (AR v2)
Track 17 accurately ripped (confidence 13) [5425C031] (AR v2)
Track 18 accurately ripped (confidence 14) [1C16A3BB] (AR v2)

All tracks accurately ripped

End of status report

–– CUETools DB Plugin V2.1.3

[CTDB TOCID: ZWOcBrY3Hs__p_y.UNJfkgN62ts-] found, Submit result: ZWOcBrY3Hs__p_y.UNJfkgN62ts- has been confirmed
[d7704f0a] (124/125) Accurately ripped
[98fb0f8d] (001/125) No match


==== Log checksum 759DCEA1F0222020DD3A1D2F97C6851022A68194FD5A2A4CA6543A9D4C9F6328 ====

V.A. - Greatest hits of the 80's (8CD Box, 1998)

CD6 (1:13:40 | ~ 541 mB & 174 mB)

TRACKLIST
01. Blondie - Atomic
02. Afrika Bambaataa - Reckless (feat. UB40)
03. T'Pau - Heart and Soul
04. John Waite - Missing You
05. Broken English - Comin' on Strong
06. Glass Tiger - Don't Forget Me
07. Amazulu - Mony Mony
08. Sly Fox - Let's Go All the Way
09. Fern Kinney - Together We Are Beautiful
10. The Look - I Am the Beat
11. Eddy Grant - Gimme Hope Jo'anna
12. Brother Beyond - The Harder I Try
13. Thomas Dolby - Hyperactive!
14. Culture Club - Victims
15. Heaven 17 - Temptation
16. Kim Wilde - Chequered Love
17. Mel & Kim - Respectable
18. David Austin - Turn to Gold

Exact Audio Copy V1.0 beta 3 from 29. August 2011

EAC extraction logfile from 17. December 2011, 7:55

Various Artists / Greatest Hits of the 80's

Used drive : HL-DT-STDVDRAM GH10N Adapter: 1 ID: 1

Read mode : Secure
Utilize accurate stream : Yes
Defeat audio cache : Yes
Make use of C2 pointers : No

Read offset correction : 667
Overread into Lead-In and Lead-Out : No
Fill up missing offset samples with silence : Yes
Delete leading and trailing silent blocks : No
Null samples used in CRC calculations : Yes
Used interface : Native Win32 interface for Win NT & 2000

Used output format : User Defined Encoder
Selected bitrate : 1024 kBit/s
Quality : High
Add ID3 tag : Yes
Command line compressor : C:\Program Files\Exact Audio Copy New\Flac\flac.exe
Additional command line options : -V -5 -T "artist=%artist%" -T "title=%title%" -T "album=%albumtitle%" -T "tracknumber=%tracknr2%" -T "genre=%genre%" -5 %source%


TOC of the extracted CD

Track | Start | Length | Start sector | End sector
––––––––––––––––––––––––––––-
1 | 0:00.00 | 4:39.13 | 0 | 20937
2 | 4:39.13 | 3:53.41 | 20938 | 38453
3 | 8:32.54 | 4:11.37 | 38454 | 57315
4 | 12:44.16 | 3:32.30 | 57316 | 73245
5 | 16:16.46 | 3:53.01 | 73246 | 90721
6 | 20:09.47 | 4:06.63 | 90722 | 109234
7 | 24:16.35 | 4:04.20 | 109235 | 127554
8 | 28:20.55 | 3:52.68 | 127555 | 145022
9 | 32:13.48 | 4:13.38 | 145023 | 164035
10 | 36:27.11 | 3:06.74 | 164036 | 178059
11 | 39:34.10 | 4:01.38 | 178060 | 196172
12 | 43:35.48 | 3:29.65 | 196173 | 211912
13 | 47:05.38 | 4:13.13 | 211913 | 230900
14 | 51:18.51 | 4:54.70 | 230901 | 253020
15 | 56:13.46 | 4:40.28 | 253021 | 274048
16 | 60:53.74 | 3:22.20 | 274049 | 289218
17 | 64:16.19 | 5:41.68 | 289219 | 314861
18 | 69:58.12 | 3:41.72 | 314862 | 331508


Range status and errors

Selected range

Filename R:\EAC Rips\TASOS\Hits Of The 80's\Hits Of The 80s Vol 1\H80-1-6\Various Artists - Greatest Hits of the 80's.wav

Peak level 100.0 %
Extraction speed 1.2 X
Range quality 99.7 %
Test CRC 08D7953D
Copy CRC 08D7953D
Copy OK

No errors occurred


AccurateRip summary

Track 1 accurately ripped (confidence 17) [0DFF5414] (AR v2)
Track 2 accurately ripped (confidence 17) [642E617B] (AR v2)
Track 3 accurately ripped (confidence 17) [21F03D95] (AR v2)
Track 4 accurately ripped (confidence 17) [738DD0C3] (AR v2)
Track 5 accurately ripped (confidence 17) [710F7EE9] (AR v2)
Track 6 accurately ripped (confidence 17) [70618061] (AR v2)
Track 7 accurately ripped (confidence 17) [5C68DDC3] (AR v2)
Track 8 accurately ripped (confidence 17) [283FBC03] (AR v2)
Track 9 accurately ripped (confidence 17) [3C2A4EEC] (AR v2)
Track 10 accurately ripped (confidence 16) [98F83563] (AR v2)
Track 11 accurately ripped (confidence 18) [077FB0F0] (AR v2)
Track 12 accurately ripped (confidence 16) [ED69AA07] (AR v2)
Track 13 accurately ripped (confidence 17) [DE65A2CC] (AR v2)
Track 14 accurately ripped (confidence 17) [F6D5ECE5] (AR v2)
Track 15 accurately ripped (confidence 17) [205CABC5] (AR v2)
Track 16 accurately ripped (confidence 17) [F379D28C] (AR v2)
Track 17 accurately ripped (confidence 16) [2C6DC98F] (AR v2)
Track 18 cannot be verified as accurate (confidence 123) [58FE021C], AccurateRip returned [F823A516] (AR v2)

17 track(s) accurately ripped
1 track(s) could not be verified as accurate

Some tracks could not be verified as accurate

End of status report

–– CUETools DB Plugin V2.1.3

[CTDB TOCID: RB0hSb_Iy02q0OVklQKuqtp4NxY-] found, Submit result: RB0hSb_Iy02q0OVklQKuqtp4NxY- has been uploaded
[1aa4c05c] (001/126) Differs in 224 samples @45:05:10,70:27:64-70:27:65,70:34:11
[0c9827e9] (125/126) Differs in 10 samples @70:27:64-70:27:65,70:34:11
You can use CUETools to repair this rip.


==== Log checksum 839EC29E816D6EF6ECBBA532B9146ED6F82F3135DE9D227C9C4A73ECC7827C74 ====

V.A. - Greatest hits of the 80's (8CD Box, 1998)

CD7 (1:14:34 | ~ 514 mB & 176 mB)

TRACKLIST
01. Tracey Ullman - Sunglasses
02. Ultravox - All Stood Still
03. Duran Duran - Save a Prayer
04. China Crisis - Wishful Thinking
05. Adrian Gurvitz - Classic
06. Huey Lewis & The News - The Power of Love
07. Hot Chocolate - It Started With a Kiss
08. The B.B. & Q. Band - On the Beat
09. Blondie - Call Me
10. Eddy Grant - I Don't Wanna Dance
11. Jaki Graham - Set Me Free
12. Boris Gardiner - I Want to Wake Up With You
13. The J. Geils Band - Freeze-Frame
14. Jermaine Stewart - We Don't Have to Take Our Clothes Off
15. Deborah Harry - French Kissin' in the USA
16. Peter Tosh - Johnny B Goode
17. The Special A.K.A. - Free Nelson Mandela
18. The Stranglers - Golden Brown

Exact Audio Copy V1.0 beta 3 from 29. August 2011

EAC extraction logfile from 17. December 2011, 17:18

Various Artists / Greatest Hits of the 80's CD7

Used drive : HL-DT-STDVDRAM GH10N Adapter: 1 ID: 1

Read mode : Secure
Utilize accurate stream : Yes
Defeat audio cache : Yes
Make use of C2 pointers : No

Read offset correction : 667
Overread into Lead-In and Lead-Out : No
Fill up missing offset samples with silence : Yes
Delete leading and trailing silent blocks : No
Null samples used in CRC calculations : Yes
Used interface : Native Win32 interface for Win NT & 2000

Used output format : User Defined Encoder
Selected bitrate : 1024 kBit/s
Quality : High
Add ID3 tag : Yes
Command line compressor : C:\Program Files\Exact Audio Copy New\Flac\flac.exe
Additional command line options : -V -5 -T "artist=%artist%" -T "title=%title%" -T "album=%albumtitle%" -T "tracknumber=%tracknr2%" -T "genre=%genre%" -5 %source%


TOC of the extracted CD

Track | Start | Length | Start sector | End sector
––––––––––––––––––––––––––––-
1 | 0:00.00 | 2:58.20 | 0 | 13369
2 | 2:58.20 | 3:41.52 | 13370 | 29996
3 | 6:39.72 | 5:26.54 | 29997 | 54500
4 | 12:06.51 | 4:10.35 | 54501 | 73285
5 | 16:17.11 | 3:40.71 | 73286 | 89856
6 | 19:58.07 | 4:21.28 | 89857 | 109459
7 | 24:19.35 | 4:02.68 | 109460 | 127677
8 | 28:22.28 | 7:01.71 | 127678 | 159323
9 | 35:24.24 | 3:28.08 | 159324 | 174931
10 | 38:52.32 | 3:40.53 | 174932 | 191484
11 | 42:33.10 | 3:37.15 | 191485 | 207774
12 | 46:10.25 | 4:01.39 | 207775 | 225888
13 | 50:11.64 | 3:57.32 | 225889 | 243695
14 | 54:09.21 | 4:07.01 | 243696 | 262221
15 | 58:16.22 | 4:11.59 | 262222 | 281105
16 | 62:28.06 | 4:03.39 | 281106 | 299369
17 | 66:31.45 | 4:35.44 | 299370 | 320038
18 | 71:07.14 | 3:27.08 | 320039 | 335571


Range status and errors

Selected range

Filename R:\EAC Rips\TASOS\Hits Of The 80's\Hits Of The 80s Vol 1\H80-1-7\Various Artists - Greatest Hits of the 80's CD7.wav

Peak level 99.8 %
Extraction speed 2.3 X
Range quality 100.0 %
Test CRC 08DFDCB8
Copy CRC 08DFDCB8
Copy OK

No errors occurred


AccurateRip summary

Track 1 accurately ripped (confidence 15) [056B51CE] (AR v2)
Track 2 accurately ripped (confidence 15) [5E87F45E] (AR v2)
Track 3 accurately ripped (confidence 15) [89073721] (AR v2)
Track 4 accurately ripped (confidence 15) [B0A508CC] (AR v2)
Track 5 accurately ripped (confidence 15) [20BDDBD2] (AR v2)
Track 6 accurately ripped (confidence 15) [C531463F] (AR v2)
Track 7 accurately ripped (confidence 15) [4E3BA55A] (AR v2)
Track 8 accurately ripped (confidence 15) [E71B2654] (AR v2)
Track 9 accurately ripped (confidence 15) [173A1A6A] (AR v2)
Track 10 accurately ripped (confidence 15) [5C4185CD] (AR v2)
Track 11 accurately ripped (confidence 15) [3921D3ED] (AR v2)
Track 12 accurately ripped (confidence 15) [F55A13FC] (AR v2)
Track 13 accurately ripped (confidence 15) [DA425A5F] (AR v2)
Track 14 accurately ripped (confidence 15) [1BC55CFE] (AR v2)
Track 15 accurately ripped (confidence 15) [808A3B83] (AR v2)
Track 16 accurately ripped (confidence 15) [BC8A092F] (AR v2)
Track 17 accurately ripped (confidence 14) [6A908078] (AR v2)
Track 18 accurately ripped (confidence 14) [9072D7B5] (AR v2)

All tracks accurately ripped

End of status report

–– CUETools DB Plugin V2.1.3

[CTDB TOCID: VbviI07YZPZzRS298MknFdiIU6M-] found, Submit result: VbviI07YZPZzRS298MknFdiIU6M- has been confirmed
[4d3119e3] (125/125) Accurately ripped


==== Log checksum FD6076B2E5BFDBBE2228A4519CEA12CFAD8B26B337AAF49A1248333B97577A39 ====

V.A. - Greatest hits of the 80's (8CD Box, 1998)

CD8 (1:12:23 | ~ 485 mB & 171 mB)

TRACKLIST
01. Talking Heads - Slippery People (live)
02. Icehouse - Hey Little Girl
03. Lene Lovich - Lucky Number
04. The Power Station - Some Like It Hot
05. Robbie Nevil - C'est la vie
06. Spandau Ballet - Chant No. 1 (I Don't Need This Pressure on)
07. Duran Duran - Girls on Film
08. XTC - Senses Working Overtime
09. Kajagoogoo - Ooh to Be Ah
10. Huey Lewis & The News - Hip to Be Square
11. Ultravox - Vienna
12. Peabo Bryson & Roberta Flack - Tonight I Celebrate My Love
13. Marillion - Lavender
14. Gazebo - Lunatic
15. Living in a Box - Room in Your Heart
16. Jimmy Nail - Love Don't Live Here Anymore
17. David Grant & Jaki Graham - Could It Be I'm Falling in Love
18. Freddie Jackson - Rock Me Tonight (For Old Times Sake)

Exact Audio Copy V1.0 beta 3 from 29. August 2011

EAC extraction logfile from 17. December 2011, 17:53

Various Artists / Greatest Hits of the 80's CD8

Used drive : HL-DT-STDVDRAM GH10N Adapter: 1 ID: 1

Read mode : Secure
Utilize accurate stream : Yes
Defeat audio cache : Yes
Make use of C2 pointers : No

Read offset correction : 667
Overread into Lead-In and Lead-Out : No
Fill up missing offset samples with silence : Yes
Delete leading and trailing silent blocks : No
Null samples used in CRC calculations : Yes
Used interface : Native Win32 interface for Win NT & 2000

Used output format : User Defined Encoder
Selected bitrate : 1024 kBit/s
Quality : High
Add ID3 tag : Yes
Command line compressor : C:\Program Files\Exact Audio Copy New\Flac\flac.exe
Additional command line options : -V -5 -T "artist=%artist%" -T "title=%title%" -T "album=%albumtitle%" -T "tracknumber=%tracknr2%" -T "genre=%genre%" -5 %source%


TOC of the extracted CD

Track | Start | Length | Start sector | End sector
––––––––––––––––––––––––––––-
1 | 0:00.00 | 4:14.64 | 0 | 19113
2 | 4:14.64 | 4:17.09 | 19114 | 38397
3 | 8:31.73 | 2:48.41 | 38398 | 51038
4 | 11:20.39 | 5:07.05 | 51039 | 74068
5 | 16:27.44 | 3:04.65 | 74069 | 87933
6 | 19:32.34 | 4:06.10 | 87934 | 106393
7 | 23:38.44 | 3:30.02 | 106394 | 122145
8 | 27:08.46 | 4:48.11 | 122146 | 143756
9 | 31:56.57 | 3:37.49 | 143757 | 160080
10 | 35:34.31 | 4:04.48 | 160081 | 178428
11 | 39:39.04 | 4:38.61 | 178429 | 199339
12 | 44:17.65 | 3:29.52 | 199340 | 215066
13 | 47:47.42 | 3:41.47 | 215067 | 231688
14 | 51:29.14 | 3:59.09 | 231689 | 249622
15 | 55:28.23 | 4:37.67 | 249623 | 270464
16 | 60:06.15 | 3:55.50 | 270465 | 288139
17 | 64:01.65 | 4:17.38 | 288140 | 307452
18 | 68:19.28 | 4:03.55 | 307453 | 325732


Range status and errors

Selected range

Filename R:\EAC Rips\TASOS\Hits Of The 80's\Hits Of The 80s Vol 1\H80-1-8\Various Artists - Greatest Hits of the 80's CD8.wav

Peak level 100.0 %
Extraction speed 3.6 X
Range quality 100.0 %
Test CRC E608D0D4
Copy CRC E608D0D4
Copy OK

No errors occurred


AccurateRip summary

Track 1 accurately ripped (confidence 15) [FD3C8834] (AR v2)
Track 2 accurately ripped (confidence 15) [DE91732D] (AR v2)
Track 3 accurately ripped (confidence 15) [8656E232] (AR v2)
Track 4 accurately ripped (confidence 15) [B70A3E2D] (AR v2)
Track 5 accurately ripped (confidence 15) [7C1297DB] (AR v2)
Track 6 accurately ripped (confidence 15) [D703AE1A] (AR v2)
Track 7 accurately ripped (confidence 15) [009DA51A] (AR v2)
Track 8 accurately ripped (confidence 15) [46B63103] (AR v2)
Track 9 accurately ripped (confidence 15) [35A37FAF] (AR v2)
Track 10 accurately ripped (confidence 15) [78EC12DC] (AR v2)
Track 11 accurately ripped (confidence 15) [EE5A8D45] (AR v2)
Track 12 accurately ripped (confidence 15) [EB5E6773] (AR v2)
Track 13 accurately ripped (confidence 15) [B1DCFA2A] (AR v2)
Track 14 accurately ripped (confidence 15) [0958E670] (AR v2)
Track 15 accurately ripped (confidence 15) [0E61D664] (AR v2)
Track 16 accurately ripped (confidence 15) [4A5D8F29] (AR v2)
Track 17 accurately ripped (confidence 16) [CC067C20] (AR v2)
Track 18 accurately ripped (confidence 16) [98C03A64] (AR v2)

All tracks accurately ripped

End of status report

–– CUETools DB Plugin V2.1.3

[CTDB TOCID: c5PfE.wUI8otvS2f68me_Qbl_TY-] found, Submit result: c5PfE.wUI8otvS2f68me_Qbl_TY- has been confirmed
[808857dc] (121/122) Accurately ripped
[3ae28742] (001/122) Differs in 5 samples @63:59:46
You can use CUETools to repair this rip.


==== Log checksum 06A280E9AD766CCFB8E5577BB569F6607FB4FEA9E4119968D529B97C1C69F88D ====