Johnny Griffin & Dexter Gordon - Jazz Undulation (1968) {2014 Japan Studio Songs Remaster YZSO Series}

Posted By: ruskaval
Johnny Griffin & Dexter Gordon - Jazz Undulation (1968) {2014 Japan Studio Songs Remaster YZSO Series}

Johnny Griffin & Dexter Gordon - Jazz Undulation (1968) {2014 Japan Studio Songs Remaster YZSO Series}
EAC rip (secure mode) | FLAC (tracks)+CUE+LOG -> 129 Mb | MP3 @320 -> 91 Mb
Full Artwork @ 600 dpi (png) -> 167 Mb | 5% repair rar
© 2014 Studio Songs Japan | YZSO-10042 | Mono
Jazz / Hard Bop / Saxophone

Jazz Undulation is an exciting live album that captured tenor saxophonist Johnny Griffin in an interesting and unusual setting. Bassist Jimmy Woode and drummer Kenny Clarke were frequent collaborators of Griffin's at the time, all three living in Europe and being members of the Clarke-Boland Big Band. Pianist Hampton Hawes was visiting Europe at the time, and probably just happened to meet them in Rome.

The first two tunes are performed by these four musicians, with Griffin showing his brawn and technical brilliance on standards "Body and Soul" and "All The Things You Are." These are very exciting, but the excitement level goes up a notch on "Blues Up And Down" by Sonny Stitt, as Dexter Gordon joins Griffin in a typical two tenor battle that lasts over 20 minutes!

Newly remastered in Japan based on the original mono master tapes, this reissue CD is an important document of Johnny Griffin in 1968. The rare meeting with Dexter Gordon is priceless!

Recorded live in Rome, 1968. This Japanese reissue CD released by Studio Songs in May 2014. Mono.
Johnny Griffin & Dexter Gordon - Jazz Undulation (1968) {2014 Japan Studio Songs Remaster YZSO Series}


Personnel:
Johnny Griffin (tenor sax)
Hampton Hawes (piano)
Jimmy Woode (bass)
Kenny Clarke (drums)
Dexter Gordon (tenor sax) (only 3)

tracklist:
01 - Body & Soul
02 - All The Things You Are
03 - Blues Up And Down

Exact Audio Copy V1.1 from 23. June 2015

EAC extraction logfile from 4. January 2016, 7:29

Johnny Griffin & Dexter Gordon / Jazz Undulation

Used drive : TSSTcorpCDDVDW SE-208DB Adapter: 7 ID: 0

Read mode : Secure
Utilize accurate stream : Yes
Defeat audio cache : Yes
Make use of C2 pointers : No

Read offset correction : 6
Overread into Lead-In and Lead-Out : No
Fill up missing offset samples with silence : Yes
Delete leading and trailing silent blocks : No
Null samples used in CRC calculations : Yes
Used interface : Installed external ASPI interface
Gap handling : Appended to previous track

Used output format : User Defined Encoder
Selected bitrate : 1024 kBit/s
Quality : High
Add ID3 tag : No
Command line compressor : C:\Program Files (x86)\FLAC Frontend\tools\flac.exe
Additional command line options : -8 -V -T "ARTIST=%artist%" -T "TITLE=%title%" -T "ALBUM=%albumtitle%" -T "DATE=%year%" -T "TRACKNUMBER=%tracknr%" -T "TOTALTRACKS=%numtracks%" -T "GENRE=%genre%" -T "ALBUMARTIST=%albumartist%" -T "ALBUM ARTIST=%albumartist%" -T "COMMENT=EAC Secure Mode, Test & Copy, AccurateRip, FLAC -8" %source%


TOC of the extracted CD

Track | Start | Length | Start sector | End sector
––––––––––––––––––––––––––––-
1 | 0:00.37 | 7:09.28 | 37 | 32239
2 | 7:09.65 | 13:54.20 | 32240 | 94809
3 | 21:04.10 | 20:45.40 | 94810 | 188224


Track 1

Filename M:\_EAC\Johnny Griffin & Dexter Gordon - Jazz Undulation (1968) [FLAC] {YZSO-10042}\01 - Body & Soul.wav

Pre-gap length 0:00:02.37

Peak level 95.5 %
Extraction speed 1.2 X
Track quality 100.0 %
Test CRC 9C67E8B3
Copy CRC 9C67E8B3
Accurately ripped (confidence 3) [427A741B] (AR v2)
Copy OK

Track 2

Filename M:\_EAC\Johnny Griffin & Dexter Gordon - Jazz Undulation (1968) [FLAC] {YZSO-10042}\02 - All The Things You Are.wav

Pre-gap length 0:00:03.74

Peak level 100.0 %
Extraction speed 1.6 X
Track quality 100.0 %
Test CRC 0A3A52AD
Copy CRC 0A3A52AD
Accurately ripped (confidence 3) [149BFAD2] (AR v2)
Copy OK

Track 3

Filename M:\_EAC\Johnny Griffin & Dexter Gordon - Jazz Undulation (1968) [FLAC] {YZSO-10042}\03 - Blues Up And Down.wav

Pre-gap length 0:00:05.02

Peak level 91.5 %
Extraction speed 2.1 X
Track quality 100.0 %
Test CRC D6DC425C
Copy CRC D6DC425C
Accurately ripped (confidence 3) [3942E0D3] (AR v2)
Copy OK


All tracks accurately ripped

No errors occurred

End of status report

==== Log checksum AC1B2447E305DDF2EA0501AD7C9481E1615F67D38948BB55BB538B601C8C5503 ====


Johnny Griffin & Dexter Gordon - Jazz Undulation (1968) {2014 Japan Studio Songs Remaster YZSO Series}

Johnny Griffin & Dexter Gordon - Jazz Undulation (1968) {2014 Japan Studio Songs Remaster YZSO Series}




NEXT -> More Studio Songs Japan YZSO Series on the way…