Subcategories

Guitar Slim Jr. - Nothing Nice (1996)

Posted By: Domestos
Guitar Slim Jr. - Nothing Nice (1996)

Guitar Slim Jr. - Nothing Nice (1996)
EAC Rip | FLAC (image+.cue, log) ~ 324.20 Mb | 48:21 | Covers
Blues | Country: USA | Label: Warehouse Creek (WCRC1224)

Fans of the pre-eminent New Orleans electric guitarist of the '40s and '50s should make note of the "Junior" appendage to that name. This is not Eddie Jones, the original Guitar Slim, but his son, Rodney Armstrong, born in New Orleans in 1951. Although Armstrong didn't grow up with his father, who died in 1959, he seems to absorbed a good amount of his style, along with the rougher-edged playing of Chicago-style guitar masters like Albert and Freddie King. This 1996 release is a live-in-the-studio session featuring the Memphis Horns. Armstrong's playing is fiery throughout, but with a sweetness of tone in songs like "Oo Wee Baby I Love You" and a take on the Otis Redding arrangement of the standard "Try A Little Tenderness" that's reminiscent of his father. ~ AllMusic Review by AllMusic

Track List:
01.If You Think That Jive Will Do
02.I Feel So Bad
03.Oo Wee Baby, I Love You
04.Steal Away
05.The Things I Used To Do
06.Try A Little Tenderness
07.I Want You
08.The Rivers Invitation
09.Our Only Child
10.Leave My Girl Alone
11.I Got Sumpin For You

Guitar Slim Jr. - Nothing Nice (1996)

Exact Audio Copy V1.3 from 2. September 2016

Отчёт EAC об извлечении, выполненном 14. октября 2017, 19:24

Guitar Slim Jr. / Nothing Nice

Дисковод: PIONEER DVD-RW DVR-219L Adapter: 1 ID: 0

Режим чтения : Достоверность
Использование точного потока : Да
Отключение кэша аудио : Да
Использование указателей C2 : Нет

Коррекция смещения при чтении : 6
Способность читать области Lead-in и Lead-out : Нет
Заполнение пропущенных сэмплов тишиной : Да
Удаление блоков с тишиной в начале и конце : Нет
При вычислениях CRC использовались нулевые сэмплы : Да
Интерфейс : Встроенный Win32-интерфейс для Win NT/2000

Выходной формат : Пользовательский кодировщик
Выбранный битрейт : 768 kBit/s
Качество : Высокий
Добавление ID3-тега : Нет
Утилита сжатия : C:\Program Files\Exact Audio Copy\FLAC\FLAC.EXE
Дополнительные параметры : -6 -V -T "ARTIST=%artist%" -T "TITLE=%title%" -T "ALBUM=%albumtitle%" -T "DATE=%year%" -T "TRACKNUMBER=%tracknr%" -T "GENRE=%genre%" -T "COMMENT=%comment%" -T "BAND=%albuminterpret%" -T "ALBUMARTIST=%albuminterpret%" -T "COMPOSER=%composer%" %haslyrics%–tag-from-file=LYRICS="%lyricsfile%"%haslyrics% -T "DISCNUMBER=%cdnumber%" -T "TOTALDISCS=%totalcds%" -T "TOTALTRACKS=%numtracks%" %hascover%–picture="%coverfile%"%hascover% %source% -o %dest%

TOC извлечённого CD

Трек | Старт | Длительность | Начальный сектор | Конечный сектор
––––––––––––––––––––––––––––––––––-
1 | 0:00.00 | 4:11.25 | 0 | 18849
2 | 4:11.25 | 4:40.32 | 18850 | 39881
3 | 8:51.57 | 4:01.55 | 39882 | 58011
4 | 12:53.37 | 5:12.68 | 58012 | 81479
5 | 18:06.30 | 4:20.55 | 81480 | 101034
6 | 22:27.10 | 5:00.35 | 101035 | 123569
7 | 27:27.45 | 3:34.55 | 123570 | 139674
8 | 31:02.25 | 4:59.57 | 139675 | 162156
9 | 36:02.07 | 3:24.15 | 162157 | 177471
10 | 39:26.22 | 4:57.45 | 177472 | 199791
11 | 44:23.67 | 3:57.68 | 199792 | 217634

Характеристики диапазона извлечения и сообщения об ошибках

Выбранный диапазон

Имя файла E:\Раздачи\Guitar Slim Jr - Nothing Nice - 1996\Guitar Slim Jr. - Nothing Nice.wav

Пиковый уровень 99.9 %
Скорость извлечения 3.0 X
Качество диапазона 100.0 %
CRC копии B2B7E8AE
Копирование… OK

Ошибок не произошло

AccurateRip: сводка

Трек 1 : извлечено точно (доверие 3) [51872D91] (AR v2)
Трек 2 : извлечено точно (доверие 3) [0284733E] (AR v2)
Трек 3 : извлечено точно (доверие 3) [D9AB57A0] (AR v2)
Трек 4 : извлечено точно (доверие 3) [047EA8A3] (AR v2)
Трек 5 : извлечено точно (доверие 3) [4E66BFC4] (AR v2)
Трек 6 : извлечено точно (доверие 3) [A6D28E32] (AR v2)
Трек 7 : извлечено точно (доверие 3) [9EE7E817] (AR v2)
Трек 8 : извлечено точно (доверие 3) [1EB4524A] (AR v2)
Трек 9 : извлечено точно (доверие 3) [48003A41] (AR v2)
Трек 10 : извлечено точно (доверие 3) [15E520F4] (AR v2)
Трек 11 : извлечено точно (доверие 3) [7C7334AB] (AR v2)

Все треки извлечены точно

Конец отчёта

–– CUETools DB Plugin V2.1.6

[CTDB TOCID: efYd7sCbQkHXhPCOdmoyfAJe9vw-] disk not present in database
Submit result: efYd7sCbQkHXhPCOdmoyfAJe9vw- has been uploaded

==== Контрольная сумма отчёта 7A8A2955231FBD82E2117D83A559E1EBCCAF96D85C647ECD7A7BAA2B0DB05C53 ====

All thanks go to the pazanenok

More Music in My Blog
Follow My RSS Channel