Subcategories

Gustav Mahler - Complete Symphonies Nos. 1-9 - Lorin Maazel (2017) {15CD Box Set Signum Classics SIGCD363}

Posted By: ruskaval
Gustav Mahler - Complete Symphonies Nos. 1-9 - Lorin Maazel (2017) {15CD Box Set Signum Classics SIGCD363}

Gustav Mahler - Complete Symphonies Nos. 1-9 - Lorin Maazel (2017) {15CD Box Set Signum Classics SIGCD363}
EAC rip (secure mode) | FLAC (tracks)+CUE+LOG -> 3.28 Gb | MP3 @320 -> 1.75 Gb
Full Artwork @ 300 dpi (png) -> 87 Mb | 5% repair rar
© 2017 Signum Classics | SIGCD363
Classics / Romantic / Symphonies

Led by Lorin Maazel, the Philharmonia Orchestra are captured at their very best in these live performances of Mahler's Nine Symphonies. Recorded in concert at London's Royal Festival Hall, the symphonies include performances by soloists and ensembles including Sarah Connolly, Michelle Deyoung, Philharmonia Voices and the BBC Symphony Chorus. Praise for these performances has been near universal…'You get that audience perspective as if you were sitting in the hall, and its got all the energy and focus of a live or concert recording.' (BBC Radio 3) '…Maazel could sustain this score in a way that seemed to transcend reality…a tremendously moving experience.' (Classical Source) 'an extraordinary reading of the Ninth…a performance touched by greatness.' (Musicweb International).
Gustav Mahler - Complete Symphonies Nos. 1-9 - Lorin Maazel (2017) {15CD Box Set Signum Classics SIGCD363}


Personnel:
Singers: Sally Matthews [2, 8], Michelle de Young [2], Sarah Connolly [3], Sarah Fox [4],
Ailish Tynan, Sarah Tynan, Anne-Marie Owens, Stefan Vinke, Mark Stone, Stephen Gadd [8]

Chorus/Choir: Boys of the Eton College Chapel [8], BBC Symphony Chorus [2],
Philharmonia Voices & Chorus [8] & Tiffin Boys Choir [3]

Orchestra: Philharmonia Orchestra
Conductor: Lorin Maazel

Works on This Recording
1.
Symphony no 1 in D major "Titan" by Gustav Mahler
Conductor: Lorin Maazel
Orchestra/Ensemble: Philharmonia Orchestra
Period: Romantic
Written: 1888/1896
2.
Symphony no 2 in C minor "Resurrection" by Gustav Mahler
Performer: Michelle DeYoung (Mezzo Soprano), Sally Matthews (Soprano)
Conductor: Lorin Maazel
Orchestra/Ensemble: Philharmonia Orchestra, BBC Symphony Chorus
Period: Romantic
Written: 1888/1896; Germany
3.
Symphony no 3 in D minor by Gustav Mahler
Performer: Sarah Connolly (Mezzo Soprano)
Conductor: Lorin Maazel
Orchestra/Ensemble: Philharmonia Orchestra, Tiffin School Boys Chorus, Philharmonia Voices
Period: Romantic
Written: 1893-1896; Hamburg, Germany
4.
Symphony no 4 in G major by Gustav Mahler
Performer: Sarah Fox (Soprano)
Conductor: Lorin Maazel
Orchestra/Ensemble: Philharmonia Orchestra
Period: Romantic
Written: 1892-1900; Vienna, Austria
5.
Symphony no 5 in C sharp minor by Gustav Mahler
Conductor: Lorin Maazel
Orchestra/Ensemble: Philharmonia Orchestra
Period: Romantic
Written: 1901-1902; Vienna, Austria
6.
Symphony no 6 in A minor "Tragic" by Gustav Mahler
Conductor: Lorin Maazel
Orchestra/Ensemble: Philharmonia Orchestra
Period: Romantic
Written: 1904/1906; Austria
7.
Symphony no 7 in E minor by Gustav Mahler
Conductor: Lorin Maazel
Orchestra/Ensemble: Philharmonia Orchestra
Period: Romantic
Written: 1904-1905; Vienna, Austria
8.
Symphony no 8 in E flat major "Symphony of A Thousand" by Gustav Mahler
Performer: Stephen Gadd (Baritone), Anne-Marie Owens (Mezzo Soprano), Stefan Vinke (Tenor),
Sarah Tynan (Soprano), Ailish Tynan (Soprano), Sally Matthews (Soprano),
Sarah Connolly (Mezzo Soprano), Mark Stone (Baritone)
Conductor: Lorin Maazel
Orchestra/Ensemble: Philharmonia Orchestra, Philharmonia Chorus, BBC Symphony Chorus …
Period: Romantic
Written: 1906; Vienna, Austria
9.
Symphony no 9 in D major by Gustav Mahler
Conductor: Lorin Maazel
Orchestra/Ensemble: Philharmonia Orchestra
Period: Romantic
Written: 1908-1909; Austria

Exact Audio Copy V1.0 beta 6 from 9. April 2015

EAC extraction logfile from 9. July 2017, 22:59

Gustav Mahler / Complete Symphonies Nos. 1-9

Used drive : ATAPI DVD A DH16A6L Adapter: 1 ID: 0

Read mode : Secure
Utilize accurate stream : Yes
Defeat audio cache : Yes
Make use of C2 pointers : No

Read offset correction : 6
Overread into Lead-In and Lead-Out : No
Fill up missing offset samples with silence : Yes
Delete leading and trailing silent blocks : No
Null samples used in CRC calculations : Yes
Used interface : Native Win32 interface for Win NT & 2000
Gap handling : Appended to previous track

Used output format : User Defined Encoder
Selected bitrate : 1024 kBit/s
Quality : High
Add ID3 tag : No
Command line compressor : C:\Program Files (x86)\Exact Audio Copy\Flac\flac.exe
Additional command line options : -8 -V -T "ARTIST=%artist%" -T "TITLE=%title%" -T "ALBUM=%albumtitle%" -T "DATE=%year%" -T "TRACKNUMBER=%tracknr%" -T "TOTALTRACKS=%numtracks%" -T "GENRE=%genre%" -T "ALBUMARTIST=%albumartist%" -T "ALBUM ARTIST=%albumartist%" -T "COMMENT=EAC Secure Mode, Test & Copy, AccurateRip, FLAC -8" %source%


TOC of the extracted CD

Track | Start | Length | Start sector | End sector
––––––––––––––––––––––––––––-
1 | 0:00.00 | 16:28.32 | 0 | 74131
2 | 16:28.32 | 8:26.45 | 74132 | 112126
3 | 24:55.02 | 11:18.56 | 112127 | 163032
4 | 36:13.58 | 20:43.66 | 163033 | 256323


Track 1

Filename D:\Gustav Mahler - Complete Symphonies Nos. 1-9 (2017) [FLAC] {Lorin Maazel}\CD1\01 - Symphony No. 1 - I. Langsam, schleppend - Wie ein Naturlaut.wav

Pre-gap length 0:00:02.00

Peak level 94.5 %
Extraction speed 4.3 X
Track quality 100.0 %
Test CRC 84403A76
Copy CRC 84403A76
Cannot be verified as accurate (confidence 8) [7E064BC1], AccurateRip returned [E5A93E18] (AR v2)
Copy OK

Track 2

Filename D:\Gustav Mahler - Complete Symphonies Nos. 1-9 (2017) [FLAC] {Lorin Maazel}\CD1\02 - II. Kraftig bewegt, doch nicht zu schnell.wav

Peak level 70.3 %
Extraction speed 4.6 X
Track quality 99.9 %
Test CRC 685CB487
Copy CRC 685CB487
Cannot be verified as accurate (confidence 8) [05FE7D1C], AccurateRip returned [F51FB2BD] (AR v2)
Copy OK

Track 3

Filename D:\Gustav Mahler - Complete Symphonies Nos. 1-9 (2017) [FLAC] {Lorin Maazel}\CD1\03 - III. Feierlich und gemessen, ohne zu schleppen.wav

Peak level 24.0 %
Extraction speed 5.8 X
Track quality 100.0 %
Test CRC 6D86F1A7
Copy CRC 6D86F1A7
Cannot be verified as accurate (confidence 8) [E24F957F], AccurateRip returned [6D968ACF] (AR v2)
Copy OK

Track 4

Filename D:\Gustav Mahler - Complete Symphonies Nos. 1-9 (2017) [FLAC] {Lorin Maazel}\CD1\04 - IV. Sturmisch bewegt.wav

Peak level 100.0 %
Extraction speed 6.8 X
Track quality 100.0 %
Test CRC 710D9856
Copy CRC 710D9856
Cannot be verified as accurate (confidence 7) [173F62E7], AccurateRip returned [4C3089CC] (AR v2)
Copy OK


No tracks could be verified as accurate
You may have a different pressing from the one(s) in the database

No errors occurred

End of status report

–– CUETools DB Plugin V2.1.6

[CTDB TOCID: FyxJUlVy.TicfTHw1D2bQkgOru4-] found
Submit result: FyxJUlVy.TicfTHw1D2bQkgOru4- has been confirmed
Track | CTDB Status
1 | (18/18) Accurately ripped
2 | (18/18) Accurately ripped
3 | (18/18) Accurately ripped
4 | (16/18) Accurately ripped, or (2/18) differs in 8812 samples @20:43:43-20:43:51


==== Log checksum 4B9A1B63A7396A9F8964A766AFE651F29985ABC5021E4EFF7B9D66EA17EE64B2 ====
Exact Audio Copy V1.0 beta 6 from 9. April 2015

EAC extraction logfile from 9. July 2017, 23:17

Gustav Mahler / Complete Symphonies Nos. 1-9

Used drive : ATAPI DVD A DH16A6L Adapter: 1 ID: 0

Read mode : Secure
Utilize accurate stream : Yes
Defeat audio cache : Yes
Make use of C2 pointers : No

Read offset correction : 6
Overread into Lead-In and Lead-Out : No
Fill up missing offset samples with silence : Yes
Delete leading and trailing silent blocks : No
Null samples used in CRC calculations : Yes
Used interface : Native Win32 interface for Win NT & 2000
Gap handling : Appended to previous track

Used output format : User Defined Encoder
Selected bitrate : 1024 kBit/s
Quality : High
Add ID3 tag : No
Command line compressor : C:\Program Files (x86)\Exact Audio Copy\Flac\flac.exe
Additional command line options : -8 -V -T "ARTIST=%artist%" -T "TITLE=%title%" -T "ALBUM=%albumtitle%" -T "DATE=%year%" -T "TRACKNUMBER=%tracknr%" -T "TOTALTRACKS=%numtracks%" -T "GENRE=%genre%" -T "ALBUMARTIST=%albumartist%" -T "ALBUM ARTIST=%albumartist%" -T "COMMENT=EAC Secure Mode, Test & Copy, AccurateRip, FLAC -8" %source%


TOC of the extracted CD

Track | Start | Length | Start sector | End sector
––––––––––––––––––––––––––––-
1 | 0:00.00 | 25:00.05 | 0 | 112504


Track 1

Filename D:\Gustav Mahler - Complete Symphonies Nos. 1-9 (2017) [FLAC] {Lorin Maazel}\CD2\01 - Symphony No. 2 - I. Allegro maestoso.wav

Pre-gap length 0:00:02.00

Peak level 100.0 %
Extraction speed 4.6 X
Track quality 100.0 %
Test CRC D7790B96
Copy CRC D7790B96
Cannot be verified as accurate (confidence 6) [93E0968A], AccurateRip returned [420FA11C] (AR v2)
Copy OK


No tracks could be verified as accurate
You may have a different pressing from the one(s) in the database

No errors occurred

End of status report

–– CUETools DB Plugin V2.1.6

[CTDB TOCID: QS4eGa1llUMhndK9AbCABxvn4Vc-] found
Submit result: QS4eGa1llUMhndK9AbCABxvn4Vc- has been confirmed
Track | CTDB Status
1 | (19/19) Accurately ripped


==== Log checksum 8DBFC89170D287135B5A7B641F1A6C0DE332AC2E0F3D2E5EB88121654197C039 ====
Exact Audio Copy V1.0 beta 6 from 9. April 2015

EAC extraction logfile from 10. July 2017, 0:02

Gustav Mahler / Complete Symphonies Nos. 1-9

Used drive : ATAPI DVD A DH16A6L Adapter: 1 ID: 0

Read mode : Secure
Utilize accurate stream : Yes
Defeat audio cache : Yes
Make use of C2 pointers : No

Read offset correction : 6
Overread into Lead-In and Lead-Out : No
Fill up missing offset samples with silence : Yes
Delete leading and trailing silent blocks : No
Null samples used in CRC calculations : Yes
Used interface : Native Win32 interface for Win NT & 2000
Gap handling : Appended to previous track

Used output format : User Defined Encoder
Selected bitrate : 1024 kBit/s
Quality : High
Add ID3 tag : No
Command line compressor : C:\Program Files (x86)\Exact Audio Copy\Flac\flac.exe
Additional command line options : -8 -V -T "ARTIST=%artist%" -T "TITLE=%title%" -T "ALBUM=%albumtitle%" -T "DATE=%year%" -T "TRACKNUMBER=%tracknr%" -T "TOTALTRACKS=%numtracks%" -T "GENRE=%genre%" -T "ALBUMARTIST=%albumartist%" -T "ALBUM ARTIST=%albumartist%" -T "COMMENT=EAC Secure Mode, Test & Copy, AccurateRip, FLAC -8" %source%


TOC of the extracted CD

Track | Start | Length | Start sector | End sector
––––––––––––––––––––––––––––-
1 | 0:00.00 | 11:28.27 | 0 | 51626
2 | 11:28.27 | 12:13.49 | 51627 | 106650
3 | 23:42.01 | 5:23.22 | 106651 | 130897
4 | 29:05.23 | 37:23.25 | 130898 | 299147


Track 1

Filename D:\Gustav Mahler - Complete Symphonies Nos. 1-9 (2017) [FLAC] {Lorin Maazel}\CD3\01 - Symphony No. 2 - II. Andante moderato. Sehr gemachlich.wav

Pre-gap length 0:00:02.00

Peak level 49.6 %
Extraction speed 2.3 X
Track quality 100.0 %
Test CRC 1F3143D3
Copy CRC 1F3143D3
Cannot be verified as accurate (confidence 7) [85B74727], AccurateRip returned [006B3C6A] (AR v2)
Copy OK

Track 2

Filename D:\Gustav Mahler - Complete Symphonies Nos. 1-9 (2017) [FLAC] {Lorin Maazel}\CD3\02 - III. Scherzo. In ruhig fliessender Bewegung.wav

Peak level 100.0 %
Extraction speed 2.8 X
Track quality 100.0 %
Test CRC B0604541
Copy CRC B0604541
Cannot be verified as accurate (confidence 7) [A853859A], AccurateRip returned [8897D1D5] (AR v2)
Copy OK

Track 3

Filename D:\Gustav Mahler - Complete Symphonies Nos. 1-9 (2017) [FLAC] {Lorin Maazel}\CD3\03 - IV. 'Urlicht'. Sehr feierlich, aber schlicht.wav

Peak level 16.5 %
Extraction speed 3.0 X
Track quality 100.0 %
Test CRC 10CA9212
Copy CRC 10CA9212
Cannot be verified as accurate (confidence 7) [05063EF2], AccurateRip returned [572D8E03] (AR v2)
Copy OK

Track 4

Filename D:\Gustav Mahler - Complete Symphonies Nos. 1-9 (2017) [FLAC] {Lorin Maazel}\CD3\04 - V. Finale.wav

Peak level 100.0 %
Extraction speed 3.8 X
Track quality 99.9 %
Test CRC 7E9B5E87
Copy CRC 7E9B5E87
Cannot be verified as accurate (confidence 6) [819E71E9], AccurateRip returned [25C18CB6] (AR v2)
Copy OK


No tracks could be verified as accurate
You may have a different pressing from the one(s) in the database

No errors occurred

End of status report

–– CUETools DB Plugin V2.1.6

[CTDB TOCID: gFmaIUXrrXUqj8.4Mmcrngw6LS8-] found
Submit result: gFmaIUXrrXUqj8.4Mmcrngw6LS8- has been confirmed
Track | CTDB Status
1 | (20/20) Accurately ripped
2 | (20/20) Accurately ripped
3 | (20/20) Accurately ripped
4 | (20/20) Accurately ripped


==== Log checksum 33751877813725F9921A7F436BEAE0410A25614D4C571F0A86280E7F60DB04DD ====
Exact Audio Copy V1.0 beta 6 from 9. April 2015

EAC extraction logfile from 10. July 2017, 0:28

Gustav Mahler / Complete Symphonies Nos. 1-9

Used drive : ATAPI DVD A DH16A6L Adapter: 1 ID: 0

Read mode : Secure
Utilize accurate stream : Yes
Defeat audio cache : Yes
Make use of C2 pointers : No

Read offset correction : 6
Overread into Lead-In and Lead-Out : No
Fill up missing offset samples with silence : Yes
Delete leading and trailing silent blocks : No
Null samples used in CRC calculations : Yes
Used interface : Native Win32 interface for Win NT & 2000
Gap handling : Appended to previous track

Used output format : User Defined Encoder
Selected bitrate : 1024 kBit/s
Quality : High
Add ID3 tag : No
Command line compressor : C:\Program Files (x86)\Exact Audio Copy\Flac\flac.exe
Additional command line options : -8 -V -T "ARTIST=%artist%" -T "TITLE=%title%" -T "ALBUM=%albumtitle%" -T "DATE=%year%" -T "TRACKNUMBER=%tracknr%" -T "TOTALTRACKS=%numtracks%" -T "GENRE=%genre%" -T "ALBUMARTIST=%albumartist%" -T "ALBUM ARTIST=%albumartist%" -T "COMMENT=EAC Secure Mode, Test & Copy, AccurateRip, FLAC -8" %source%


TOC of the extracted CD

Track | Start | Length | Start sector | End sector
––––––––––––––––––––––––––––-
1 | 0:00.00 | 37:43.64 | 0 | 169788


Track 1

Filename D:\Gustav Mahler - Complete Symphonies Nos. 1-9 (2017) [FLAC] {Lorin Maazel}\CD4\01 - Symphony No. 3 - Part One - I. Kraftig. Entscheiden.wav

Pre-gap length 0:00:02.00

Peak level 100.0 %
Extraction speed 5.1 X
Track quality 100.0 %
Test CRC 6AFD568B
Copy CRC 6AFD568B
Cannot be verified as accurate (confidence 6) [7B655BCB], AccurateRip returned [4C8FE258] (AR v2)
Copy OK


No tracks could be verified as accurate
You may have a different pressing from the one(s) in the database

No errors occurred

End of status report

–– CUETools DB Plugin V2.1.6

[CTDB TOCID: uMuQsPdQEc7eOPpWZZfQQLG6Fng-] found
Submit result: uMuQsPdQEc7eOPpWZZfQQLG6Fng- has been confirmed
Track | CTDB Status
1 | (17/17) Accurately ripped


==== Log checksum 771698AA64A652C459C76D32F14718D9ECDBD8F18C2E194E470F8E8C13620282 ====
Exact Audio Copy V1.0 beta 6 from 9. April 2015

EAC extraction logfile from 10. July 2017, 1:14

Gustav Mahler / Complete Symphonies Nos. 1-9

Used drive : ATAPI DVD A DH16A6L Adapter: 1 ID: 0

Read mode : Secure
Utilize accurate stream : Yes
Defeat audio cache : Yes
Make use of C2 pointers : No

Read offset correction : 6
Overread into Lead-In and Lead-Out : No
Fill up missing offset samples with silence : Yes
Delete leading and trailing silent blocks : No
Null samples used in CRC calculations : Yes
Used interface : Native Win32 interface for Win NT & 2000
Gap handling : Appended to previous track

Used output format : User Defined Encoder
Selected bitrate : 1024 kBit/s
Quality : High
Add ID3 tag : No
Command line compressor : C:\Program Files (x86)\Exact Audio Copy\Flac\flac.exe
Additional command line options : -8 -V -T "ARTIST=%artist%" -T "TITLE=%title%" -T "ALBUM=%albumtitle%" -T "DATE=%year%" -T "TRACKNUMBER=%tracknr%" -T "TOTALTRACKS=%numtracks%" -T "GENRE=%genre%" -T "ALBUMARTIST=%albumartist%" -T "ALBUM ARTIST=%albumartist%" -T "COMMENT=EAC Secure Mode, Test & Copy, AccurateRip, FLAC -8" %source%


TOC of the extracted CD

Track | Start | Length | Start sector | End sector
––––––––––––––––––––––––––––-
1 | 0:00.00 | 11:32.05 | 0 | 51904
2 | 11:32.05 | 17:38.68 | 51905 | 131322
3 | 29:10.73 | 9:09.42 | 131323 | 172539
4 | 38:20.40 | 4:15.34 | 172540 | 191698
5 | 42:35.74 | 25:50.41 | 191699 | 307989


Track 1

Filename D:\Gustav Mahler - Complete Symphonies Nos. 1-9 (2017) [FLAC] {Lorin Maazel}\CD5\01 - Symphony No. 3 - Part Two - II. Tempo di Menuetto. Sehr massig.wav

Pre-gap length 0:00:02.00

Peak level 50.5 %
Extraction speed 2.4 X
Track quality 100.0 %
Test CRC 53D65123
Copy CRC 53D65123
Cannot be verified as accurate (confidence 7) [C9D45F23], AccurateRip returned [5DF2FC9B] (AR v2)
Copy OK

Track 2

Filename D:\Gustav Mahler - Complete Symphonies Nos. 1-9 (2017) [FLAC] {Lorin Maazel}\CD5\02 - III. Comodo. Scherzando. Ohne Hast.wav

Peak level 100.0 %
Extraction speed 3.2 X
Track quality 100.0 %
Test CRC FF2BCE40
Copy CRC FF2BCE40
Cannot be verified as accurate (confidence 7) [F1E98B47], AccurateRip returned [500E6774] (AR v2)
Copy OK

Track 3

Filename D:\Gustav Mahler - Complete Symphonies Nos. 1-9 (2017) [FLAC] {Lorin Maazel}\CD5\03 - IV. Sehr langsam. Misterioso.wav

Peak level 30.0 %
Extraction speed 3.6 X
Track quality 100.0 %
Test CRC CE5C34FA
Copy CRC CE5C34FA
Cannot be verified as accurate (confidence 7) [19980FEC], AccurateRip returned [EDE47C30] (AR v2)
Copy OK

Track 4

Filename D:\Gustav Mahler - Complete Symphonies Nos. 1-9 (2017) [FLAC] {Lorin Maazel}\CD5\04 - V. Lustig im Tempo und keck in Ausdruck.wav

Peak level 70.9 %
Extraction speed 3.5 X
Track quality 100.0 %
Test CRC 2FAD4BC0
Copy CRC 2FAD4BC0
Cannot be verified as accurate (confidence 7) [8B28FC78], AccurateRip returned [A7B7E3F3] (AR v2)
Copy OK

Track 5

Filename D:\Gustav Mahler - Complete Symphonies Nos. 1-9 (2017) [FLAC] {Lorin Maazel}\CD5\05 - VI. Langsam. Ruhevoll. Empfunden.wav

Peak level 100.0 %
Extraction speed 4.4 X
Track quality 100.0 %
Test CRC 86B11E01
Copy CRC 86B11E01
Cannot be verified as accurate (confidence 6) [B80F2023], AccurateRip returned [9FB5BACC] (AR v2)
Copy OK


No tracks could be verified as accurate
You may have a different pressing from the one(s) in the database

No errors occurred

End of status report

–– CUETools DB Plugin V2.1.6

[CTDB TOCID: lwny.UGvyVyAKIfthgOrS5npFmo-] found
Submit result: lwny.UGvyVyAKIfthgOrS5npFmo- has been confirmed
Track | CTDB Status
1 | (20/20) Accurately ripped
2 | (20/20) Accurately ripped
3 | (20/20) Accurately ripped
4 | (20/20) Accurately ripped
5 | (18/20) Accurately ripped, or (2/20) differs in 6691 samples @25:50:24-25:50:30


==== Log checksum AE910C98750A9DF7B473748C2494F41DD00D7A213687197567CBC80203EEDC1E ====
Exact Audio Copy V1.0 beta 6 from 9. April 2015

EAC extraction logfile from 10. July 2017, 1:50

Gustav Mahler / Complete Symphonies Nos. 1-9

Used drive : ATAPI DVD A DH16A6L Adapter: 1 ID: 0

Read mode : Secure
Utilize accurate stream : Yes
Defeat audio cache : Yes
Make use of C2 pointers : No

Read offset correction : 6
Overread into Lead-In and Lead-Out : No
Fill up missing offset samples with silence : Yes
Delete leading and trailing silent blocks : No
Null samples used in CRC calculations : Yes
Used interface : Native Win32 interface for Win NT & 2000
Gap handling : Appended to previous track

Used output format : User Defined Encoder
Selected bitrate : 1024 kBit/s
Quality : High
Add ID3 tag : No
Command line compressor : C:\Program Files (x86)\Exact Audio Copy\Flac\flac.exe
Additional command line options : -8 -V -T "ARTIST=%artist%" -T "TITLE=%title%" -T "ALBUM=%albumtitle%" -T "DATE=%year%" -T "TRACKNUMBER=%tracknr%" -T "TOTALTRACKS=%numtracks%" -T "GENRE=%genre%" -T "ALBUMARTIST=%albumartist%" -T "ALBUM ARTIST=%albumartist%" -T "COMMENT=EAC Secure Mode, Test & Copy, AccurateRip, FLAC -8" %source%


TOC of the extracted CD

Track | Start | Length | Start sector | End sector
––––––––––––––––––––––––––––-
1 | 0:00.00 | 17:54.18 | 0 | 80567
2 | 17:54.18 | 9:52.14 | 80568 | 124981
3 | 27:46.32 | 22:50.46 | 124982 | 227777
4 | 50:37.03 | 10:20.47 | 227778 | 274324


Track 1

Filename D:\Gustav Mahler - Complete Symphonies Nos. 1-9 (2017) [FLAC] {Lorin Maazel}\CD6\01 - Symphony No. 4 - I. Bedachtig, nicht eilen.wav

Pre-gap length 0:00:02.00

Peak level 100.0 %
Extraction speed 4.3 X
Track quality 100.0 %
Test CRC A0E297A1
Copy CRC A0E297A1
Cannot be verified as accurate (confidence 6) [45CA6006], AccurateRip returned [F4286037] (AR v2)
Copy OK

Track 2

Filename D:\Gustav Mahler - Complete Symphonies Nos. 1-9 (2017) [FLAC] {Lorin Maazel}\CD6\02 - II. In gemachlicher Bewegung, ohne Hast.wav

Peak level 47.0 %
Extraction speed 5.3 X
Track quality 100.0 %
Test CRC 2355AD15
Copy CRC 2355AD15
Cannot be verified as accurate (confidence 6) [A88A0576], AccurateRip returned [76F7E740] (AR v2)
Copy OK

Track 3

Filename D:\Gustav Mahler - Complete Symphonies Nos. 1-9 (2017) [FLAC] {Lorin Maazel}\CD6\03 - III. Ruhevoll, poco adagio.wav

Peak level 100.0 %
Extraction speed 6.5 X
Track quality 100.0 %
Test CRC FDA1C872
Copy CRC FDA1C872
Cannot be verified as accurate (confidence 6) [C355B983], AccurateRip returned [F42BFF20] (AR v2)
Copy OK

Track 4

Filename D:\Gustav Mahler - Complete Symphonies Nos. 1-9 (2017) [FLAC] {Lorin Maazel}\CD6\04 - IV. Sehr behaglich.wav

Peak level 48.7 %
Extraction speed 7.1 X
Track quality 100.0 %
Test CRC B7206470
Copy CRC B7206470
Cannot be verified as accurate (confidence 6) [66F3FBD8], AccurateRip returned [BACD5CDC] (AR v2)
Copy OK


No tracks could be verified as accurate
You may have a different pressing from the one(s) in the database

No errors occurred

End of status report

–– CUETools DB Plugin V2.1.6

[CTDB TOCID: d6sLCi2JUrRRahxsBqkv8eLfZWI-] found
Submit result: d6sLCi2JUrRRahxsBqkv8eLfZWI- has been confirmed
Track | CTDB Status
1 | (13/13) Accurately ripped
2 | (13/13) Accurately ripped
3 | (13/13) Accurately ripped
4 | (13/13) Accurately ripped


==== Log checksum 061FFD618E670977419E2A48CC5604F075BA17F257EEE660904408C97A80A66D ====
Exact Audio Copy V1.0 beta 6 from 9. April 2015

EAC extraction logfile from 10. July 2017, 2:23

Gustav Mahler / Complete Symphonies Nos. 1-9

Used drive : ATAPI DVD A DH16A6L Adapter: 1 ID: 0

Read mode : Secure
Utilize accurate stream : Yes
Defeat audio cache : Yes
Make use of C2 pointers : No

Read offset correction : 6
Overread into Lead-In and Lead-Out : No
Fill up missing offset samples with silence : Yes
Delete leading and trailing silent blocks : No
Null samples used in CRC calculations : Yes
Used interface : Native Win32 interface for Win NT & 2000
Gap handling : Appended to previous track

Used output format : User Defined Encoder
Selected bitrate : 1024 kBit/s
Quality : High
Add ID3 tag : No
Command line compressor : C:\Program Files (x86)\Exact Audio Copy\Flac\flac.exe
Additional command line options : -8 -V -T "ARTIST=%artist%" -T "TITLE=%title%" -T "ALBUM=%albumtitle%" -T "DATE=%year%" -T "TRACKNUMBER=%tracknr%" -T "TOTALTRACKS=%numtracks%" -T "GENRE=%genre%" -T "ALBUMARTIST=%albumartist%" -T "ALBUM ARTIST=%albumartist%" -T "COMMENT=EAC Secure Mode, Test & Copy, AccurateRip, FLAC -8" %source%


TOC of the extracted CD

Track | Start | Length | Start sector | End sector
––––––––––––––––––––––––––––-
1 | 0:00.00 | 14:06.71 | 0 | 63520
2 | 14:06.71 | 15:46.54 | 63521 | 134524
3 | 29:53.50 | 18:36.12 | 134525 | 218236
4 | 48:29.62 | 11:16.08 | 218237 | 268944
5 | 59:45.70 | 16:19.69 | 268945 | 342438


Track 1

Filename D:\Gustav Mahler - Complete Symphonies Nos. 1-9 (2017) [FLAC] {Lorin Maazel}\CD7\01 - Symphony No. 5 - I. Trauermarsch. In gemessenem Schritt. Streng. Wie ein Kondukt.wav

Pre-gap length 0:00:02.00

Peak level 100.0 %
Extraction speed 4.3 X
Track quality 99.9 %
Test CRC 25FD1049
Copy CRC 25FD1049
Cannot be verified as accurate (confidence 6) [12B99A9D], AccurateRip returned [DA97DBC0] (AR v2)
Copy OK

Track 2

Filename D:\Gustav Mahler - Complete Symphonies Nos. 1-9 (2017) [FLAC] {Lorin Maazel}\CD7\02 - II. Sturmisch bewegt, mit grosster Vehemenz.wav

Peak level 100.0 %
Extraction speed 5.7 X
Track quality 100.0 %
Test CRC 905C3D06
Copy CRC 905C3D06
Cannot be verified as accurate (confidence 6) [2069BB5B], AccurateRip returned [65E0D2BF] (AR v2)
Copy OK

Track 3

Filename D:\Gustav Mahler - Complete Symphonies Nos. 1-9 (2017) [FLAC] {Lorin Maazel}\CD7\03 - III. Scherzo. Kraftig, nicht zu schnell.wav

Peak level 100.0 %
Extraction speed 6.5 X
Track quality 99.9 %
Test CRC 866A4D36
Copy CRC 866A4D36
Cannot be verified as accurate (confidence 6) [1F573C40], AccurateRip returned [3E02428C] (AR v2)
Copy OK

Track 4

Filename D:\Gustav Mahler - Complete Symphonies Nos. 1-9 (2017) [FLAC] {Lorin Maazel}\CD7\04 - IV. Adagietto. Sehr langsam.wav

Peak level 21.2 %
Extraction speed 7.5 X
Track quality 100.0 %
Test CRC 210D30A8
Copy CRC 210D30A8
Cannot be verified as accurate (confidence 6) [06475932], AccurateRip returned [09F7E922] (AR v2)
Copy OK

Track 5

Filename D:\Gustav Mahler - Complete Symphonies Nos. 1-9 (2017) [FLAC] {Lorin Maazel}\CD7\05 - V. Rondo-Finale. Allegro - Allegro giocoso. Frisch.wav

Peak level 100.0 %
Extraction speed 8.2 X
Track quality 100.0 %
Test CRC C2CC14CC
Copy CRC C2CC14CC
Cannot be verified as accurate (confidence 6) [247DCBE6], AccurateRip returned [06528332] (AR v2)
Copy OK


No tracks could be verified as accurate
You may have a different pressing from the one(s) in the database

No errors occurred

End of status report

–– CUETools DB Plugin V2.1.6

[CTDB TOCID: xrCR.y5lcUNkLgpefYTu8jjN9tc-] found
Submit result: xrCR.y5lcUNkLgpefYTu8jjN9tc- has been confirmed
Track | CTDB Status
1 | (13/13) Accurately ripped
2 | (13/13) Accurately ripped
3 | (13/13) Accurately ripped
4 | (13/13) Accurately ripped
5 | (13/13) Accurately ripped


==== Log checksum 99F2F4DEFC2B590D7A6BF3115ECD32CEB4E16C94C1498C1C19B2FEA7A474DBCD ====
Exact Audio Copy V1.0 beta 6 from 9. April 2015

EAC extraction logfile from 10. July 2017, 2:42

Gustav Mahler / Complete Symphonies Nos. 1-9

Used drive : ATAPI DVD A DH16A6L Adapter: 1 ID: 0

Read mode : Secure
Utilize accurate stream : Yes
Defeat audio cache : Yes
Make use of C2 pointers : No

Read offset correction : 6
Overread into Lead-In and Lead-Out : No
Fill up missing offset samples with silence : Yes
Delete leading and trailing silent blocks : No
Null samples used in CRC calculations : Yes
Used interface : Native Win32 interface for Win NT & 2000
Gap handling : Appended to previous track

Used output format : User Defined Encoder
Selected bitrate : 1024 kBit/s
Quality : High
Add ID3 tag : No
Command line compressor : C:\Program Files (x86)\Exact Audio Copy\Flac\flac.exe
Additional command line options : -8 -V -T "ARTIST=%artist%" -T "TITLE=%title%" -T "ALBUM=%albumtitle%" -T "DATE=%year%" -T "TRACKNUMBER=%tracknr%" -T "TOTALTRACKS=%numtracks%" -T "GENRE=%genre%" -T "ALBUMARTIST=%albumartist%" -T "ALBUM ARTIST=%albumartist%" -T "COMMENT=EAC Secure Mode, Test & Copy, AccurateRip, FLAC -8" %source%


TOC of the extracted CD

Track | Start | Length | Start sector | End sector
––––––––––––––––––––––––––––-
1 | 0:00.00 | 25:56.15 | 0 | 116714


Track 1

Filename D:\Gustav Mahler - Complete Symphonies Nos. 1-9 (2017) [FLAC] {Lorin Maazel}\CD8\01 - Symphony No. 6 - I. Allegro energico, ma non troppo.wav

Pre-gap length 0:00:02.00

Peak level 98.2 %
Extraction speed 4.7 X
Track quality 100.0 %
Test CRC 9BE2D6B1
Copy CRC 9BE2D6B1
Cannot be verified as accurate (confidence 4) [DDDB8601], AccurateRip returned [2AD47F1E] (AR v2)
Copy OK


No tracks could be verified as accurate
You may have a different pressing from the one(s) in the database

No errors occurred

End of status report

–– CUETools DB Plugin V2.1.6

[CTDB TOCID: wWEA_dygquaPA4fPvYxuRLN7dvw-] found
Submit result: wWEA_dygquaPA4fPvYxuRLN7dvw- has been confirmed
Track | CTDB Status
1 | (15/15) Accurately ripped


==== Log checksum 0931C009A8026D1CA47A715C1F8DE39A0E47C2DF10542ADB7B341C3691C8DBA4 ====
Exact Audio Copy V1.0 beta 6 from 9. April 2015

EAC extraction logfile from 10. July 2017, 3:10

Gustav Mahler / Complete Symphonies Nos. 1-9

Used drive : ATAPI DVD A DH16A6L Adapter: 1 ID: 0

Read mode : Secure
Utilize accurate stream : Yes
Defeat audio cache : Yes
Make use of C2 pointers : No

Read offset correction : 6
Overread into Lead-In and Lead-Out : No
Fill up missing offset samples with silence : Yes
Delete leading and trailing silent blocks : No
Null samples used in CRC calculations : Yes
Used interface : Native Win32 interface for Win NT & 2000
Gap handling : Appended to previous track

Used output format : User Defined Encoder
Selected bitrate : 1024 kBit/s
Quality : High
Add ID3 tag : No
Command line compressor : C:\Program Files (x86)\Exact Audio Copy\Flac\flac.exe
Additional command line options : -8 -V -T "ARTIST=%artist%" -T "TITLE=%title%" -T "ALBUM=%albumtitle%" -T "DATE=%year%" -T "TRACKNUMBER=%tracknr%" -T "TOTALTRACKS=%numtracks%" -T "GENRE=%genre%" -T "ALBUMARTIST=%albumartist%" -T "ALBUM ARTIST=%albumartist%" -T "COMMENT=EAC Secure Mode, Test & Copy, AccurateRip, FLAC -8" %source%


TOC of the extracted CD

Track | Start | Length | Start sector | End sector
––––––––––––––––––––––––––––-
1 | 0:00.00 | 13:28.02 | 0 | 60601
2 | 13:28.02 | 16:46.52 | 60602 | 136103
3 | 30:14.54 | 32:54.30 | 136104 | 284183


Track 1

Filename D:\Gustav Mahler - Complete Symphonies Nos. 1-9 (2017) [FLAC] {Lorin Maazel}\CD9\01 - Symphony No. 6 - II. Scherzo. Wuchtig.wav

Pre-gap length 0:00:02.00

Peak level 49.9 %
Extraction speed 4.3 X
Track quality 100.0 %
Test CRC BB793C1D
Copy CRC BB793C1D
Cannot be verified as accurate (confidence 6) [813BC63D], AccurateRip returned [5C883E5F] (AR v2)
Copy OK

Track 2

Filename D:\Gustav Mahler - Complete Symphonies Nos. 1-9 (2017) [FLAC] {Lorin Maazel}\CD9\02 - III. Andante.wav

Peak level 58.3 %
Extraction speed 5.6 X
Track quality 100.0 %
Test CRC 7B3D86DA
Copy CRC 7B3D86DA
Cannot be verified as accurate (confidence 6) [FB99C778], AccurateRip returned [E135FD96] (AR v2)
Copy OK

Track 3

Filename D:\Gustav Mahler - Complete Symphonies Nos. 1-9 (2017) [FLAC] {Lorin Maazel}\CD9\03 - IV. Finale. Allegro moderato - Allegro energico.wav

Peak level 100.0 %
Extraction speed 6.9 X
Track quality 99.9 %
Test CRC 065BAFFF
Copy CRC 065BAFFF
Cannot be verified as accurate (confidence 6) [110A082B], AccurateRip returned [3D441B60] (AR v2)
Copy OK


No tracks could be verified as accurate
You may have a different pressing from the one(s) in the database

No errors occurred

End of status report

–– CUETools DB Plugin V2.1.6

[CTDB TOCID: jk1D2tnpnPRY3507HPXkQA4nMmE-] found
Submit result: jk1D2tnpnPRY3507HPXkQA4nMmE- has been confirmed
Track | CTDB Status
1 | (16/16) Accurately ripped
2 | (16/16) Accurately ripped
3 | (15/16) Accurately ripped


==== Log checksum 92478799D8391282B39A8B2FBF3EF28A7E9C73AD59094947707E06A6D4054F11 ====
Exact Audio Copy V1.0 beta 6 from 9. April 2015

EAC extraction logfile from 10. July 2017, 3:37

Gustav Mahler / Complete Symphonies Nos. 1-9

Used drive : ATAPI DVD A DH16A6L Adapter: 1 ID: 0

Read mode : Secure
Utilize accurate stream : Yes
Defeat audio cache : Yes
Make use of C2 pointers : No

Read offset correction : 6
Overread into Lead-In and Lead-Out : No
Fill up missing offset samples with silence : Yes
Delete leading and trailing silent blocks : No
Null samples used in CRC calculations : Yes
Used interface : Native Win32 interface for Win NT & 2000
Gap handling : Appended to previous track

Used output format : User Defined Encoder
Selected bitrate : 1024 kBit/s
Quality : High
Add ID3 tag : No
Command line compressor : C:\Program Files (x86)\Exact Audio Copy\Flac\flac.exe
Additional command line options : -8 -V -T "ARTIST=%artist%" -T "TITLE=%title%" -T "ALBUM=%albumtitle%" -T "DATE=%year%" -T "TRACKNUMBER=%tracknr%" -T "TOTALTRACKS=%numtracks%" -T "GENRE=%genre%" -T "ALBUMARTIST=%albumartist%" -T "ALBUM ARTIST=%albumartist%" -T "COMMENT=EAC Secure Mode, Test & Copy, AccurateRip, FLAC -8" %source%


TOC of the extracted CD

Track | Start | Length | Start sector | End sector
––––––––––––––––––––––––––––-
1 | 0:00.00 | 26:21.62 | 0 | 118636
2 | 26:21.62 | 16:07.21 | 118637 | 191182


Track 1

Filename D:\Gustav Mahler - Complete Symphonies Nos. 1-9 (2017) [FLAC] {Lorin Maazel}\CD10\01 - Symphony No. 7 - I. Langsam (Adagio). Allegro con fuoco.wav

Pre-gap length 0:00:02.00

Peak level 98.9 %
Extraction speed 4.7 X
Track quality 100.0 %
Test CRC 6EA7630C
Copy CRC 6EA7630C
Cannot be verified as accurate (confidence 5) [E8A70378], AccurateRip returned [223D1AB5] (AR v2)
Copy OK

Track 2

Filename D:\Gustav Mahler - Complete Symphonies Nos. 1-9 (2017) [FLAC] {Lorin Maazel}\CD10\02 - II. Nachtmusik. Allegro Moderato.wav

Peak level 68.6 %
Extraction speed 6.1 X
Track quality 100.0 %
Test CRC E4711878
Copy CRC E4711878
Cannot be verified as accurate (confidence 5) [16C19B56], AccurateRip returned [F5FF828B] (AR v2)
Copy OK


No tracks could be verified as accurate
You may have a different pressing from the one(s) in the database

No errors occurred

End of status report

–– CUETools DB Plugin V2.1.6

[CTDB TOCID: ttEorwpnYeMUC9_UhzqTYXJWq1Y-] found
Submit result: ttEorwpnYeMUC9_UhzqTYXJWq1Y- has been confirmed
Track | CTDB Status
1 | (12/12) Accurately ripped
2 | (12/12) Accurately ripped


==== Log checksum 6967E27DA75A1FB9ACA2228461C1BEAD1B0998BC589C598A89F17E3CFF16CFE8 ====
Exact Audio Copy V1.0 beta 6 from 9. April 2015

EAC extraction logfile from 10. July 2017, 4:03

Gustav Mahler / Complete Symphonies Nos. 1-9

Used drive : ATAPI DVD A DH16A6L Adapter: 1 ID: 0

Read mode : Secure
Utilize accurate stream : Yes
Defeat audio cache : Yes
Make use of C2 pointers : No

Read offset correction : 6
Overread into Lead-In and Lead-Out : No
Fill up missing offset samples with silence : Yes
Delete leading and trailing silent blocks : No
Null samples used in CRC calculations : Yes
Used interface : Native Win32 interface for Win NT & 2000
Gap handling : Appended to previous track

Used output format : User Defined Encoder
Selected bitrate : 1024 kBit/s
Quality : High
Add ID3 tag : No
Command line compressor : C:\Program Files (x86)\Exact Audio Copy\Flac\flac.exe
Additional command line options : -8 -V -T "ARTIST=%artist%" -T "TITLE=%title%" -T "ALBUM=%albumtitle%" -T "DATE=%year%" -T "TRACKNUMBER=%tracknr%" -T "TOTALTRACKS=%numtracks%" -T "GENRE=%genre%" -T "ALBUMARTIST=%albumartist%" -T "ALBUM ARTIST=%albumartist%" -T "COMMENT=EAC Secure Mode, Test & Copy, AccurateRip, FLAC -8" %source%


TOC of the extracted CD

Track | Start | Length | Start sector | End sector
––––––––––––––––––––––––––––-
1 | 0:00.00 | 10:39.11 | 0 | 47935
2 | 10:39.11 | 14:30.32 | 47936 | 113217
3 | 25:09.43 | 20:01.47 | 113218 | 203339


Track 1

Filename D:\Gustav Mahler - Complete Symphonies Nos. 1-9 (2017) [FLAC] {Lorin Maazel}\CD11\01 - Symphony No. 7 - III. Scherzo. Schattenhaft.wav

Pre-gap length 0:00:02.00

Peak level 59.5 %
Extraction speed 4.0 X
Track quality 100.0 %
Test CRC DEE16E76
Copy CRC DEE16E76
Cannot be verified as accurate (confidence 5) [22E0DB80], AccurateRip returned [0D36485A] (AR v2)
Copy OK

Track 2

Filename D:\Gustav Mahler - Complete Symphonies Nos. 1-9 (2017) [FLAC] {Lorin Maazel}\CD11\02 - IV. Nachtmusik. Andante amoroso.wav

Peak level 43.9 %
Extraction speed 5.1 X
Track quality 100.0 %
Test CRC E23F1A81
Copy CRC E23F1A81
Cannot be verified as accurate (confidence 5) [6F98F6A2], AccurateRip returned [1E549F99] (AR v2)
Copy OK

Track 3

Filename D:\Gustav Mahler - Complete Symphonies Nos. 1-9 (2017) [FLAC] {Lorin Maazel}\CD11\03 - V. Rondo-Finale. Allegro ordinario.wav

Peak level 98.9 %
Extraction speed 6.2 X
Track quality 100.0 %
Test CRC B248E107
Copy CRC B248E107
Cannot be verified as accurate (confidence 5) [9B1D21CD], AccurateRip returned [0603B485] (AR v2)
Copy OK


No tracks could be verified as accurate
You may have a different pressing from the one(s) in the database

No errors occurred

End of status report

–– CUETools DB Plugin V2.1.6

[CTDB TOCID: QSxR0vZCnpJLEA67k7b_7omNgf0-] found
Submit result: QSxR0vZCnpJLEA67k7b_7omNgf0- has been confirmed
Track | CTDB Status
1 | (10/10) Accurately ripped
2 | (10/10) Accurately ripped
3 | (10/10) Accurately ripped


==== Log checksum 5130EDAFE43DB07F58304CAAE6912B759EA5784B55995F27EFBBAEB0575B2F1D ====
Exact Audio Copy V1.0 beta 6 from 9. April 2015

EAC extraction logfile from 10. July 2017, 4:28

Gustav Mahler / Complete Symphonies Nos. 1-9

Used drive : ATAPI DVD A DH16A6L Adapter: 1 ID: 0

Read mode : Secure
Utilize accurate stream : Yes
Defeat audio cache : Yes
Make use of C2 pointers : No

Read offset correction : 6
Overread into Lead-In and Lead-Out : No
Fill up missing offset samples with silence : Yes
Delete leading and trailing silent blocks : No
Null samples used in CRC calculations : Yes
Used interface : Native Win32 interface for Win NT & 2000
Gap handling : Appended to previous track

Used output format : User Defined Encoder
Selected bitrate : 1024 kBit/s
Quality : High
Add ID3 tag : No
Command line compressor : C:\Program Files (x86)\Exact Audio Copy\Flac\flac.exe
Additional command line options : -8 -V -T "ARTIST=%artist%" -T "TITLE=%title%" -T "ALBUM=%albumtitle%" -T "DATE=%year%" -T "TRACKNUMBER=%tracknr%" -T "TOTALTRACKS=%numtracks%" -T "GENRE=%genre%" -T "ALBUMARTIST=%albumartist%" -T "ALBUM ARTIST=%albumartist%" -T "COMMENT=EAC Secure Mode, Test & Copy, AccurateRip, FLAC -8" %source%


TOC of the extracted CD

Track | Start | Length | Start sector | End sector
––––––––––––––––––––––––––––-
1 | 0:00.00 | 1:38.07 | 0 | 7356
2 | 1:38.07 | 6:03.51 | 7357 | 34632
3 | 7:41.58 | 7:37.66 | 34633 | 68973
4 | 15:19.49 | 5:41.24 | 68974 | 94572
5 | 21:00.73 | 6:14.21 | 94573 | 122643
6 | 27:15.19 | 3:00.30 | 122644 | 136173


Track 1

Filename D:\Gustav Mahler - Complete Symphonies Nos. 1-9 (2017) [FLAC] {Lorin Maazel}\CD12\01 - Symphony No. 8 'Symphony of a Thousand' - Part 1. Veni, creator spiritus - I. Veni, creator spiritus.wav

Pre-gap length 0:00:02.00

Peak level 98.9 %
Extraction speed 2.7 X
Track quality 100.0 %
Test CRC EF72D762
Copy CRC EF72D762
Cannot be verified as accurate (confidence 5) [120BC8FA], AccurateRip returned [721C15AE] (AR v2)
Copy OK

Track 2

Filename D:\Gustav Mahler - Complete Symphonies Nos. 1-9 (2017) [FLAC] {Lorin Maazel}\CD12\02 - II. Imple superna gratia.wav

Peak level 98.2 %
Extraction speed 3.8 X
Track quality 100.0 %
Test CRC 74272702
Copy CRC 74272702
Cannot be verified as accurate (confidence 5) [4BC3E9AE], AccurateRip returned [3BA2554A] (AR v2)
Copy OK

Track 3

Filename D:\Gustav Mahler - Complete Symphonies Nos. 1-9 (2017) [FLAC] {Lorin Maazel}\CD12\03 - III. Infirma nostri corporis.wav

Peak level 58.7 %
Extraction speed 4.4 X
Track quality 100.0 %
Test CRC D01B816A
Copy CRC D01B816A
Cannot be verified as accurate (confidence 5) [73247273], AccurateRip returned [5C55B160] (AR v2)
Copy OK

Track 4

Filename D:\Gustav Mahler - Complete Symphonies Nos. 1-9 (2017) [FLAC] {Lorin Maazel}\CD12\04 - IV. Accede lumen.wav

Peak level 98.9 %
Extraction speed 4.8 X
Track quality 100.0 %
Test CRC 46AED7B2
Copy CRC 46AED7B2
Cannot be verified as accurate (confidence 5) [791F8CE5], AccurateRip returned [213C48F7] (AR v2)
Copy OK

Track 5

Filename D:\Gustav Mahler - Complete Symphonies Nos. 1-9 (2017) [FLAC] {Lorin Maazel}\CD12\05 - V. Veni, creator spiritus.wav

Peak level 98.9 %
Extraction speed 5.2 X
Track quality 100.0 %
Test CRC 7DEF1B97
Copy CRC 7DEF1B97
Cannot be verified as accurate (confidence 5) [B2413101], AccurateRip returned [4E105DD5] (AR v2)
Copy OK

Track 6

Filename D:\Gustav Mahler - Complete Symphonies Nos. 1-9 (2017) [FLAC] {Lorin Maazel}\CD12\06 - VI. Gloria sit Patri Domino.wav

Peak level 98.9 %
Extraction speed 5.0 X
Track quality 100.0 %
Test CRC 6B2BA8E9
Copy CRC 6B2BA8E9
Cannot be verified as accurate (confidence 5) [CD3E10EC], AccurateRip returned [10042CBD] (AR v2)
Copy OK


No tracks could be verified as accurate
You may have a different pressing from the one(s) in the database

No errors occurred

End of status report

–– CUETools DB Plugin V2.1.6

[CTDB TOCID: zSB0sIdv0OczuQMy_dfQL6JgDWQ-] found
Submit result: zSB0sIdv0OczuQMy_dfQL6JgDWQ- has been confirmed
Track | CTDB Status
1 | (12/12) Accurately ripped
2 | (12/12) Accurately ripped
3 | (12/12) Accurately ripped
4 | (12/12) Accurately ripped
5 | (12/12) Accurately ripped
6 | (11/12) Accurately ripped


==== Log checksum D81793E3B2643EA25EF487D83CC1F51825C5BD36A19531DCE25A850D5590247D ====
Exact Audio Copy V1.0 beta 6 from 9. April 2015

EAC extraction logfile from 10. July 2017, 5:21

Gustav Mahler / Complete Symphonies Nos. 1-9

Used drive : ATAPI DVD A DH16A6L Adapter: 1 ID: 0

Read mode : Secure
Utilize accurate stream : Yes
Defeat audio cache : Yes
Make use of C2 pointers : No

Read offset correction : 6
Overread into Lead-In and Lead-Out : No
Fill up missing offset samples with silence : Yes
Delete leading and trailing silent blocks : No
Null samples used in CRC calculations : Yes
Used interface : Native Win32 interface for Win NT & 2000
Gap handling : Appended to previous track

Used output format : User Defined Encoder
Selected bitrate : 1024 kBit/s
Quality : High
Add ID3 tag : No
Command line compressor : C:\Program Files (x86)\Exact Audio Copy\Flac\flac.exe
Additional command line options : -8 -V -T "ARTIST=%artist%" -T "TITLE=%title%" -T "ALBUM=%albumtitle%" -T "DATE=%year%" -T "TRACKNUMBER=%tracknr%" -T "TOTALTRACKS=%numtracks%" -T "GENRE=%genre%" -T "ALBUMARTIST=%albumartist%" -T "ALBUM ARTIST=%albumartist%" -T "COMMENT=EAC Secure Mode, Test & Copy, AccurateRip, FLAC -8" %source%


TOC of the extracted CD

Track | Start | Length | Start sector | End sector
––––––––––––––––––––––––––––-
1 | 0:00.00 | 12:15.51 | 0 | 55175
2 | 12:15.51 | 5:12.48 | 55176 | 78623
3 | 17:28.24 | 1:46.04 | 78624 | 86577
4 | 19:14.28 | 5:04.43 | 86578 | 109420
5 | 24:18.71 | 3:49.00 | 109421 | 126595
6 | 28:07.71 | 3:37.74 | 126596 | 142944
7 | 31:45.70 | 6:51.46 | 142945 | 173815
8 | 38:37.41 | 2:48.33 | 173816 | 186448
9 | 41:25.74 | 6:33.08 | 186449 | 215931
10 | 47:59.07 | 4:45.69 | 215932 | 237375
11 | 52:45.01 | 1:11.63 | 237376 | 242763
12 | 53:56.64 | 6:53.09 | 242764 | 273747
13 | 60:49.73 | 6:50.51 | 273748 | 304548


Track 1

Filename D:\Gustav Mahler - Complete Symphonies Nos. 1-9 (2017) [FLAC] {Lorin Maazel}\CD13\01 - Symphony No. 8 'Symphony of a Thousand' - Part 2. Final scene from Goethe's Faust - I. Poco adagio.wav

Pre-gap length 0:00:02.00

Peak level 52.4 %
Extraction speed 2.2 X
Track quality 99.9 %
Test CRC BC55A2AE
Copy CRC BC55A2AE
Cannot be verified as accurate (confidence 4) [3DE6D437], AccurateRip returned [09C45A0D] (AR v2)
Copy OK

Track 2

Filename D:\Gustav Mahler - Complete Symphonies Nos. 1-9 (2017) [FLAC] {Lorin Maazel}\CD13\02 - II. Waldung, sie schwankt heran.wav

Peak level 10.3 %
Extraction speed 2.7 X
Track quality 100.0 %
Test CRC EBA6F107
Copy CRC EBA6F107
Cannot be verified as accurate (confidence 4) [77A0A0CA], AccurateRip returned [C8F0172E] (AR v2)
Copy OK

Track 3

Filename D:\Gustav Mahler - Complete Symphonies Nos. 1-9 (2017) [FLAC] {Lorin Maazel}\CD13\03 - III. Ewiger Wonnebrand.wav

Peak level 37.9 %
Extraction speed 2.4 X
Track quality 100.0 %
Test CRC C858B720
Copy CRC C858B720
Cannot be verified as accurate (confidence 4) [0A33F714], AccurateRip returned [516423C7] (AR v2)
Copy OK

Track 4

Filename D:\Gustav Mahler - Complete Symphonies Nos. 1-9 (2017) [FLAC] {Lorin Maazel}\CD13\04 - IV. Wie Felsenabgrund Mir zu Fussen.wav

Peak level 62.2 %
Extraction speed 3.0 X
Track quality 100.0 %
Test CRC 044BC8A5
Copy CRC 044BC8A5
Cannot be verified as accurate (confidence 4) [08797BAE], AccurateRip returned [C4684ECC] (AR v2)
Copy OK

Track 5

Filename D:\Gustav Mahler - Complete Symphonies Nos. 1-9 (2017) [FLAC] {Lorin Maazel}\CD13\05 - V. Gerettet ist das edle Glied.wav

Peak level 82.2 %
Extraction speed 3.0 X
Track quality 100.0 %
Test CRC C705F524
Copy CRC C705F524
Cannot be verified as accurate (confidence 4) [112BD3F9], AccurateRip returned [0E8D4C71] (AR v2)
Copy OK

Track 6

Filename D:\Gustav Mahler - Complete Symphonies Nos. 1-9 (2017) [FLAC] {Lorin Maazel}\CD13\06 - VI. Und bliebt ein Erdenrest - Hier ist die Aussicht frei.wav

Peak level 69.7 %
Extraction speed 3.1 X
Track quality 100.0 %
Test CRC DD168EAA
Copy CRC DD168EAA
Cannot be verified as accurate (confidence 4) [5D2008D0], AccurateRip returned [A10F33DE] (AR v2)
Copy OK

Track 7

Filename D:\Gustav Mahler - Complete Symphonies Nos. 1-9 (2017) [FLAC] {Lorin Maazel}\CD13\07 - VII. Hochste Herrscherin der Welt.wav

Peak level 43.1 %
Extraction speed 3.5 X
Track quality 100.0 %
Test CRC E1C8D174
Copy CRC E1C8D174
Cannot be verified as accurate (confidence 4) [5EE92468], AccurateRip returned [26C2A466] (AR v2)
Copy OK

Track 8

Filename D:\Gustav Mahler - Complete Symphonies Nos. 1-9 (2017) [FLAC] {Lorin Maazel}\CD13\08 - VIII. Dir, der Unberuhrbaren.wav

Peak level 74.7 %
Extraction speed 3.3 X
Track quality 100.0 %
Test CRC 402D4C9E
Copy CRC 402D4C9E
Cannot be verified as accurate (confidence 4) [111306F5], AccurateRip returned [37E5DC70] (AR v2)
Copy OK

Track 9

Filename D:\Gustav Mahler - Complete Symphonies Nos. 1-9 (2017) [FLAC] {Lorin Maazel}\CD13\09 - IX. Bei der Liebe.wav

Peak level 49.5 %
Extraction speed 3.8 X
Track quality 100.0 %
Test CRC B6E15025
Copy CRC B6E15025
Cannot be verified as accurate (confidence 4) [37D16735], AccurateRip returned [1D2357AA] (AR v2)
Copy OK

Track 10

Filename D:\Gustav Mahler - Complete Symphonies Nos. 1-9 (2017) [FLAC] {Lorin Maazel}\CD13\10 - X. Neige, Neige, du Ohnegleiche.wav

Peak level 56.1 %
Extraction speed 3.8 X
Track quality 100.0 %
Test CRC 79598286
Copy CRC 79598286
Cannot be verified as accurate (confidence 3) [13CCCDF3], AccurateRip returned [D7E41E1A] (AR v2)
Copy OK

Track 11

Filename D:\Gustav Mahler - Complete Symphonies Nos. 1-9 (2017) [FLAC] {Lorin Maazel}\CD13\11 - XI. Komm! Hebe dich.wav

Peak level 18.2 %
Extraction speed 2.9 X
Track quality 100.0 %
Test CRC 9A0F2EF6
Copy CRC 9A0F2EF6
Cannot be verified as accurate (confidence 3) [5AAFD93E], AccurateRip returned [796994D0] (AR v2)
Copy OK

Track 12

Filename D:\Gustav Mahler - Complete Symphonies Nos. 1-9 (2017) [FLAC] {Lorin Maazel}\CD13\12 - XII. Blicket auf zum Retterblick.wav

Peak level 98.8 %
Extraction speed 4.2 X
Track quality 100.0 %
Test CRC FB9EC943
Copy CRC FB9EC943
Cannot be verified as accurate (confidence 3) [356F696D], AccurateRip returned [CBD8603E] (AR v2)
Copy OK

Track 13

Filename D:\Gustav Mahler - Complete Symphonies Nos. 1-9 (2017) [FLAC] {Lorin Maazel}\CD13\13 - XIII. Alles Vergangliche.wav

Peak level 98.9 %
Extraction speed 3.5 X
Track quality 99.9 %
Test CRC D14BE711
Copy CRC D14BE711
Cannot be verified as accurate (confidence 4) [9FC2C0F9], AccurateRip returned [E296C88F] (AR v2)
Copy OK


No tracks could be verified as accurate
You may have a different pressing from the one(s) in the database

No errors occurred

End of status report

–– CUETools DB Plugin V2.1.6

[CTDB TOCID: khpbzMhPYxkGPBltf_l0Xde6RcY-] found
Submit result: khpbzMhPYxkGPBltf_l0Xde6RcY- has been confirmed
Track | CTDB Status
1 | (11/11) Accurately ripped
2 | (11/11) Accurately ripped
3 | (11/11) Accurately ripped
4 | (11/11) Accurately ripped
5 | (11/11) Accurately ripped
6 | (11/11) Accurately ripped
7 | (11/11) Accurately ripped
8 | (11/11) Accurately ripped
9 | ( 9/11) Accurately ripped, or (1/11) differs in 9 samples @06:15:14,06:18:33,06:27:70, or (1/11) differs in 9 samples @06:16:33,06:18:33,06:27:70
10 | ( 8/11) Accurately ripped, or (1/11) differs in 17 samples @00:29:60,00:30:10,00:37:49-00:37:50,02:38:29,03:01:27,03:37:56,03:59:26, or (1/11) differs in 9 samples @00:37:49-00:37:50,03:01:27,03:37:56,03:59:26, or (1/11) differs in 163 samples @00:59:60,03:14:30-03:14:31,03:15:70-03:15:71
11 | ( 9/11) Accurately ripped, or (1/11) differs in 12 samples @00:55:16,00:56:19,00:57:41,00:59:09,00:59:68, or (1/11) differs in 22 samples @00:54:52,00:55:16,00:56:19,00:56:58,00:57:41,00:57:61,00:59:09,00:59:68
12 | ( 8/11) Accurately ripped, or (1/11) differs in 8 samples @02:45:62,03:00:36,03:15:50,05:19:42, or (1/11) differs in 12 samples @03:00:36,03:15:50,05:12:19,05:19:42,05:20:28, or (1/11) differs in 818 samples @02:59:70-02:59:71,03:02:65,03:06:45,03:07:70,05:12:39-05:12:40,05:13:05,05:18:15-05:18:16,05:18:56,05:19:21-05:19:22,05:19:62,05:20:27-05:20:28,05:21:33-05:21:34
13 | (11/11) Accurately ripped


==== Log checksum FF6BBC540EF1F7085C776AD01D4C067D40980989CE16CED32680CD5F8E9800FF ====
Exact Audio Copy V1.0 beta 6 from 9. April 2015

EAC extraction logfile from 10. July 2017, 5:46

Gustav Mahler / Complete Symphonies Nos. 1-9

Used drive : ATAPI DVD A DH16A6L Adapter: 1 ID: 0

Read mode : Secure
Utilize accurate stream : Yes
Defeat audio cache : Yes
Make use of C2 pointers : No

Read offset correction : 6
Overread into Lead-In and Lead-Out : No
Fill up missing offset samples with silence : Yes
Delete leading and trailing silent blocks : No
Null samples used in CRC calculations : Yes
Used interface : Native Win32 interface for Win NT & 2000
Gap handling : Appended to previous track

Used output format : User Defined Encoder
Selected bitrate : 1024 kBit/s
Quality : High
Add ID3 tag : No
Command line compressor : C:\Program Files (x86)\Exact Audio Copy\Flac\flac.exe
Additional command line options : -8 -V -T "ARTIST=%artist%" -T "TITLE=%title%" -T "ALBUM=%albumtitle%" -T "DATE=%year%" -T "TRACKNUMBER=%tracknr%" -T "TOTALTRACKS=%numtracks%" -T "GENRE=%genre%" -T "ALBUMARTIST=%albumartist%" -T "ALBUM ARTIST=%albumartist%" -T "COMMENT=EAC Secure Mode, Test & Copy, AccurateRip, FLAC -8" %source%


TOC of the extracted CD

Track | Start | Length | Start sector | End sector
––––––––––––––––––––––––––––-
1 | 0:00.00 | 35:47.60 | 0 | 161084
2 | 35:47.60 | 15:52.18 | 161085 | 232502


Track 1

Filename D:\Gustav Mahler - Complete Symphonies Nos. 1-9 (2017) [FLAC] {Lorin Maazel}\CD14\01 - Symphony No. 9 - I. Andante comodo.wav

Pre-gap length 0:00:02.00

Peak level 98.9 %
Extraction speed 5.1 X
Track quality 100.0 %
Test CRC 9B3DC3C1
Copy CRC 9B3DC3C1
Cannot be verified as accurate (confidence 6) [5A02889E], AccurateRip returned [C085694D] (AR v2)
Copy OK

Track 2

Filename D:\Gustav Mahler - Complete Symphonies Nos. 1-9 (2017) [FLAC] {Lorin Maazel}\CD14\02 - II. Im Tempo eines gemachlichen Landlers. Etwas tappisch und sehr derb.wav

Peak level 56.3 %
Extraction speed 6.7 X
Track quality 100.0 %
Test CRC A1A3A77C
Copy CRC A1A3A77C
Cannot be verified as accurate (confidence 6) [1F2BCD6C], AccurateRip returned [28508F06] (AR v2)
Copy OK


No tracks could be verified as accurate
You may have a different pressing from the one(s) in the database

No errors occurred

End of status report

–– CUETools DB Plugin V2.1.6

[CTDB TOCID: G6KC8XqRoWoYJHpTgsgihNk8_nU-] found
Submit result: G6KC8XqRoWoYJHpTgsgihNk8_nU- has been confirmed
Track | CTDB Status
1 | (12/12) Accurately ripped
2 | (12/12) Accurately ripped


==== Log checksum DA901EFD490032AECFEAAB49DFE5338BEDE2FAC4CBD8DAAB85FA3F7AF885E332 ====
Exact Audio Copy V1.0 beta 6 from 9. April 2015

EAC extraction logfile from 10. July 2017, 6:23

Gustav Mahler / Complete Symphonies Nos. 1-9

Used drive : ATAPI DVD A DH16A6L Adapter: 1 ID: 0

Read mode : Secure
Utilize accurate stream : Yes
Defeat audio cache : Yes
Make use of C2 pointers : No

Read offset correction : 6
Overread into Lead-In and Lead-Out : No
Fill up missing offset samples with silence : Yes
Delete leading and trailing silent blocks : No
Null samples used in CRC calculations : Yes
Used interface : Native Win32 interface for Win NT & 2000
Gap handling : Appended to previous track

Used output format : User Defined Encoder
Selected bitrate : 1024 kBit/s
Quality : High
Add ID3 tag : No
Command line compressor : C:\Program Files (x86)\Exact Audio Copy\Flac\flac.exe
Additional command line options : -8 -V -T "ARTIST=%artist%" -T "TITLE=%title%" -T "ALBUM=%albumtitle%" -T "DATE=%year%" -T "TRACKNUMBER=%tracknr%" -T "TOTALTRACKS=%numtracks%" -T "GENRE=%genre%" -T "ALBUMARTIST=%albumartist%" -T "ALBUM ARTIST=%albumartist%" -T "COMMENT=EAC Secure Mode, Test & Copy, AccurateRip, FLAC -8" %source%


TOC of the extracted CD

Track | Start | Length | Start sector | End sector
––––––––––––––––––––––––––––-
1 | 0:00.00 | 15:03.36 | 0 | 67760
2 | 15:03.36 | 29:08.58 | 67761 | 198918


Track 1

Filename D:\Gustav Mahler - Complete Symphonies Nos. 1-9 (2017) [FLAC] {Lorin Maazel}\CD15\01 - Symphony No. 9 - III. Rondo-Burleske. Allegro assai. Sehr trotzig.wav

Pre-gap length 0:00:02.00

Peak level 98.8 %
Extraction speed 2.3 X
Track quality 100.0 %
Test CRC 59AC0536
Copy CRC 59AC0536
Cannot be verified as accurate (confidence 6) [F87C9F29], AccurateRip returned [7BD83A33] (AR v2)
Copy OK

Track 2

Filename D:\Gustav Mahler - Complete Symphonies Nos. 1-9 (2017) [FLAC] {Lorin Maazel}\CD15\02 - IV. Adagio. Sehr langsam und noch zuruckhaltend.wav

Peak level 98.8 %
Extraction speed 3.2 X
Track quality 100.0 %
Test CRC C6A6BEDC
Copy CRC C6A6BEDC
Cannot be verified as accurate (confidence 6) [89AF237F], AccurateRip returned [15A13945] (AR v2)
Copy OK


No tracks could be verified as accurate
You may have a different pressing from the one(s) in the database

No errors occurred

End of status report

–– CUETools DB Plugin V2.1.6

[CTDB TOCID: pyh92Z_BDju9_lQHS_znnWmhdtY-] found
Submit result: pyh92Z_BDju9_lQHS_znnWmhdtY- has been confirmed
Track | CTDB Status
1 | (10/10) Accurately ripped
2 | (10/10) Accurately ripped


==== Log checksum 216A2C3686176B4B9035B8B8B11E07202C922F386769972FDD87560538082683 ====



Gustav Mahler - Complete Symphonies Nos. 1-9 - Lorin Maazel (2017) {15CD Box Set Signum Classics SIGCD363}

Gustav Mahler - Complete Symphonies Nos. 1-9 - Lorin Maazel (2017) {15CD Box Set Signum Classics SIGCD363}

Gustav Mahler - Complete Symphonies Nos. 1-9 - Lorin Maazel (2017) {15CD Box Set Signum Classics SIGCD363}

Gustav Mahler - Complete Symphonies Nos. 1-9 - Lorin Maazel (2017) {15CD Box Set Signum Classics SIGCD363}

Gustav Mahler - Complete Symphonies Nos. 1-9 - Lorin Maazel (2017) {15CD Box Set Signum Classics SIGCD363}



===