Subcategories

Gwyneth Herbert - Bittersweet And Blue (2004)

Posted By: Domestos
Gwyneth Herbert - Bittersweet And Blue (2004)

Gwyneth Herbert - Bittersweet And Blue (2004)
EAC Rip | APE (image+.cue, log) ~ 251.52 Mb | 46:47 | Scans included
Vocal Jazz | Country: England | Label: UCJ ‎– 9867896

Bittersweet and Blue, the second album by British singer-songwriter Gwyneth Herbert, was released in 2004 on the Universal Classics and Jazz label. It comprised mainly jazz standards. Herbert's version of Neil Young's "Only Love Can Break Your Heart", taken from the album, was featured on the soundtrack of romantic comedy Leap Year, directed by Anand Tucker and starring Amy Adams and Matthew Goode. The album received a four-starred review in The Guardian.

Linda Serck, reviewing Bittersweet and Blue for MusicOMH, described it as "a stunning album" from a "great jazz talent" who "embodies all the smoky jazz boozers she’s ever sung in and tacitly commands you to prick up your ears and listen".

John Fordham, in a four-starred review for The Guardian, praised Herbert's "precociously powerful chemistry of taste and meticulous care for every sound – from a whisper to an exhortation."

Track List:
01. Bittersweet And Blue (4:18)
02. Grandma's Hands (2:21)
03. A Little Less (3:23)
04. (Looking For) The Heart Of Saturday Night (3:34)
05. Glory Box (4:19)
06. The Very Thought Of You (4:14)
07. Fallen (4:09)
08. It's Alright With Me (3:12)
09. Only Love Can Break Your Heart (3:15)
10. White Elephant Town (2:28)
11. At Seventeen (4:48)
12. Fever (4:04)
13. Every Time We Say Goodbye (2:43)

Gwyneth Herbert - Bittersweet And Blue (2004)

Exact Audio Copy V0.99 prebeta 4 from 23. January 2008

EAC extraction logfile from 7. July 2008, 11:48

Gwyneth Herbert / Bittersweet And Blue

Used drive ú║PLEXTOR DVDR PX-750A Adapter: 2 ID: 1

Read mode : Secure
Utilize accurate stream : Yes
Defeat audio cache : Yes
Make use of C2 pointers : No

Read offset correction : 102
Overread into Lead-In and Lead-Out : No
Fill up missing offset samples with silence : Yes
Delete leading and trailing silent blocks : No
Null samples used in CRC calculations : Yes
Used interface : Installed external ASPI interface

Used output format : Internal WAV Routines
Sample format : 44.100 Hz; 16 Bit; Stereo

TOC of the extracted CD

Track | Start | Length | Start sector | End sector
–––––––––––––––––––––––––
1 | 0:00.00 | 4:18.25 | 0 | 19374
2 | 4:18.25 | 2:20.64 | 19375 | 29938
3 | 6:39.14 | 3:22.65 | 29939 | 45153
4 | 10:02.04 | 3:33.50 | 45154 | 61178
5 | 13:35.54 | 4:19.05 | 61179 | 80608
6 | 17:54.59 | 4:14.35 | 80609 | 99693
7 | 22:09.19 | 4:08.50 | 99694 | 118343
8 | 26:17.69 | 3:11.46 | 118344 | 132714
9 | 29:29.40 | 3:14.43 | 132715 | 147307
10 | 32:44.08 | 2:28.13 | 147308 | 158420
11 | 35:12.21 | 4:48.12 | 158421 | 180032
12 | 40:00.33 | 4:04.14 | 180033 | 198346
13 | 44:04.47 | 2:42.60 | 198347 | 210556

Range status and errors

Selected range

Filename G:\Gwyneth Herbert - Bittersweet And Blue.wav

Peak level 99.1 %
Range quality 100.0 %
Copy CRC 88CC67D3
Copy OK

No errors occurred

End of status report

All thanks go to the GrBear

More Music in My Blog
Follow My RSS Channel