Subcategories

Harmssen-Voss-Duo - Mother Nature, Father Harmony (1983, cd reissue 1986, inakustik # inak 863 CD)

Posted By: luckburz
Harmssen-Voss-Duo - Mother Nature, Father Harmony (1983, cd reissue 1986, inakustik # inak 863 CD)

Harmssen-Voss-Duo - Mother Nature, Father Harmony
EAC+LOG+CUE | FLAC: 154 MB | Full Artwork: 28 MB | 5% Recovery Info
Label/Cat#: inakustik "Limited Compact Disc Reference Edition" # inak 863 CD | Country/Year: Germany 1986
Genre: Jazz | Style: Contemporary Jazz, Fusion

MD5 [X] CUE [X] LOG [X] INFO TEXT [X] ARTWORK [X]

my rip [X] not my rip [ ]

Harmssen-Voss-Duo - Mother Nature, Father Harmony (1983, cd reissue 1986, inakustik # inak 863 CD)


Exact Audio Copy V1.0 beta 3 from 29. August 2011

EAC extraction logfile from 8. July 2013, 17:32

Harmssen-Voss-Duo / Mother Nature, Father Harmony

Used drive : PLEXTOR CD-R PX-W1210A Adapter: 1 ID: 0

Read mode : Secure
Utilize accurate stream : Yes
Defeat audio cache : Yes
Make use of C2 pointers : No

Read offset correction : 99
Overread into Lead-In and Lead-Out : No
Fill up missing offset samples with silence : Yes
Delete leading and trailing silent blocks : No
Null samples used in CRC calculations : Yes
Used interface : Native Win32 interface for Win NT & 2000

Used output format : User Defined Encoder
Selected bitrate : 1024 kBit/s
Quality : High
Add ID3 tag : Yes
Command line compressor : C:\Program Files\FLAC\flac.exe
Additional command line options : -5 -T "Artist=%artist%" -T "Title=%title%" -T "Album=%albumtitle%" -T "Date=%year%" -T "Tracknumber=%tracknr%" -T "Genre=%genre%" %source% -o %dest%


TOC of the extracted CD

Track | Start | Length | Start sector | End sector
––––––––––––––––––––––––––––-
1 | 0:00.00 | 7:29.70 | 0 | 33744
2 | 7:29.70 | 4:23.42 | 33745 | 53511
3 | 11:53.37 | 4:52.63 | 53512 | 75474
4 | 16:46.25 | 7:36.10 | 75475 | 109684
5 | 24:22.35 | 5:45.47 | 109685 | 135606
6 | 30:08.07 | 3:15.40 | 135607 | 150271
7 | 33:23.47 | 3:00.53 | 150272 | 163824


Range status and errors

Selected range

Filename F:\=== VINYL RIPS ===\=== EAC===\X FRESH RIP\Harmssen-Voss-Duo - Mother Nature, Father Harmony.wav

Peak level 100.0 %
Extraction speed 3.5 X
Range quality 100.0 %
Test CRC 53C94509
Copy CRC 53C94509
Copy OK

No errors occurred


AccurateRip summary

Track 1 accurately ripped (confidence 2) [753A6995] (AR v1)
Track 2 accurately ripped (confidence 2) [1BC93838] (AR v1)
Track 3 accurately ripped (confidence 2) [FC1F44BC] (AR v1)
Track 4 accurately ripped (confidence 2) [A78D703F] (AR v1)
Track 5 accurately ripped (confidence 2) [7866BBB6] (AR v1)
Track 6 accurately ripped (confidence 2) [B172029F] (AR v1)
Track 7 accurately ripped (confidence 2) [1AFB0F13] (AR v1)

All tracks accurately ripped

End of status report

–– CUETools DB Plugin V2.1.3

[CTDB TOCID: icER_463WyrUwuyQIF1B2z9vcN8-] found, Submit result: icER_463WyrUwuyQIF1B2z9vcN8- has been confirmed
[9e9d445c] (1/1) Accurately ripped


==== Log checksum 457707A534C7047A1C07EB58A96566EABA2E051F431C5B15672F5BE6414E9867 ====

foobar2000 1.1.14a / Dynamic Range Meter 1.1.1
log date: 2013-07-09 19:23:14

––––––––––––––––––––––––––––––––––––––––
Analyzed: Harmssen-Voss-Duo / Mother Nature, Father Harmony
––––––––––––––––––––––––––––––––––––––––

DR Peak RMS Duration Track
––––––––––––––––––––––––––––––––––––––––
DR13 0.00 dB -18.18 dB 7:30 01-Closed Eyes
DR11 -2.72 dB -19.36 dB 4:24 02-Mother Nature
DR14 -0.52 dB -17.27 dB 4:53 03-Fun
DR11 -0.38 dB -16.79 dB 7:36 04-Clouds on the Sea
DR13 0.00 dB -17.72 dB 5:46 05-Fjord
DR13 -0.33 dB -16.67 dB 3:16 06-Back Again
DR12 -1.26 dB -17.76 dB 3:01 07-Short Moments
––––––––––––––––––––––––––––––––––––––––

Number of tracks: 7
Official DR value: DR12

Samplerate: 44100 Hz
Channels: 2
Bits per sample: 16
Bitrate: 594 kbps
Codec: FLAC
================================================================================



CD Info:

Uli Harmssen / Jochen Voss-Duo ‎– Mother Nature, Father Harmony

Label: in-akustik
Series: Limited Compact Disc Reference Edition
Catalog#: inak 863 CD
Format: CD, Album
Country: Germany
Released: 1986, 1983
Genre: Jazz
Style: Contemporary Jazz

Tracklist:

1 Closed Eyes
2 Mother Nature
3 Fun
4 Clouds On The Sea
5 Fjord
6 Back Again
7 Short Moments

Manufactured by Sanyo, Japan.

Hörenswert

Uli Harmssen – Jochen Voss-Duo: „Mother Nature, Father Harmony“. Vielleicht haben sie sich nicht getraut, es auf deutsch auf die Plattenhülle zu schreiben: Mutter Natur und Vater Harmonie – weil es platt zu klingen droht, und rührend. Aber ganz zufällig ist das Rührende nicht. Nach dem Ursprung seiner Kompositionen gefragt, antwortete Uli Harmssen: „Ich glaube, daß sie irgendwo ganz tief in mir entstehen“ und daß sie „dann praktisch in die Feder fließen und zu Noten werden“. Wie beneidenswert einfach. Man glaubt es auch zu hören: sehr melodische, vom Ohr wohlig, wenn auch nicht schläfrig empfundene, mit artigem Temperament gespielte, und das heißt hier auch sauber und meist ruhig verarbeitete, gemessen „durchgeführte“, manchmal auch zerträumte Themen. Obwohl es kaum eine dramatische Steigerung, kaum einen lauten, rhythmisch exaltierten Ausbruch gibt und die Musik meist mit gebremster Leidenschaft am Ohr entlangfließt, schmeichelt sie doch auch der Aufmerksamkeit: lyrischversonnene, schön klingende Duette, in Wahrheit jedoch meist begleitete Solostücke für das Saxophon. Im Spiel erkennt man zwei gute Musiker: den Gitarristen und Synthesizer-Spieler Harmssen und den Saxophonisten Jochen Voss, der einen klaren, festen Ton bläst. (Bellaphon-Fusion 8016)

Manfred Sack ~Die Zeit, 22.06.1984

Harmssen-Voss-Duo - Mother Nature, Father Harmony (1983, cd reissue 1986, inakustik # inak 863 CD)


More from in-akustiks "compact disc reference edition"

all of my uploads in my blog
________________

NITROFLARE
Music | | Artwork

________________
________________

FILEPOST
Music | | Artwork

________________