Subcategories

Hank Mobley - Eight Classic Albums (2013) {4CD Set Real Gone Jazz RGJCD262 rec 1955-1960}

Posted By: ruskaval
Hank Mobley - Eight Classic Albums (2013) {4CD Set Real Gone Jazz RGJCD262 rec 1955-1960}

Hank Mobley - Eight Classic Albums (2013) {4CD Set Real Gone Jazz RGJCD262 rec 1955-1960}
EAC rip (secure mode) | FLAC (tracks)+CUE+LOG -> 1.81 Gb | MP3 @320 -> 713 Mb
Full Artwork @ 300 dpi (jpg) -> 21 Mb | 5% repair rar
© 1955-60, 2013 Real Gone Jazz | RGJCD262 | Digitally Remastered & Enhanced
Jazz / Hard Bop / Mainstream Jazz / Saxophone

Four CD set containing eight albums from the Jazz legend. Includes the albums Hank Mobley Quartet, Tenor Conclave, Hank Mobley All Stars, Hank, Hank Mobley Quintet, Hank Mobley Sextet, Soul Station and Roll Call.

With no disrespect toward Hawk, Bean, Prez, Trane, Rollins, Getz, Shorter, Henderson, Dexter and Brecker, Hank Mobley is the tenor player I listen to more than any other (were Sonny Stitt exclusively a tenor player, his recordings would be a close second, with Harold Land, Charlie Rouse, Oliver Nelson and Paul Gonsalves in the 3rd spot). Mobley doesn't so much "impress" as "seduce" the listener with ceaselessly melodic, lyrical, soulful inventions each time out. He was no "innovator" or trailblazer. Nor, like so many "showier" tenors, did he introduce "artifacts" into his sound–wobbles, growls, squeals and screeches, etc., approaches as common during the '30s and '40s as in the adventurous experimentation of modal and free players in the '60s and beyond.

Rather, he simply took the chords that were given him and sang his heart out, all the while embodying the history and very soul of this African-American art form. Of all tenor players, he "wears" the best, perhaps because he's so human, so sympathetic, so personal. If his ideas are "understated" compared to those of his more dramatic, sensational, trendsetting, head-turning peers, that disarming quality is key to his appeal, which for the past 40 or more years, has never lessened for this listener. Unlike Bird and Coltrane, Hank can't be considered one of the "seminal" greats: he's not one of the 5-6 jazz "immortals." But for this listener no one personifies what the music is all about better than the always welcome, unobtrusive yet inimitable, voice of Mobs.

Mobley is heard at his best for the ten years between 1955 and 1965 (his decline, due to personal as well as marketplace factors, is at once precipitous and painful to experience. The last time I caught him live–in the '70s–he was incapable of physical composure let alone constructing a musical solo). The present collection–a new approach to winning listeners back to CDs, giving them 8 for the price of one–is a better representation than that of some of the other artists to receive the same value packaging (e.g. Kenny Dorham) . It includes perhaps his two most essential albums under his own name–critically acclaimed sessions like "Soul Station" and "Roll Call" and mostly-overlooked dates like the 4-tenor blowing session featuring Mobley with Coltrane, Al Cohn and Zoot Sims (Mobley's show-stopping solo and cadenza on "How Deep Is the Ocean" helps compensate for the recorded moment on Miles' "Someday My Prince Will Come," on Columbia, when he was blindsided and virtually humiliated by Coltrane).

Some essential Mobley dates are missing–including "Work Out" and "Another Work Out." And, of course, some of Mobley's very best playing (about half of my Mobley collection) is on recordings under the leadership of another musician–usually Art Blakey or Horace Silver. Finally, my very favorite Mobley solo is not on a Blue Note or Prestige album but a two-disc Miles Davis session on Columbia: "Friday and Saturday Night at the Blackhawk." Following Miles' two laconic, low-key choruses on "Bye Bye Blackbird" Mobley simply pours his heart out for four 32-bar choruses, each more inventive, lyrical and passionate than the preceding one. A desert-island solo if there ever was one.

But there's no possibility of getting too much of Mobley (at least before 1966), which makes this a package that's easy to greet with a high-five, whether for the newbie or the Mobley convert who has the above "missing" albums and wishes to complete a Mobley collection while saving shelf-space and quite a few bucks.
Hank Mobley - Eight Classic Albums (2013) {4CD Set Real Gone Jazz RGJCD262 rec 1955-1960}


Musicians

Saxophone – Hank Mobley

Alto Saxophone – John Jenkins
Bass – Doug Watkins, Paul Chambers, Wilbur Ware
Drums – "Philly" Joe Jones, Art Blakey, Art Taylor, Charlie Persip
Piano – Bobby Timmons, Horace Silver, Red Garland, Wynton Kelly
Tenor Saxophone – Al Cohn, John Coltrane, Zoot Sims
Trumpet – Art Farmer, Donald Byrd, Freddie Hubbard, Lee Morgan
Vibraphone – Milt Jackson

Notes

Hank Mobley Quartet Recorded At Rudy Van Gelder Studio, March 27,1955.
Tenor Conclave Recorded At Rudy Van Gelder Studio, September 7,1956.
Hank Mobley And His All Stars Recorded At Rudy Van Gelder Studio, January 13,1957.
Hank Recorded At Rudy Van Gelder Studio, April 21,1957.
Hank Mobley Quintet Recorded At Rudy Van Gelder Studio, March 8,1957.
Hank Mobley Sextet Recorded At Rudy Van Gelder Studio, November 25, 1956.
Soul Station Recorded At Rudy Van Gelder Studio, February 7,1960.
Rall Call Recorded At Rudy Van Gelder Studio, November 16, 1960.


Track Listing

[Disc 1]
Hank Mobley Quartet (1955)

01 Hank's Prank 4.27
02 My Sin 3.46
03 Avila and Tequila 4.28
04 Walkin' the Fence 3.37
05 Love for Sale 4.29
06 Just Coolin' 4.07
Tenor Conclave (1956)
07 Tenor Conclave 11.02
08 Just You, Just Me 9.26
09 Bob's Boy's 8.17
10 How Deep is the Ocean 15.03

[Disc 2]
Hank Mobley And His All Stars (1957)

01 Reunion 6.55
02 Ultra Marine 10.36
03 Don't Walk 7.48
04 Lower Stratosphere 6.37
05 Mobley's Musing's 6.02
Hank (1957)
06 Fit for a Hanker 7.18
07 Hi Groove, Low Feedback 9.51
08 You'd Be So Easy to Love 5.36
09 Time After Time 6.45
10 Dance of the Infidels 7.51

[Disc 3]
Hank Mobley Quintet (1957)

01 Funk in Deep Freeze 6.46
02 Wham and They're off 7.40
03 Fin De L'affaire 6.35
04 Startin' from Scratch 6.39
05 Stella Wise 7.15
06 Base on Balls 7.21
Hank Mobley Sextet (1957)
07 Touch and Go 9.13
08 Double Whammy 8.08
09 Barrel of Funk 11.17
10 Mobley Mania 8.26

[Disc 4]
Soul Station (1960)

01 Remember 5.37
02 This I Dig of You 6.21
03 Dig Dis 6.04
04 Split Feelin's 4.45
05 Soul Station 9.02
06 If I Should Lose You 5.05
Roll Call (1960)
07 Roll Call 10.29
08 My Groove Your Move 6.03
09 Take Your Pick 5.23
10 A Baptist Beat 8.51
11 The More I See You 6.45
12 The Breakdown 4.54

Exact Audio Copy V1.3 from 2. September 2016

EAC extraction logfile from 29. March 2017, 22:14

Hank Mobley / 8 Classic Albums (CD 01)

Used drive : TSSTcorpDVD+-RW SH-216CB Adapter: 1 ID: 0

Read mode : Secure
Utilize accurate stream : Yes
Defeat audio cache : Yes
Make use of C2 pointers : No

Read offset correction : 6
Overread into Lead-In and Lead-Out : No
Fill up missing offset samples with silence : Yes
Delete leading and trailing silent blocks : No
Null samples used in CRC calculations : Yes
Used interface : Native Win32 interface for Win NT & 2000
Gap handling : Appended to previous track

Used output format : User Defined Encoder
Selected bitrate : 1024 kBit/s
Quality : High
Add ID3 tag : No
Command line compressor : C:\Arquivos de programas\Exact Audio Copy\FLAC\FLAC.EXE
Additional command line options : -8 -V -T "ARTIST=%artist%" -T "TITLE=%title%" -T "ALBUM=%albumtitle%" -T "DATE=%year%" -T "TRACKNUMBER=%tracknr%" -T "GENRE=%genre%" -T "COMMENT=%comment%" -T "BAND=%albuminterpret%" -T "ALBUMARTIST=%albuminterpret%" -T "COMPOSER=%composer%" %haslyrics%–tag-from-file=LYRICS="%lyricsfile%"%haslyrics% -T "DISCNUMBER=%cdnumber%" -T "TOTALDISCS=%totalcds%" -T "TOTALTRACKS=%numtracks%" %hascover%–picture="%coverfile%"%hascover% %source% -o %dest%


TOC of the extracted CD

Track | Start | Length | Start sector | End sector
––––––––––––––––––––––––––––-
1 | 0:00.00 | 4:29.31 | 0 | 20205
2 | 4:29.31 | 3:48.53 | 20206 | 37358
3 | 8:18.09 | 4:30.66 | 37359 | 57674
4 | 12:49.00 | 3:39.25 | 57675 | 74124
5 | 16:28.25 | 4:31.19 | 74125 | 94468
6 | 20:59.44 | 4:09.74 | 94469 | 113217
7 | 25:09.43 | 11:04.45 | 113218 | 163062
8 | 36:14.13 | 9:28.40 | 163063 | 205702
9 | 45:42.53 | 8:19.41 | 205703 | 243168
10 | 54:02.19 | 15:03.34 | 243169 | 310927


Track 1

Filename E:\(Convert)\01 - Hank's Prank.wav

Pre-gap length 0:00:02.00

Peak level 87.2 %
Extraction speed 1.7 X
Track quality 100.0 %
Test CRC C102EE6F
Copy CRC C102EE6F
Accurately ripped (confidence 8) [72B58EAD] (AR v2)
Copy OK

Track 2

Filename E:\(Convert)\02 - My Sin.wav

Peak level 86.3 %
Extraction speed 1.6 X
Track quality 99.9 %
Test CRC 990BA3CF
Copy CRC 990BA3CF
Accurately ripped (confidence 8) [30316754] (AR v2)
Copy OK

Track 3

Filename E:\(Convert)\03 - Avila and Tequila.wav

Peak level 93.6 %
Extraction speed 1.8 X
Track quality 99.9 %
Test CRC 3B9396F4
Copy CRC 3B9396F4
Accurately ripped (confidence 8) [26F5967E] (AR v2)
Copy OK

Track 4

Filename E:\(Convert)\04 - Walkin' the Fence.wav

Peak level 86.3 %
Extraction speed 2.1 X
Track quality 100.0 %
Test CRC 54C4677F
Copy CRC 54C4677F
Accurately ripped (confidence 8) [F2709EED] (AR v2)
Copy OK

Track 5

Filename E:\(Convert)\05 - Love for Sale.wav

Peak level 84.5 %
Extraction speed 2.0 X
Track quality 99.9 %
Test CRC CC7FCF0F
Copy CRC CC7FCF0F
Accurately ripped (confidence 8) [D90B90E3] (AR v2)
Copy OK

Track 6

Filename E:\(Convert)\06 - Just Coolin'.wav

Peak level 83.7 %
Extraction speed 2.0 X
Track quality 99.9 %
Test CRC 8799AAC8
Copy CRC 8799AAC8
Accurately ripped (confidence 8) [15317C81] (AR v2)
Copy OK

Track 7

Filename E:\(Convert)\07 - Tenor Conclave.wav

Peak level 100.0 %
Extraction speed 2.9 X
Track quality 100.0 %
Test CRC 0E217FC0
Copy CRC 0E217FC0
Accurately ripped (confidence 7) [33BF5A03] (AR v2)
Copy OK

Track 8

Filename E:\(Convert)\08 - Just You, Just Me.wav

Peak level 100.0 %
Extraction speed 3.2 X
Track quality 100.0 %
Test CRC 71F9A581
Copy CRC 71F9A581
Accurately ripped (confidence 7) [464537CF] (AR v2)
Copy OK

Track 9

Filename E:\(Convert)\09 - Bob's Boys.wav

Peak level 100.0 %
Extraction speed 3.4 X
Track quality 100.0 %
Test CRC A3015C06
Copy CRC A3015C06
Accurately ripped (confidence 7) [38ADA5E5] (AR v2)
Copy OK

Track 10

Filename E:\(Convert)\10 - How Deep Is the Ocean [How High Is the Sky].wav

Peak level 100.0 %
Extraction speed 3.7 X
Track quality 100.0 %
Test CRC BBD7E542
Copy CRC BBD7E542
Accurately ripped (confidence 7) [1D53A82D] (AR v2)
Copy OK


All tracks accurately ripped

No errors occurred

End of status report

–– CUETools DB Plugin V2.1.6

[CTDB TOCID: j4ibqRd2SEQO5TzskdQalOhZctw-] found
Submit result: already submitted
Track | CTDB Status
1 | (15/15) Accurately ripped
2 | (15/15) Accurately ripped
3 | (15/15) Accurately ripped
4 | (15/15) Accurately ripped
5 | (15/15) Accurately ripped
6 | (15/15) Accurately ripped
7 | (15/15) Accurately ripped
8 | (15/15) Accurately ripped
9 | (15/15) Accurately ripped
10 | (13/15) Accurately ripped


==== Log checksum 401A2B5062B92CAE61A994B21867D4352B2D6631E981561FBAA50411A5CED313 ====
Exact Audio Copy V1.3 from 2. September 2016

EAC extraction logfile from 29. March 2017, 22:56

Hank Mobley / 8 Classic Albums (CD 02)

Used drive : TSSTcorpDVD+-RW SH-216CB Adapter: 1 ID: 0

Read mode : Secure
Utilize accurate stream : Yes
Defeat audio cache : Yes
Make use of C2 pointers : No

Read offset correction : 6
Overread into Lead-In and Lead-Out : No
Fill up missing offset samples with silence : Yes
Delete leading and trailing silent blocks : No
Null samples used in CRC calculations : Yes
Used interface : Native Win32 interface for Win NT & 2000
Gap handling : Appended to previous track

Used output format : User Defined Encoder
Selected bitrate : 1024 kBit/s
Quality : High
Add ID3 tag : No
Command line compressor : C:\Arquivos de programas\Exact Audio Copy\FLAC\FLAC.EXE
Additional command line options : -8 -V -T "ARTIST=%artist%" -T "TITLE=%title%" -T "ALBUM=%albumtitle%" -T "DATE=%year%" -T "TRACKNUMBER=%tracknr%" -T "GENRE=%genre%" -T "COMMENT=%comment%" -T "BAND=%albuminterpret%" -T "ALBUMARTIST=%albuminterpret%" -T "COMPOSER=%composer%" %haslyrics%–tag-from-file=LYRICS="%lyricsfile%"%haslyrics% -T "DISCNUMBER=%cdnumber%" -T "TOTALDISCS=%totalcds%" -T "TOTALTRACKS=%numtracks%" %hascover%–picture="%coverfile%"%hascover% %source% -o %dest%


TOC of the extracted CD

Track | Start | Length | Start sector | End sector
––––––––––––––––––––––––––––-
1 | 0:00.00 | 6:57.40 | 0 | 31314
2 | 6:57.40 | 10:38.37 | 31315 | 79201
3 | 17:36.02 | 7:50.01 | 79202 | 114452
4 | 25:26.03 | 6:39.32 | 114453 | 144409
5 | 32:05.35 | 6:04.10 | 144410 | 171719
6 | 38:09.45 | 7:20.74 | 171720 | 204793
7 | 45:30.44 | 9:53.43 | 204794 | 249311
8 | 55:24.12 | 5:38.27 | 249312 | 274688
9 | 61:02.39 | 6:47.24 | 274689 | 305237
10 | 67:49.63 | 7:51.11 | 305238 | 340573


Track 1

Filename E:\(Convert)\01 - Reunion.wav

Pre-gap length 0:00:02.00

Peak level 100.0 %
Extraction speed 4.9 X
Track quality 100.0 %
Test CRC 06B1A391
Copy CRC 06B1A391
Accurately ripped (confidence 11) [F67B154C] (AR v2)
Copy OK

Track 2

Filename E:\(Convert)\02 - Ultra Marine.wav

Peak level 100.0 %
Extraction speed 5.9 X
Track quality 100.0 %
Test CRC 54C1EDBD
Copy CRC 54C1EDBD
Accurately ripped (confidence 11) [FD38652A] (AR v2)
Copy OK

Track 3

Filename E:\(Convert)\03 - Don't Walk.wav

Peak level 100.0 %
Extraction speed 6.6 X
Track quality 100.0 %
Test CRC AB9C1F02
Copy CRC AB9C1F02
Accurately ripped (confidence 11) [238889FB] (AR v2)
Copy OK

Track 4

Filename E:\(Convert)\04 - Lower Stratosphere.wav

Peak level 100.0 %
Extraction speed 7.0 X
Track quality 100.0 %
Test CRC FCF40B5D
Copy CRC FCF40B5D
Accurately ripped (confidence 11) [78C6AB9A] (AR v2)
Copy OK

Track 5

Filename E:\(Convert)\05 - Mobley's Musings.wav

Peak level 94.4 %
Extraction speed 7.3 X
Track quality 100.0 %
Test CRC 14048337
Copy CRC 14048337
Accurately ripped (confidence 11) [9FDF0858] (AR v2)
Copy OK

Track 6

Filename E:\(Convert)\06 - Fit for a Hanker.wav

Peak level 100.0 %
Extraction speed 7.9 X
Track quality 100.0 %
Test CRC DF144BC0
Copy CRC DF144BC0
Accurately ripped (confidence 11) [ACC46916] (AR v2)
Copy OK

Track 7

Filename E:\(Convert)\07 - Hi Groove, Low Feedback.wav

Peak level 98.2 %
Extraction speed 6.7 X
Track quality 99.9 %
Test CRC DD5E1009
Copy CRC DD5E1009
Accurately ripped (confidence 11) [73612829] (AR v2)
Copy OK

Track 8

Filename E:\(Convert)\08 - You'd Be So Easy to Love.wav

Peak level 98.4 %
Extraction speed 8.6 X
Track quality 100.0 %
Test CRC 458FF333
Copy CRC 458FF333
Accurately ripped (confidence 11) [4B01711E] (AR v2)
Copy OK

Track 9

Filename E:\(Convert)\09 - Time After Time.wav

Peak level 97.3 %
Extraction speed 6.4 X
Track quality 99.9 %
Test CRC 5B7F52CA
Copy CRC 5B7F52CA
Accurately ripped (confidence 11) [8157EF9B] (AR v2)
Copy OK

Track 10

Filename E:\(Convert)\10 - Dance of the Infidels.wav

Peak level 100.0 %
Extraction speed 7.0 X
Track quality 99.9 %
Test CRC 94293C2C
Copy CRC 94293C2C
Accurately ripped (confidence 9) [0B6902DA] (AR v2)
Copy OK


All tracks accurately ripped

No errors occurred

End of status report

–– CUETools DB Plugin V2.1.6

[CTDB TOCID: 8Jl8VhkEzjPlUkafWfLJ1mwP.8o-] found
Submit result: already submitted
Track | CTDB Status
1 | (17/17) Accurately ripped
2 | (17/17) Accurately ripped
3 | (17/17) Accurately ripped
4 | (17/17) Accurately ripped
5 | (17/17) Accurately ripped
6 | (17/17) Accurately ripped
7 | (17/17) Accurately ripped
8 | (17/17) Accurately ripped
9 | (17/17) Accurately ripped
10 | (15/17) Accurately ripped


==== Log checksum 3B8D55B7059040592196A98C2F85A8A1A2B71D337D013416F683394A0D8432FE ====
Exact Audio Copy V1.3 from 2. September 2016

EAC extraction logfile from 29. March 2017, 23:49

Hank Mobley / 8 Classic Albums (CD 03)

Used drive : TSSTcorpDVD+-RW SH-216CB Adapter: 1 ID: 0

Read mode : Secure
Utilize accurate stream : Yes
Defeat audio cache : Yes
Make use of C2 pointers : No

Read offset correction : 6
Overread into Lead-In and Lead-Out : No
Fill up missing offset samples with silence : Yes
Delete leading and trailing silent blocks : No
Null samples used in CRC calculations : Yes
Used interface : Native Win32 interface for Win NT & 2000
Gap handling : Appended to previous track

Used output format : User Defined Encoder
Selected bitrate : 1024 kBit/s
Quality : High
Add ID3 tag : No
Command line compressor : C:\Arquivos de programas\Exact Audio Copy\FLAC\FLAC.EXE
Additional command line options : -8 -V -T "ARTIST=%artist%" -T "TITLE=%title%" -T "ALBUM=%albumtitle%" -T "DATE=%year%" -T "TRACKNUMBER=%tracknr%" -T "GENRE=%genre%" -T "COMMENT=%comment%" -T "BAND=%albuminterpret%" -T "ALBUMARTIST=%albuminterpret%" -T "COMPOSER=%composer%" %haslyrics%–tag-from-file=LYRICS="%lyricsfile%"%haslyrics% -T "DISCNUMBER=%cdnumber%" -T "TOTALDISCS=%totalcds%" -T "TOTALTRACKS=%numtracks%" %hascover%–picture="%coverfile%"%hascover% %source% -o %dest%


TOC of the extracted CD

Track | Start | Length | Start sector | End sector
––––––––––––––––––––––––––––-
1 | 0:00.00 | 6:48.61 | 0 | 30660
2 | 6:48.61 | 7:42.16 | 30661 | 65326
3 | 14:31.02 | 6:37.42 | 65327 | 95143
4 | 21:08.44 | 6:41.29 | 95144 | 125247
5 | 27:49.73 | 7:17.44 | 125248 | 158066
6 | 35:07.42 | 7:23.04 | 158067 | 191295
7 | 42:30.46 | 9:15.37 | 191296 | 232957
8 | 51:46.08 | 8:10.23 | 232958 | 269730
9 | 59:56.31 | 11:19.24 | 269731 | 320679
10 | 71:15.55 | 8:26.03 | 320680 | 358632


Track 1

Filename E:\(Convert)\01 - Funk in Deep Freeze.wav

Pre-gap length 0:00:02.00

Peak level 100.0 %
Extraction speed 5.1 X
Track quality 100.0 %
Test CRC 0221E603
Copy CRC 0221E603
Accurately ripped (confidence 6) [A160C875] (AR v2)
Copy OK

Track 2

Filename E:\(Convert)\02 - Wham and They're Off.wav

Peak level 100.0 %
Extraction speed 5.8 X
Track quality 100.0 %
Test CRC 236F7F42
Copy CRC 236F7F42
Accurately ripped (confidence 6) [5373DBA9] (AR v2)
Copy OK

Track 3

Filename E:\(Convert)\03 - Fin de l'Affaire.wav

Peak level 90.5 %
Extraction speed 6.4 X
Track quality 100.0 %
Test CRC 85304157
Copy CRC 85304157
Accurately ripped (confidence 6) [C10D514D] (AR v2)
Copy OK

Track 4

Filename E:\(Convert)\04 - Startin' from Scratch.wav

Peak level 100.0 %
Extraction speed 5.0 X
Track quality 99.9 %
Test CRC 46D41F6E
Copy CRC 46D41F6E
Accurately ripped (confidence 6) [82981467] (AR v2)
Copy OK

Track 5

Filename E:\(Convert)\05 - Stella Wise.wav

Peak level 87.9 %
Extraction speed 5.5 X
Track quality 99.9 %
Test CRC B836027C
Copy CRC B836027C
Accurately ripped (confidence 6) [6EA9DB64] (AR v2)
Copy OK

Track 6

Filename E:\(Convert)\06 - Base on Balls.wav

Peak level 100.0 %
Extraction speed 7.8 X
Track quality 100.0 %
Test CRC 2D615CDF
Copy CRC 2D615CDF
Accurately ripped (confidence 6) [E3CA61D4] (AR v2)
Copy OK

Track 7

Filename E:\(Convert)\07 - Touch and Go.wav

Peak level 100.0 %
Extraction speed 8.6 X
Track quality 100.0 %
Test CRC D424B616
Copy CRC D424B616
Accurately ripped (confidence 4) [25A0146F] (AR v2)
Copy OK

Track 8

Filename E:\(Convert)\08 - Double Whammy.wav

Peak level 95.6 %
Extraction speed 8.9 X
Track quality 100.0 %
Test CRC F5867781
Copy CRC F5867781
Accurately ripped (confidence 4) [9D6509AD] (AR v2)
Copy OK

Track 9

Filename E:\(Convert)\09 - Barrel of Funk.wav

Peak level 94.0 %
Extraction speed 9.6 X
Track quality 100.0 %
Test CRC 68B76DAA
Copy CRC 68B76DAA
Accurately ripped (confidence 5) [1455D8BD] (AR v2)
Copy OK

Track 10

Filename E:\(Convert)\10 - Mobleymania.wav

Peak level 100.0 %
Extraction speed 9.9 X
Track quality 100.0 %
Test CRC 5B1B5F88
Copy CRC 5B1B5F88
Accurately ripped (confidence 5) [CC9DF446] (AR v2)
Copy OK


All tracks accurately ripped

No errors occurred

End of status report

–– CUETools DB Plugin V2.1.6

[CTDB TOCID: 4gFOreFNjpAeXmC5NfB10mpjjzE-] found
Submit result: already submitted
Track | CTDB Status
1 | (16/16) Accurately ripped
2 | (16/16) Accurately ripped
3 | (16/16) Accurately ripped
4 | (16/16) Accurately ripped
5 | (16/16) Accurately ripped
6 | (16/16) Accurately ripped
7 | (16/16) Accurately ripped
8 | (16/16) Accurately ripped
9 | (16/16) Accurately ripped
10 | (15/16) Accurately ripped, or (1/16) differs in 3546 samples @06:57:07-06:57:09,07:19:48-07:19:49,07:21:54-07:21:55,07:29:11-07:29:12,07:33:02,07:37:57-07:37:58,07:40:11,07:47:67,08:03:26-08:03:27,08:03:49-08:03:50,08:04:41-08:04:42,08:06:03-08:06:04,08:06:26,08:06:48,08:09:45-08:09:49,08:12:44-08:12:47,08:13:15,08:15:22,08:24:16-08:24:19


==== Log checksum 0B318C2841C0A4CE7D2D2A0B4280A09319449BA9D80B8D421ABB997417547800 ====
Exact Audio Copy V1.3 from 2. September 2016

EAC extraction logfile from 30. March 2017, 0:55

Hank Mobley / 8 Classic Albums (CD 04)

Used drive : TSSTcorpDVD+-RW SH-216CB Adapter: 1 ID: 0

Read mode : Secure
Utilize accurate stream : Yes
Defeat audio cache : Yes
Make use of C2 pointers : No

Read offset correction : 6
Overread into Lead-In and Lead-Out : No
Fill up missing offset samples with silence : Yes
Delete leading and trailing silent blocks : No
Null samples used in CRC calculations : Yes
Used interface : Native Win32 interface for Win NT & 2000
Gap handling : Appended to previous track

Used output format : User Defined Encoder
Selected bitrate : 1024 kBit/s
Quality : High
Add ID3 tag : No
Command line compressor : C:\Arquivos de programas\Exact Audio Copy\FLAC\FLAC.EXE
Additional command line options : -8 -V -T "ARTIST=%artist%" -T "TITLE=%title%" -T "ALBUM=%albumtitle%" -T "DATE=%year%" -T "TRACKNUMBER=%tracknr%" -T "GENRE=%genre%" -T "COMMENT=%comment%" -T "BAND=%albuminterpret%" -T "ALBUMARTIST=%albuminterpret%" -T "COMPOSER=%composer%" %haslyrics%–tag-from-file=LYRICS="%lyricsfile%"%haslyrics% -T "DISCNUMBER=%cdnumber%" -T "TOTALDISCS=%totalcds%" -T "TOTALTRACKS=%numtracks%" %hascover%–picture="%coverfile%"%hascover% %source% -o %dest%


TOC of the extracted CD

Track | Start | Length | Start sector | End sector
––––––––––––––––––––––––––––-
1 | 0:00.00 | 5:39.12 | 0 | 25436
2 | 5:39.12 | 6:23.07 | 25437 | 54168
3 | 12:02.19 | 6:06.62 | 54169 | 81680
4 | 18:09.06 | 4:47.69 | 81681 | 103274
5 | 22:57.00 | 9:04.57 | 103275 | 144131
6 | 32:01.57 | 5:07.62 | 144132 | 167218
7 | 37:09.44 | 10:31.38 | 167219 | 214581
8 | 47:41.07 | 6:05.53 | 214582 | 242009
9 | 53:46.60 | 5:25.60 | 242010 | 266444
10 | 59:12.45 | 8:53.16 | 266445 | 306435
11 | 68:05.61 | 6:47.31 | 306436 | 336991
12 | 74:53.17 | 4:54.32 | 336992 | 359073


Track 1

Filename E:\(Convert)\01 - Remember.wav

Pre-gap length 0:00:02.00

Peak level 100.0 %
Extraction speed 2.0 X
Track quality 100.0 %
Test CRC 2459926A
Copy CRC 2459926A
Cannot be verified as accurate (confidence 6) [A3ED3740], AccurateRip returned [349439BE] (AR v2)
Copy OK

Track 2

Filename E:\(Convert)\02 - This I Dig of You.wav

Peak level 100.0 %
Extraction speed 2.1 X
Track quality 99.9 %
Test CRC E35484A7
Copy CRC E35484A7
Cannot be verified as accurate (confidence 6) [2303A60B], AccurateRip returned [C1DDBE40] (AR v2)
Copy OK

Track 3

Filename E:\(Convert)\03 - Dig Dis.wav

Peak level 100.0 %
Extraction speed 2.2 X
Track quality 99.9 %
Test CRC B2F1A0F5
Copy CRC B2F1A0F5
Cannot be verified as accurate (confidence 6) [D07C4145], AccurateRip returned [A907F530] (AR v2)
Copy OK

Track 4

Filename E:\(Convert)\04 - Split Feelin's.wav

Peak level 97.2 %
Extraction speed 2.7 X
Track quality 100.0 %
Test CRC 4CEDAE61
Copy CRC 4CEDAE61
Cannot be verified as accurate (confidence 6) [30BA1307], AccurateRip returned [87F5F307] (AR v2)
Copy OK

Track 5

Filename E:\(Convert)\05 - Soul Station.wav

Peak level 100.0 %
Extraction speed 3.1 X
Track quality 100.0 %
Test CRC 9D18CDCC
Copy CRC 9D18CDCC
Cannot be verified as accurate (confidence 6) [72C29800], AccurateRip returned [84766668] (AR v2)
Copy OK

Track 6

Filename E:\(Convert)\06 - If I Should Lose You.wav

Peak level 94.0 %
Extraction speed 3.1 X
Track quality 100.0 %
Test CRC 960C17C9
Copy CRC 960C17C9
Cannot be verified as accurate (confidence 6) [C057B219], AccurateRip returned [CA699FD4] (AR v2)
Copy OK

Track 7

Filename E:\(Convert)\07 - Roll Call.wav

Peak level 100.0 %
Extraction speed 3.5 X
Track quality 100.0 %
Test CRC 5ACE22C7
Copy CRC 5ACE22C7
Cannot be verified as accurate (confidence 6) [275EF5FE], AccurateRip returned [BB199ABE] (AR v2)
Copy OK

Track 8

Filename E:\(Convert)\08 - My Groove Your Move.wav

Peak level 99.5 %
Extraction speed 3.6 X
Track quality 100.0 %
Test CRC 397A0968
Copy CRC 397A0968
Cannot be verified as accurate (confidence 6) [0FB237F0], AccurateRip returned [F4436C5B] (AR v2)
Copy OK

Track 9

Filename E:\(Convert)\09 - Take Your Pick.wav

Peak level 100.0 %
Extraction speed 3.7 X
Track quality 100.0 %
Test CRC 36ED4309
Copy CRC 36ED4309
Cannot be verified as accurate (confidence 6) [2E8678BB], AccurateRip returned [1AF815AB] (AR v2)
Copy OK

Track 10

Filename E:\(Convert)\10 - A Baptist Beat.wav

Peak level 100.0 %
Extraction speed 4.0 X
Track quality 100.0 %
Test CRC C8BA22CB
Copy CRC C8BA22CB
Cannot be verified as accurate (confidence 6) [7F9C6A53], AccurateRip returned [6B0680A6] (AR v2)
Copy OK

Track 11

Filename E:\(Convert)\11 - The More I See You.wav

Peak level 99.6 %
Extraction speed 4.1 X
Track quality 100.0 %
Test CRC 33EDDF9D
Copy CRC 33EDDF9D
Cannot be verified as accurate (confidence 6) [12E1AEAE], AccurateRip returned [3A1BABDA] (AR v2)
Copy OK

Track 12

Filename E:\(Convert)\12 - The Breakdown.wav

Peak level 99.0 %
Extraction speed 4.1 X
Track quality 100.0 %
Test CRC 8A265A3F
Copy CRC 8A265A3F
Cannot be verified as accurate (confidence 4) [D2B1856E], AccurateRip returned [9AF103FE] (AR v2)
Copy OK


No tracks could be verified as accurate
You may have a different pressing from the one(s) in the database

No errors occurred

End of status report

–– CUETools DB Plugin V2.1.6

[CTDB TOCID: To5p0HeXzboKlxPIGIksmmyzp.E-] found
Submit result: already submitted
Track | CTDB Status
1 | (15/15) Accurately ripped
2 | (15/15) Accurately ripped
3 | (15/15) Accurately ripped
4 | (15/15) Accurately ripped
5 | (15/15) Accurately ripped
6 | (15/15) Accurately ripped
7 | (15/15) Accurately ripped
8 | (15/15) Accurately ripped
9 | (15/15) Accurately ripped
10 | (15/15) Accurately ripped
11 | (15/15) Accurately ripped
12 | (13/15) Accurately ripped


==== Log checksum 901765ACB21FF9F97B9FC011114A12E00CC3AE40C570BEC34B09DA531C1C2541 ====



Hank Mobley - Eight Classic Albums (2013) {4CD Set Real Gone Jazz RGJCD262 rec 1955-1960}

Hank Mobley - Eight Classic Albums (2013) {4CD Set Real Gone Jazz RGJCD262 rec 1955-1960}

Hank Mobley - Eight Classic Albums (2013) {4CD Set Real Gone Jazz RGJCD262 rec 1955-1960}



===