Subcategories

Hanns Eisler (1898-1962) - Ernste Gesänge - Lieder with piano - Matthias Goerne, Thomas Larcher (2013) {Harmonia Mundi}

Posted By: ruskaval
Hanns Eisler (1898-1962) - Ernste Gesänge - Lieder with piano - Matthias Goerne, Thomas Larcher (2013) {Harmonia Mundi}

Hanns Eisler (1898-1962) - Ernste Gesänge - Lieder with piano - Matthias Goerne, Thomas Larcher (2013) {Harmonia Mundi}
EAC rip (secure mode) | FLAC (tracks)+CUE+LOG -> 968 Mb | MP3 @320 -> 383 Mb | Artwork | 5% repair rar
© 2013 Harmonia Mundi | HMC 902134
Classical / Modern Classical

From 1920s Vienna and the Berlin of the Weimar Republic to emigration to the USA, then back to Vienna after the defeat of Nazism, to end his days in East Berlin: Hanns Eisler’s life was one long exile against the backcloth of the artistic, technical, and political revolutions of the 20th century. Distance, irony, and melancholy are the aesthetic corollaries that characterise the lieder presented here, their atmosphere often evoking the despair of those dark times. The early piano sonata gained the young Eisler an admiration that has never dimmed since.
Austrian composer Hanns Eisler, half Jewish and half Lutheran, lived through many of the major events of the 20th century, and his music, much underrated, reflects them. He was a student of Arnold Schoenberg and wrote some atonal and twelve-tone music, but then turned to the left politically and began to collaborate with Bertolt Brecht and to compose in a jazz-influenced style that sounds like a more serious version of Kurt Weill. Fleeing the Nazis, he landed in the U.S., where he became a successful film composer. He was deported at the beginning of the 1950s Red Scare (a fact the booklet to this release glosses over) and settled, like Brecht, in East Berlin. The last years of his life were marked by increasing depression over the growing failures of the Communist experiment, and it is from this period, shortly before his death, that the opening Ernste Gesänge come. These "serious songs" are for baritone and a small string ensemble. The popular influences of Eisler's earlier music are still there, but they are deployed in an utterly gloomy way, in settings by Hölderlin and others. These songs, short but quite profound, constitute a major nearly lost work torn from the pages of life in the middle 20th century like the music of few other composers other than Shostakovich, and baritone Matthias Goerne's performance of them is masterful. The other two works on the program give an idea of Eisler's earlier music. The Piano Sonata, Op. 1, was written under Schoenberg's influence and is atonal, although not dodecaphonic. The three lieder that follow come from Eisler's collaboration with Brecht in Weimar-era Berlin, before both left Germany; they include the Solidaritätslied, which was sung during leftist street demonstrations, but not, unfortunately, Die Ballade vom Paragraphen 218, arguably the world's first pro-choice song. These are beautiful, sympathetic interpretations of a composer whom the world treated unkindly and whose music deserves much greater exposure.

Musicians:

Matthias Goerne - Baritone
Thomas Larcher - Piano
Ensemble Resonanz - String Ensemble

tracklist:
01 - Ernste Gesange. Vorspiel und Spruch
02 - Ernste Gesange. 1. Asyl
03 - Ernste Gesange. 2. Traurigkeit
04 - Ernste Gesange. 3. Verzweiflung
05 - Ernste Gesange. 4. Hoffnung
06 - Ernste Gesange. 5. XX. Parteitag
07 - Ernste Gesange. 6. Komm ins Offene, Freund!
08 - Ernste Gesange. 7. Epilog
09 - Hotelzimmer 1942
10 - Die Flucht
11 - An den kleinen Radioapparat
12 - In der Fruhe
13 - Fruhling
14 - Speisekammer 1942
15 - Die Heimkehr
16 - Die Landschaft des Exils
17 - Und es sind die finstern Zeiten
18 - Uber den Selbstmord
19 - Verfehlte Liebe
20 - Ostersonntag
21 - Vom Sprengen des Gartens
22 - Der Kirschdieb
23 - Sonate op.1. I. Allegro
24 - Sonate op.1. II. Intermezzo. Andante con moto
25 - Sonate op.1. III. Finale. Allegro
26 - Lied von der belebenden Wirkung des Geldes
27 - Ballade vom Wasserrad
28 - Solidaritatslied

Exact Audio Copy V1.0 beta 3 from 29. August 2011

EAC extraction logfile from 30. January 2014, 11:01

Hanns Eisler / Ernste Gesange - Lieder

Used drive : PLEXTOR DVDR PX-860A Adapter: 0 ID: 0

Read mode : Secure
Utilize accurate stream : Yes
Defeat audio cache : Yes
Make use of C2 pointers : No

Read offset correction : 96
Overread into Lead-In and Lead-Out : No
Fill up missing offset samples with silence : Yes
Delete leading and trailing silent blocks : No
Null samples used in CRC calculations : Yes
Used interface : Native Win32 interface for Win NT & 2000
Gap handling : Appended to previous track

Used output format : User Defined Encoder
Selected bitrate : 1024 kBit/s
Quality : High
Add ID3 tag : No
Command line compressor : C:\Program Files\Exact Audio Copy\Flac\flac.exe
Additional command line options : -8 -V -T "ARTIST=%artist%" -T "TITLE=%title%" -T "ALBUM=%albumtitle%" -T "DATE=%year%" -T "TRACKNUMBER=%tracknr%" -T "TOTALTRACKS=%numtracks%" -T "GENRE=%genre%" -T "ALBUMARTIST=%albumartist%" -T "ALBUM ARTIST=%albumartist%" -T "COMMENT=EAC Secure Mode, Test & Copy, AccurateRip, FLAC -8" %source%


TOC of the extracted CD

Track | Start | Length | Start sector | End sector
––––––––––––––––––––––––––––-
1 | 0:00.00 | 1:21.43 | 0 | 6117
2 | 1:21.43 | 2:36.39 | 6118 | 17856
3 | 3:58.07 | 1:52.09 | 17857 | 26265
4 | 5:50.16 | 0:47.20 | 26266 | 29810
5 | 6:37.36 | 1:04.13 | 29811 | 34623
6 | 7:41.49 | 0:39.52 | 34624 | 37600
7 | 8:21.26 | 1:43.14 | 37601 | 45339
8 | 10:04.40 | 2:57.65 | 45340 | 58679
9 | 13:02.30 | 1:51.62 | 58680 | 67066
10 | 14:54.17 | 0:48.36 | 67067 | 70702
11 | 15:42.53 | 0:48.61 | 70703 | 74363
12 | 16:31.39 | 1:23.15 | 74364 | 80603
13 | 17:54.54 | 1:11.30 | 80604 | 85958
14 | 19:06.09 | 1:07.28 | 85959 | 91011
15 | 20:13.37 | 1:59.03 | 91012 | 99939
16 | 22:12.40 | 1:19.30 | 99940 | 105894
17 | 23:31.70 | 0:24.07 | 105895 | 107701
18 | 23:56.02 | 2:21.25 | 107702 | 118301
19 | 26:17.27 | 0:49.06 | 118302 | 121982
20 | 27:06.33 | 1:30.47 | 121983 | 128779
21 | 28:37.05 | 0:57.05 | 128780 | 133059
22 | 29:34.10 | 1:18.37 | 133060 | 138946
23 | 30:52.47 | 5:17.20 | 138947 | 162741
24 | 36:09.67 | 3:32.65 | 162742 | 178706
25 | 39:42.57 | 4:07.48 | 178707 | 197279
26 | 43:50.30 | 4:03.27 | 197280 | 215531
27 | 47:53.57 | 3:26.42 | 215532 | 231023
28 | 51:20.24 | 2:42.54 | 231024 | 243227


Track 1

Filename O:\DL\Hanns Eisler - Ernste Gesange - Lieder (2013) [FLAC]\01 - Ernste Gesange. Vorspiel und Spruch.wav

Pre-gap length 0:00:02.00

Peak level 96.2 %
Extraction speed 3.2 X
Track quality 100.0 %
Test CRC 8C012B01
Copy CRC 8C012B01
Track not present in AccurateRip database
Copy OK

Track 2

Filename O:\DL\Hanns Eisler - Ernste Gesange - Lieder (2013) [FLAC]\02 - Ernste Gesange. 1. Asyl.wav

Peak level 51.1 %
Extraction speed 4.0 X
Track quality 100.0 %
Test CRC 94873219
Copy CRC 94873219
Track not present in AccurateRip database
Copy OK

Track 3

Filename O:\DL\Hanns Eisler - Ernste Gesange - Lieder (2013) [FLAC]\03 - Ernste Gesange. 2. Traurigkeit.wav

Peak level 78.1 %
Extraction speed 4.0 X
Track quality 100.0 %
Test CRC 6DDA54AD
Copy CRC 6DDA54AD
Track not present in AccurateRip database
Copy OK

Track 4

Filename O:\DL\Hanns Eisler - Ernste Gesange - Lieder (2013) [FLAC]\04 - Ernste Gesange. 3. Verzweiflung.wav

Peak level 96.1 %
Extraction speed 3.0 X
Track quality 100.0 %
Test CRC 6B787832
Copy CRC 6B787832
Track not present in AccurateRip database
Copy OK

Track 5

Filename O:\DL\Hanns Eisler - Ernste Gesange - Lieder (2013) [FLAC]\05 - Ernste Gesange. 4. Hoffnung.wav

Peak level 85.2 %
Extraction speed 3.5 X
Track quality 100.0 %
Test CRC E280F399
Copy CRC E280F399
Track not present in AccurateRip database
Copy OK

Track 6

Filename O:\DL\Hanns Eisler - Ernste Gesange - Lieder (2013) [FLAC]\06 - Ernste Gesange. 5. XX. Parteitag.wav

Peak level 75.4 %
Extraction speed 2.9 X
Track quality 100.0 %
Test CRC 8537174B
Copy CRC 8537174B
Track not present in AccurateRip database
Copy OK

Track 7

Filename O:\DL\Hanns Eisler - Ernste Gesange - Lieder (2013) [FLAC]\07 - Ernste Gesange. 6. Komm ins Offene, Freund!.wav

Peak level 95.9 %
Extraction speed 4.2 X
Track quality 100.0 %
Test CRC 11AFFB44
Copy CRC 11AFFB44
Track not present in AccurateRip database
Copy OK

Track 8

Filename O:\DL\Hanns Eisler - Ernste Gesange - Lieder (2013) [FLAC]\08 - Ernste Gesange. 7. Epilog.wav

Peak level 96.1 %
Extraction speed 5.0 X
Track quality 100.0 %
Test CRC FC00CB2C
Copy CRC FC00CB2C
Track not present in AccurateRip database
Copy OK

Track 9

Filename O:\DL\Hanns Eisler - Ernste Gesange - Lieder (2013) [FLAC]\09 - Hotelzimmer 1942.wav

Pre-gap length 0:00:02.90

Peak level 50.4 %
Extraction speed 4.7 X
Track quality 100.0 %
Test CRC 3DD9BBAE
Copy CRC 3DD9BBAE
Track not present in AccurateRip database
Copy OK

Track 10

Filename O:\DL\Hanns Eisler - Ernste Gesange - Lieder (2013) [FLAC]\10 - Die Flucht.wav

Peak level 96.1 %
Extraction speed 2.5 X
Track quality 99.7 %
Test CRC A630B79D
Copy CRC A630B79D
Track not present in AccurateRip database
Copy OK

Track 11

Filename O:\DL\Hanns Eisler - Ernste Gesange - Lieder (2013) [FLAC]\11 - An den kleinen Radioapparat.wav

Peak level 46.7 %
Extraction speed 2.6 X
Track quality 99.7 %
Test CRC EFFBDA2C
Copy CRC EFFBDA2C
Track not present in AccurateRip database
Copy OK

Track 12

Filename O:\DL\Hanns Eisler - Ernste Gesange - Lieder (2013) [FLAC]\12 - In der Fruhe.wav

Peak level 96.0 %
Extraction speed 4.5 X
Track quality 100.0 %
Test CRC A2F34DBA
Copy CRC A2F34DBA
Track not present in AccurateRip database
Copy OK

Track 13

Filename O:\DL\Hanns Eisler - Ernste Gesange - Lieder (2013) [FLAC]\13 - Fruhling.wav

Peak level 90.1 %
Extraction speed 3.3 X
Track quality 99.8 %
Test CRC DC9321D3
Copy CRC DC9321D3
Track not present in AccurateRip database
Copy OK

Track 14

Filename O:\DL\Hanns Eisler - Ernste Gesange - Lieder (2013) [FLAC]\14 - Speisekammer 1942.wav

Peak level 96.0 %
Extraction speed 3.1 X
Track quality 99.8 %
Test CRC F5AA28F9
Copy CRC F5AA28F9
Track not present in AccurateRip database
Copy OK

Track 15

Filename O:\DL\Hanns Eisler - Ernste Gesange - Lieder (2013) [FLAC]\15 - Die Heimkehr.wav

Peak level 82.0 %
Extraction speed 5.3 X
Track quality 100.0 %
Test CRC 319DA891
Copy CRC 319DA891
Track not present in AccurateRip database
Copy OK

Track 16

Filename O:\DL\Hanns Eisler - Ernste Gesange - Lieder (2013) [FLAC]\16 - Die Landschaft des Exils.wav

Peak level 96.1 %
Extraction speed 4.8 X
Track quality 100.0 %
Test CRC DE8126C0
Copy CRC DE8126C0
Track not present in AccurateRip database
Copy OK

Track 17

Filename O:\DL\Hanns Eisler - Ernste Gesange - Lieder (2013) [FLAC]\17 - Und es sind die finstern Zeiten.wav

Peak level 63.3 %
Extraction speed 2.8 X
Track quality 100.0 %
Test CRC AEC9A552
Copy CRC AEC9A552
Track not present in AccurateRip database
Copy OK

Track 18

Filename O:\DL\Hanns Eisler - Ernste Gesange - Lieder (2013) [FLAC]\18 - Uber den Selbstmord.wav

Peak level 96.0 %
Extraction speed 5.6 X
Track quality 100.0 %
Test CRC DD1F52AD
Copy CRC DD1F52AD
Track not present in AccurateRip database
Copy OK

Track 19

Filename O:\DL\Hanns Eisler - Ernste Gesange - Lieder (2013) [FLAC]\19 - Verfehlte Liebe.wav

Peak level 66.5 %
Extraction speed 4.1 X
Track quality 100.0 %
Test CRC F1341A09
Copy CRC F1341A09
Track not present in AccurateRip database
Copy OK

Track 20

Filename O:\DL\Hanns Eisler - Ernste Gesange - Lieder (2013) [FLAC]\20 - Ostersonntag.wav

Peak level 60.1 %
Extraction speed 4.1 X
Track quality 99.8 %
Test CRC B1BC3020
Copy CRC B1BC3020
Track not present in AccurateRip database
Copy OK

Track 21

Filename O:\DL\Hanns Eisler - Ernste Gesange - Lieder (2013) [FLAC]\21 - Vom Sprengen des Gartens.wav

Peak level 53.9 %
Extraction speed 3.3 X
Track quality 99.8 %
Test CRC BD94F24D
Copy CRC BD94F24D
Track not present in AccurateRip database
Copy OK

Track 22

Filename O:\DL\Hanns Eisler - Ernste Gesange - Lieder (2013) [FLAC]\22 - Der Kirschdieb.wav

Peak level 90.8 %
Extraction speed 5.1 X
Track quality 100.0 %
Test CRC 99387D98
Copy CRC 99387D98
Track not present in AccurateRip database
Copy OK

Track 23

Filename O:\DL\Hanns Eisler - Ernste Gesange - Lieder (2013) [FLAC]\23 - Sonate op.1. I. Allegro.wav

Pre-gap length 0:00:04.93

Peak level 96.2 %
Extraction speed 6.8 X
Track quality 100.0 %
Test CRC 6DCCCEA6
Copy CRC 6DCCCEA6
Track not present in AccurateRip database
Copy OK

Track 24

Filename O:\DL\Hanns Eisler - Ernste Gesange - Lieder (2013) [FLAC]\24 - Sonate op.1. II. Intermezzo. Andante con moto.wav

Peak level 96.1 %
Extraction speed 6.8 X
Track quality 100.0 %
Test CRC 13DFA49B
Copy CRC 13DFA49B
Track not present in AccurateRip database
Copy OK

Track 25

Filename O:\DL\Hanns Eisler - Ernste Gesange - Lieder (2013) [FLAC]\25 - Sonate op.1. III. Finale. Allegro.wav

Peak level 96.2 %
Extraction speed 6.3 X
Track quality 99.9 %
Test CRC FBF6D218
Copy CRC FBF6D218
Track not present in AccurateRip database
Copy OK

Track 26

Filename O:\DL\Hanns Eisler - Ernste Gesange - Lieder (2013) [FLAC]\26 - Lied von der belebenden Wirkung des Geldes.wav

Pre-gap length 0:00:02.86

Peak level 96.4 %
Extraction speed 6.5 X
Track quality 99.9 %
Test CRC D8C7DDC3
Copy CRC D8C7DDC3
Track not present in AccurateRip database
Copy OK

Track 27

Filename O:\DL\Hanns Eisler - Ernste Gesange - Lieder (2013) [FLAC]\27 - Ballade vom Wasserrad.wav

Peak level 96.0 %
Extraction speed 7.3 X
Track quality 100.0 %
Test CRC 3A1CC8EB
Copy CRC 3A1CC8EB
Track not present in AccurateRip database
Copy OK

Track 28

Filename O:\DL\Hanns Eisler - Ernste Gesange - Lieder (2013) [FLAC]\28 - Solidaritatslied.wav

Peak level 96.1 %
Extraction speed 6.8 X
Track quality 100.0 %
Test CRC 1AEE9356
Copy CRC 1AEE9356
Track not present in AccurateRip database
Copy OK


None of the tracks are present in the AccurateRip database

No errors occurred

End of status report

–– CUETools DB Plugin V2.1.3

[CTDB TOCID: 6XRgb3m2n_ccGo3txSet8DocXVM-] disk not present in database, Submit result: database access error: The request was aborted: The request was canceled.


==== Log checksum 7E5747D9763E285594A2D4527C59D3880353CF67187E4530610F12FFB06AC6E4 ====


Hanns Eisler (1898-1962) - Ernste Gesänge - Lieder with piano - Matthias Goerne, Thomas Larcher (2013) {Harmonia Mundi}



===