Subcategories

Hariprasad Chaurasia - Hari-Krishna - In Praise of Janmashtami (1998) {3 CD Box Navras NRCD 0116~8}

Posted By: ruskaval
Hariprasad Chaurasia - Hari-Krishna - In Praise of Janmashtami (1998) {3 CD Box Navras NRCD 0116~8}

Hariprasad Chaurasia - Hari-Krishna - In Praise of Janmashtami (1998) {3 CD Box Navras NRCD 0116~8}
EAC rip (secure mode) | FLAC (tracks)+CUE+LOG -> 1.01 Gb | MP3 @320 -> 475 Mb
Full Artwork @ 600 dpi (png) -> 160 Mb | 5% repair rar
© 1998 Navras Records | NRCD 0116/7/8
Indian Music / Indian Classical / Flute (Bansuri) / Raga / Krishna Janmastami Related / World Music

Lord Krishna is perhaps the most well known deity throughout the world is one of the very important GOD's in the Hindu mythology who is also connected with flute as it's ultimate master. This particular special box set's music is sourced from the live recording on Krishna Janmashtami celebrations conducted in Pandit Hariprasad Chaurasia's own house in 1998 where he performed all night. Pandit Hairprasad Cahurasia was accompanied on Bansuri Flute by Rakesh Chaurasia (His disciple as well as his nephew), Rupak Kulkarni (One of His outstanding disciples) and on Tabla By Pandit Madan Mishra and Santosh Mishra.

Together they played a Raagmala (A Garland of Ragas based on Mishra Khamaj). The performance starts with a brief Alap in Raga Khamaj and then sets in 6 Beat Dadra Taal in Raga Khamaj and then they flowed in several ragas such as Tilak Kamod, Yaman, Puriya Kalyan, Bhoopali, Pilu etc before coming back to Raga Khamaj and ends with a 16 beat Tintaal in Raga Khamaj. It's another great evidence of Hairprasad Chaurasia's highly performing skills as well as his ultimate devotion to his beloved deity Lord Krishna.
Hariprasad Chaurasia - Hari-Krishna - In Praise of Janmashtami (1998) {3 CD Box Navras NRCD 0116~8}


Musicians

Pandit Hariprasad Chaurasia - flute

Accompanying:
Rakesh Chaurasia (Flute) & Rupak Kulkarni (Flute), Pandit Madan Mishra (Tabla) & Santosh Mishra (Tabla)

Hariprasad Chaurasia - Hari-Krishna - In Praise of Janmashtami (1998) {3 CD Box Navras NRCD 0116~8}


Track Listing

CD1

01 - Raag-Mala In Mishra Khamaj - Alap
02 - Raag-Mala In Mishra Khamaj - Gat Part 1

CD2
01 - Raag-Mala In Mishra Khamaj - Gat Part 2

CD3
01 - Raag-Mala In Mishra Khamaj - Gat Part 3

Exact Audio Copy V0.99 prebeta 5 from 4. May 2009

EAC extraction logfile from 23. August 2010, 20:10

Hariprasad Chaurasia / Hari-Krishna - In Praise of Janmashtami - CD 1

Used drive : MOSER BAER DH-22A8S Adapter: 2 ID: 1

Read mode : Secure
Utilize accurate stream : Yes
Defeat audio cache : Yes
Make use of C2 pointers : No

Read offset correction : 6
Overread into Lead-In and Lead-Out : No
Fill up missing offset samples with silence : Yes
Delete leading and trailing silent blocks : No
Null samples used in CRC calculations : Yes
Used interface : Installed external ASPI interface
Gap handling : Appended to previous track

Used output format : Internal WAV Routines
Sample format : 44.100 Hz; 16 Bit; Stereo


TOC of the extracted CD

Track | Start | Length | Start sector | End sector
––––––––––––––––––––––––––––-
1 | 0:00.00 | 5:01.55 | 0 | 22629
2 | 5:01.55 | 67:05.09 | 22630 | 324513


Track 1

Filename H:\Wildstrings\01 - Raag-Mala In Mishra Khamaj - Alap.wav

Pre-gap length 0:00:02.00

Peak level 59.3 %
Track quality 100.0 %
Test CRC 8FB48DD5
Copy CRC 8FB48DD5
Track not present in AccurateRip database
Copy OK

Track 2

Filename H:\Wildstrings\02 - Raag-Mala In Mishra Khamaj - Gat Part 1.wav

Pre-gap length 0:00:01.45

Peak level 95.4 %
Track quality 100.0 %
Test CRC CA88ED47
Copy CRC CA88ED47
Track not present in AccurateRip database
Copy OK


None of the tracks are present in the AccurateRip database

No errors occurred

End of status report

––––––––––––––––––––––––––––––

Exact Audio Copy V0.99 prebeta 5 from 4. May 2009

EAC extraction logfile from 23. August 2010, 20:41

Hariprasad Chaurasia / Hari-Krishna - In Praise of Janmashtami - CD 2

Used drive : MOSER BAER DH-22A8S Adapter: 2 ID: 1

Read mode : Secure
Utilize accurate stream : Yes
Defeat audio cache : Yes
Make use of C2 pointers : No

Read offset correction : 6
Overread into Lead-In and Lead-Out : No
Fill up missing offset samples with silence : Yes
Delete leading and trailing silent blocks : No
Null samples used in CRC calculations : Yes
Used interface : Installed external ASPI interface
Gap handling : Appended to previous track

Used output format : Internal WAV Routines
Sample format : 44.100 Hz; 16 Bit; Stereo


TOC of the extracted CD

Track | Start | Length | Start sector | End sector
––––––––––––––––––––––––––––-
1 | 0:00.00 | 68:47.19 | 0 | 309543


Track 1

Filename H:\Wildstrings\01 - Raag-Mala In Mishra Khamaj - Gat Part 2.wav

Pre-gap length 0:00:02.00

Peak level 95.4 %
Track quality 99.9 %
Test CRC 51CD9733
Copy CRC 51CD9733
Track not present in AccurateRip database
Copy OK


None of the tracks are present in the AccurateRip database

No errors occurred

End of status report

––––––––––––––––––––––––––––––

Exact Audio Copy V0.99 prebeta 5 from 4. May 2009

EAC extraction logfile from 23. August 2010, 21:10

Hariprasad Chaurasia / Hari-Krishna - In Praise of Janmashtami - CD 3

Used drive : MOSER BAER DH-22A8S Adapter: 2 ID: 1

Read mode : Secure
Utilize accurate stream : Yes
Defeat audio cache : Yes
Make use of C2 pointers : No

Read offset correction : 6
Overread into Lead-In and Lead-Out : No
Fill up missing offset samples with silence : Yes
Delete leading and trailing silent blocks : No
Null samples used in CRC calculations : Yes
Used interface : Installed external ASPI interface
Gap handling : Appended to previous track

Used output format : Internal WAV Routines
Sample format : 44.100 Hz; 16 Bit; Stereo


TOC of the extracted CD

Track | Start | Length | Start sector | End sector
––––––––––––––––––––––––––––-
1 | 0:00.00 | 59:40.62 | 0 | 268561


Track 1

Filename H:\Wildstrings\01 - Raag-Mala In Mishra Khamaj - Gat Part 3.wav

Pre-gap length 0:00:02.00

Peak level 95.4 %
Track quality 100.0 %
Test CRC 87E2AC38
Copy CRC 87E2AC38
Track not present in AccurateRip database
Copy OK


None of the tracks are present in the AccurateRip database

No errors occurred

End of status report


Hariprasad Chaurasia - Hari-Krishna - In Praise of Janmashtami (1998) {3 CD Box Navras NRCD 0116~8}

Hariprasad Chaurasia - Hari-Krishna - In Praise of Janmashtami (1998) {3 CD Box Navras NRCD 0116~8}


see more Indian Music…


===